osu file format v14

[General]
AudioFilename: audio.mp3
AudioLeadIn: 0
PreviewTime: 59164
Countdown: 0
SampleSet: None
StackLeniency: 0.7
Mode: 0
LetterboxInBreaks: 0
WidescreenStoryboard: 1

[Editor]
Bookmarks: 60802,127009
DistanceSpacing: 1.2
BeatDivisor: 4
GridSize: 4
TimelineZoom: 1.5

[Metadata]
Title:Holdin On (Skrillex and Nero Remix)
TitleUnicode:Holdin On (Skrillex and Nero Remix)
Artist:I SEE MONSTAS
ArtistUnicode:I SEE MONSTAS
Creator:Sotarks
Version:Kin's Hard
Source:
Tags:Hobbes2 Kin Akitoshi Corinn dubstep
BeatmapID:1492588
BeatmapSetID:701330

[Difficulty]
HPDrainRate:5
CircleSize:3.8
OverallDifficulty:6.8
ApproachRate:8.2
SliderMultiplier:1.42
SliderTickRate:1

[Events]
//Background and Video events
0,0,"monsta.jpg",0,0
//Break Periods
2,55485,59423
//Storyboard Layer 0 (Background)
//Storyboard Layer 1 (Fail)
//Storyboard Layer 2 (Pass)
//Storyboard Layer 3 (Foreground)
//Storyboard Sound Samples

[TimingPoints]
113,344.827586206897,4,3,22,62,1,0
22181,-133.333333333333,4,3,22,62,0,0
52526,-100,4,3,22,62,0,0

[Colours]
Combo1 : 130,133,152
Combo2 : 219,13,0
Combo3 : 155,27,55
Combo4 : 252,65,46
Combo5 : 104,77,94

[HitObjects]
288,76,21492,6,0,P|252:80|208:72,2,71,8|0|0,0:0|1:0|1:0,0:0:0:0:
296,72,22181,6,0,B|284:120|284:120|300:176|300:176|292:228,1,159.750006093979,6|0,1:0|2:0,0:0:0:0:
232,288,22871,2,0,B|176:312|80:312|24:280|24:280|60:280|92:252,1,266.250010156632,10|2,0:0|2:0,0:0:0:0:
24,192,23906,2,0,L|16:124,1,53.2500020313264,0|2,1:0|2:0,0:0:0:0:
76,36,24250,1,8,0:0:0:0:
152,76,24423,2,0,L|272:64,1,106.500004062653,0|2,1:0|2:0,0:0:0:0:
316,0,24940,6,0,P|276:48|320:140,1,159.750006093979,4|0,1:0|2:0,0:0:0:0:
383,163,25630,2,0,P|416:256|312:204,1,266.250010156632,8|0,0:0|0:0,0:0:0:0:
306,132,26664,2,0,P|320:108|344:92,1,53.2500020313264,0|0,1:0|2:0,0:0:0:0:
456,112,27009,1,8,0:0:0:0:
504,184,27181,2,0,P|508:236|488:300,1,106.500004062653,0|8,1:0|0:0,0:0:0:0:
436,352,27699,6,0,B|384:344|384:344|328:352|328:352|276:344,1,159.750006093979,4|2,1:0|2:0,0:0:0:0:
200,376,28388,2,0,B|159:373|140:351|151:342|136:317|96:298|96:298|141:302|165:288|160:274|188:265|224:283,1,266.250010156632,8|2,0:0|2:0,0:0:0:0:
278,344,29423,2,0,L|332:352,1,53.2500020313264,0|2,1:0|2:0,0:0:0:0:
428,288,29768,1,8,0:0:0:0:
500,332,29940,2,0,L|508:224,1,106.500004062653,0|2,1:0|2:0,0:0:0:0:
432,136,30457,6,0,B|388:124|348:132|356:140|316:148|272:136,1,159.750006093979,4|0,1:0|0:0,0:0:0:0:
220,72,31147,2,0,B|178:102|176:176|229:209|229:209|192:246|192:246|215:274|215:307,1,266.250010156632,8|0,0:0|0:0,0:0:0:0:
128,308,32181,2,0,P|100:312|64:304,1,53.2500020313264,2|0,1:0|0:0,0:0:0:0:
24,204,32526,1,10,0:0:0:0:
60,128,32699,2,0,L|184:132,1,106.500004062653,2|10,1:0|0:0,0:0:0:0:
212,60,33216,6,0,P|188:112|204:220,1,159.750006093979,4|2,1:0|2:0,0:0:0:0:
264,268,33906,2,0,B|308:244|364:244|424:268|424:268|400:312|344:324,1,266.250010156632,10|2,0:0|0:0,0:0:0:0:
260,344,34940,2,0,P|228:336|200:308,1,53.2500020313264,0|0,1:0|0:0,0:0:0:0:
160,216,35285,1,10,0:0:0:0:
84,252,35457,2,0,L|72:144,1,106.500004062653,2|2,1:0|2:0,0:0:0:0:
120,76,35975,6,0,B|164:64|204:72|196:80|236:88|280:76,1,159.750006093979,4|0,1:0|2:0,0:0:0:0:
352,36,36664,2,0,P|312:72|440:112,1,266.250010156632,8|0,0:0|2:0,0:0:0:0:
440,44,37699,2,0,P|476:56|500:80,1,53.2500020313264,2|0,1:0|2:0,0:0:0:0:
504,180,38044,1,8,0:0:0:0:
434,129,38216,2,0,P|404:160|336:156,1,106.500004062653,0|8,1:0|0:0,0:0:0:0:
308,84,38733,6,0,L|144:96,1,159.750006093979,6|2,1:0|2:0,0:0:0:0:
80,144,39423,2,0,P|60:180|208:224,1,266.250010156632,10|0,0:0|2:0,0:0:0:0:
204,148,40457,2,0,L|257:144,1,53.2500020313264,0|0,1:0|0:0,0:0:0:0:
352,76,40802,1,10,0:0:0:0:
416,136,40975,2,0,P|432:192|412:248,1,106.500004062653,2|2,1:0|0:0,0:0:0:0:
352,288,41492,6,0,P|280:264|180:272,1,159.750006093979,4|0,1:0|0:0,0:0:0:0:
148,336,42181,2,0,P|88:352|128:232,1,266.250010156632,8|0,0:0|0:0,0:0:0:0:
196,268,43216,2,0,P|232:276|272:276,1,53.2500020313264,2|0,1:0|0:0,0:0:0:0:
360,236,43561,1,8,0:0:0:0:
424,292,43733,2,0,P|444:248|428:184,1,106.500004062653,2|8,1:0|0:0,0:0:0:0:
360,148,44250,6,0,L|268:156,2,79.8750030469895,6|2|0,1:0|2:0|2:0,0:0:0:0:
436,112,44940,1,2,0:0:0:0:
440,100,45458,5,2,2:0:0:0:
364,136,45630,2,0,L|272:144,2,79.8750030469895,2|2|0,0:0|2:0|2:0,0:0:0:0:
444,88,46319,1,2,0:0:0:0:
444,88,46837,5,2,2:0:0:0:
368,124,47009,2,0,P|376:168|364:224,2,79.8750030469895,2|2|0,0:0|2:0|2:0,0:0:0:0:
312,60,47699,2,0,L|192:64,1,106.500004062653,2|2,0:0|0:0,0:0:0:0:
128,100,48216,1,2,0:0:0:0:
128,100,48388,2,0,P|108:144|112:220,1,106.500004062653,2|0,0:0|2:0,0:0:0:0:
260,276,49078,2,0,P|280:232|276:156,1,106.500004062653,0|0,0:0|0:0,0:0:0:0:
212,124,49595,5,2,0:0:0:0:
128,100,49768,2,0,L|24:112,2,79.8750030469895,2|0|0,1:0|0:0|0:0,0:0:0:0:
220,112,50457,1,2,1:0:0:0:
228,100,50975,5,2,0:0:0:0:
136,88,51148,2,0,L|32:100,2,79.8750030469895,2|0|0,1:0|0:0|0:0,0:0:0:0:
236,88,51837,2,0,L|340:100,2,79.8750030469895,2|0|0,1:0|0:0|0:0,0:0:0:0:
184,156,52526,6,0,P|172:188|176:232,1,71,2|0,1:0|1:0,0:0:0:0:
208,304,52871,2,0,L|284:300,1,71,0|0,1:0|1:0,0:0:0:0:
332,368,53216,2,0,L|408:364,1,71,0|0,1:0|1:0,0:0:0:0:
440,288,53561,2,0,L|516:284,1,71,0|0,1:0|1:0,0:0:0:0:
396,216,53906,5,2,1:0:0:0:
328,264,54078,1,0,1:0:0:0:
256,220,54250,2,0,P|208:228|168:220,1,71,0|0,1:0|1:0,0:0:0:0:
128,160,54595,2,0,L|136:116,2,35.5,0|0|0,1:0|1:0|1:0,0:0:0:0:
64,216,54940,2,0,L|72:260,2,35.5,0|0|0,1:0|1:0|1:0,0:0:0:0:
0,160,55285,5,2,0:0:0:0:
456,96,60802,6,0,P|468:48|416:84,1,142,6|10,1:0|0:0,0:0:0:0:
416,244,61492,1,2,0:0:0:0:
332,260,61664,1,2,1:0:0:0:
296,180,61837,2,0,L|212:188,1,71,10|2,0:0|0:0,0:0:0:0:
176,120,62181,5,2,1:0:0:0:
96,200,62354,2,0,L|112:272,2,71,6|10|2,0:0|0:0|0:0,0:0:0:0:
48,96,62871,2,0,L|64:24,2,71,6|2|10,0:0|1:0|0:0,0:0:0:0:
16,176,63388,1,2,1:0:0:0:
124,192,63561,6,0,B|200:200|200:200|168:180,1,106.5,6|0,1:0|2:0,0:0:0:0:
200,200,63906,2,0,L|272:208,1,71,10|0,0:0|0:0,0:0:0:0:
348,248,64250,1,2,0:0:0:0:
372,164,64423,1,2,1:0:0:0:
312,104,64595,2,0,L|236:108,1,71,10|2,0:0|0:0,0:0:0:0:
168,64,64940,5,2,1:0:0:0:
105,157,65113,2,0,P|65:165|13:149,2,71,6|10|2,0:0|0:0|0:0,0:0:0:0:
212,212,65630,1,6,1:3:0:0:
212,212,65802,1,6,1:0:0:0:
268,148,65975,2,0,P|284:112|280:60,1,71,10|2,0:0|1:0,0:0:0:0:
192,16,66319,6,0,B|188:37|188:37|166:52|166:52|171:82|164:112|136:140,1,142,6|10,1:0|0:0,0:0:0:0:
40,276,67009,1,2,0:0:0:0:
120,252,67181,1,2,1:0:0:0:
192,292,67354,2,0,B|228:300|228:300|264:296,1,71,10|2,0:0|0:0,0:0:0:0:
344,276,67699,5,2,1:0:0:0:
292,176,67871,2,0,P|284:136|292:92,2,71,6|10|2,0:0|0:0|0:0,0:0:0:0:
344,276,68388,2,0,P|352:316|344:360,2,71,6|2|10,0:0|1:0|0:0,0:0:0:0:
376,196,68906,1,2,1:0:0:0:
292,176,69078,6,0,B|212:168|212:168|252:144,1,106.5,6|0,1:0|2:0,0:0:0:0:
212,168,69423,2,0,L|140:160,1,71,10|0,0:0|0:0,0:0:0:0:
60,188,69768,1,2,0:0:0:0:
36,268,69940,1,2,1:0:0:0:
104,320,70113,2,0,L|184:328,1,71,10|2,0:0|0:0,0:0:0:0:
252,360,70457,6,0,P|264:328|248:204,1,142,14|0,0:0|1:0,0:0:0:0:
176,248,70975,2,0,P|164:216|180:92,1,142,14|0,0:0|1:0,0:0:0:0:
252,136,71492,1,14,0:0:0:0:
88,84,71837,6,0,B|18:98|18:98|72:145,1,142,6|10,1:0|0:0,0:0:0:0:
232,200,72526,1,2,0:0:0:0:
256,284,72699,1,2,1:0:0:0:
188,336,72871,2,0,L|100:332,1,71,10|2,0:0|0:0,0:0:0:0:
52,276,73216,5,2,1:0:0:0:
132,196,73388,2,0,P|168:188|212:192,2,71,6|10|2,0:0|0:0|0:0,0:0:0:0:
80,92,73906,2,0,P|44:84|0:88,2,71,6|2|10,0:0|1:0|0:0,0:0:0:0:
148,40,74423,1,2,1:0:0:0:
244,104,74595,6,0,B|324:108|324:108|284:76,1,106.5,6|0,1:0|2:0,0:0:0:0:
324,108,74940,2,0,L|412:112,1,71,10|0,0:0|0:0,0:0:0:0:
444,180,75285,1,2,0:0:0:0:
456,264,75457,1,2,1:0:0:0:
372,280,75630,2,0,L|284:276,1,71,10|2,0:0|0:0,0:0:0:0:
220,252,75975,5,2,1:0:0:0:
148,340,76147,2,0,L|60:336,2,71,6|10|2,0:0|0:0|0:0,0:0:0:0:
224,256,76664,1,6,1:0:0:0:
224,256,76837,1,6,1:0:0:0:
301,276,77009,2,0,L|371:280,1,71,10|2,0:0|1:0,0:0:0:0:
444,232,77354,6,0,B|440:216|440:216|452:200|452:200|444:188|444:188|460:160|460:128|448:100,1,142,6|10,1:0|0:0,0:0:0:0:
288,28,78044,1,2,0:0:0:0:
204,32,78216,1,2,1:0:0:0:
168,108,78388,2,0,L|260:120,1,71,10|2,0:0|0:0,0:0:0:0:
324,104,78733,5,2,1:0:0:0:
256,200,78906,2,0,L|268:276,2,71,6|10|2,0:0|0:0|0:0,0:0:0:0:
216,92,79423,2,0,L|228:16,2,71,6|2|10,0:0|1:0|0:0,0:0:0:0:
152,148,79940,1,2,1:0:0:0:
256,200,80113,6,0,B|336:208|336:208|300:176,1,106.5,6|0,1:0|2:0,0:0:0:0:
336,208,80457,2,0,L|408:216,1,71,10|0,0:0|0:0,0:0:0:0:
476,168,80802,1,2,0:0:0:0:
496,84,80975,1,2,1:0:0:0:
424,36,81147,2,0,L|348:44,1,71,10|2,0:0|0:0,0:0:0:0:
276,4,81492,5,6,1:0:0:0:
148,116,81837,2,0,P|116:164|140:264,1,142,10|0,0:0|0:0,0:0:0:0:
204,280,82354,1,12,0:0:0:0:
204,280,82526,1,12,0:0:0:0:
344,184,82871,6,0,B|328:152|328:120|344:92|344:92|372:112|372:136,1,142,4|8,1:0|0:0,0:0:0:0:
368,300,83561,2,0,L|412:304,2,35.5,2|2|2,0:0|0:0|1:0,0:0:0:0:
300,244,83906,2,0,L|228:248,1,71,10|2,0:0|0:0,0:0:0:0:
168,188,84250,5,2,1:0:0:0:
244,100,84423,2,0,L|328:104,2,71,6|10|2,0:0|0:0|0:0,0:0:0:0:
132,108,84940,2,0,L|48:112,2,71,6|2|10,0:0|1:0|0:0,0:0:0:0:
168,188,85457,1,2,1:0:0:0:
244,100,85630,6,0,B|312:104|312:104|272:56,1,106.5,6|0,1:0|2:0,0:0:0:0:
312,104,85975,2,0,L|384:108,1,71,10|0,0:0|0:0,0:0:0:0:
448,168,86319,2,0,P|460:212|452:260,1,71,2|2,0:0|1:0,0:0:0:0:
408,308,86664,2,0,P|364:304|328:312,1,71,10|2,0:0|0:0,0:0:0:0:
256,336,87009,5,2,1:0:0:0:
188,244,87181,2,0,P|160:272|144:312,2,71,6|10|2,0:0|0:0|0:0,0:0:0:0:
272,252,87699,1,6,1:0:0:0:
272,252,87871,1,6,1:0:0:0:
348,216,88044,2,0,P|376:188|392:148,1,71,10|0,0:0|1:0,0:0:0:0:
376,48,88388,6,0,B|360:44|344:36|344:36|332:48|312:52|312:52|280:36|240:48,1,142,6|10,1:0|0:0,0:0:0:0:
116,160,89078,2,0,L|68:152,2,35.5,2|2|2,0:0|0:0|1:0,0:0:0:0:
172,224,89423,2,0,L|256:220,1,71,10|2,0:0|0:0,0:0:0:0:
312,168,89768,5,2,1:0:0:0:
384,256,89940,2,0,L|376:328,2,71,6|10|2,0:0|0:0|0:0,0:0:0:0:
484,196,90457,2,0,L|476:124,2,71,6|2|10,0:0|1:0|0:0,0:0:0:0:
496,280,90975,1,2,1:0:0:0:
384,256,91147,6,0,B|304:264|304:264|320:240,1,106.5,6|0,1:0|2:0,0:0:0:0:
304,264,91492,2,0,L|216:272,1,71,10|0,0:0|0:0,0:0:0:0:
172,212,91837,2,0,P|156:180|160:132,1,71,2|2,0:0|1:0,0:0:0:0:
184,64,92181,2,0,P|236:68|268:64,1,71,10|2,0:0|0:0,0:0:0:0:
316,8,92526,6,0,P|300:40|308:152,1,142,6|10,1:0|0:0,0:0:0:0:
360,208,93044,1,0,0:0:0:0:
364,212,93216,2,0,L|476:208,2,106.5,12|0|0,0:0|0:0|0:0,0:0:0:0:
260,264,93906,6,0,B|242:266|232:272|232:272|221:261|204:256|204:256|180:272|148:272|120:260,1,142,6|10,1:0|0:0,0:0:0:0:
40,116,94595,2,0,L|48:44,1,71,2|2,0:0|1:0,0:0:0:0:
132,28,94940,2,0,P|168:32|220:28,1,71,10|2,0:0|0:0,0:0:0:0:
284,8,95285,1,2,1:0:0:0:
384,60,95457,2,0,L|464:52,2,71,6|10|2,0:0|0:0|0:0,0:0:0:0:
276,104,95975,2,0,L|196:96,2,71,2|2|10,0:0|1:0|0:0,0:0:0:0:
356,136,96492,1,2,1:0:0:0:
268,208,96664,6,0,B|260:288|260:288|292:260,1,106.5,2|0,1:0|2:0,0:0:0:0:
260,288,97009,2,0,L|252:360,1,71,10|0,0:0|0:0,0:0:0:0:
176,324,97354,2,0,P|140:316|100:320,1,71,2|2,0:0|1:0,0:0:0:0:
44,260,97699,2,0,P|76:242|116:236,1,71,10|2,0:0|0:0,0:0:0:0:
196,248,98044,5,2,1:0:0:0:
148,144,98216,2,0,P|140:108|152:56,2,71,6|10|2,0:0|0:0|0:0,0:0:0:0:
264,200,98733,2,0,P|272:244|196:248,1,142,6|14,1:0|0:0,0:0:0:0:
232,124,99250,1,0,0:0:0:0:
232,124,99423,6,0,B|264:112|264:112|296:120|296:120|332:100|388:120,1,142,6|10,1:0|0:0,0:0:0:0:
480,244,100113,2,0,P|484:288|468:324,1,71,2|2,0:0|1:0,0:0:0:0:
420,376,100457,2,0,L|344:368,1,71,10|2,0:0|0:0,0:0:0:0:
292,304,100802,5,2,0:0:0:0:
176,316,100975,2,0,L|100:324,2,71,6|2|2,1:0|0:0|0:0,0:0:0:0:
272,252,101492,2,0,L|348:260,2,71,2|2|10,1:0|1:0|0:0,0:0:0:0:
188,240,102009,1,2,1:0:0:0:
232,136,102181,6,0,P|244:100|236:64,1,71,6|0,1:0|0:0,0:0:0:0:
168,20,102526,2,0,P|208:28|320:24,1,142,8|0,0:0|0:0,0:0:0:0:
392,8,103044,1,2,1:0:0:0:
328,104,103216,2,0,P|316:148|320:204,1,71,14|0,0:0|0:0,0:0:0:0:
352,252,103561,6,0,B|384:244|384:244|420:260,2,71,12|0|0,0:0|1:0|1:0,0:0:0:0:
268,244,104078,2,0,B|236:252|236:252|200:236,2,71,12|0|0,0:0|1:0|1:0,0:0:0:0:
315,173,104595,1,12,0:0:0:0:
336,188,104940,6,0,P|365:255|268:244,1,213,4|0,1:3|0:0,0:0:0:0:
252,160,105630,2,0,L|164:168,3,71,10|2|2|2,0:0|0:2|0:0|0:2,0:0:0:0:
156,248,106319,2,0,L|68:240,3,71,2|2|2|2,1:0|0:0|0:0|0:0,0:0:0:0:
36,172,107009,2,0,P|20:140|20:96,1,71,10|2,0:0|0:0,0:0:0:0:
48,24,107354,1,0,1:0:0:0:
216,40,107699,6,0,B|232:36|232:36|256:44|256:44|280:36|280:36|300:40|300:40|336:16|388:20|424:44,1,213,4|0,1:0|0:0,0:0:0:0:
472,108,108388,2,0,L|464:188,3,71,10|2|2|2,0:0|0:0|0:0|0:0,0:0:0:0:
380,196,109078,2,0,L|388:276,3,71,2|2|2|2,1:0|0:0|0:0|0:0,0:0:0:0:
328,328,109768,2,0,P|284:352|172:332,1,142,8|0,0:0|1:0,0:0:0:0:
144,276,110285,1,0,0:0:0:0:
240,216,110457,6,0,P|244:152|128:172,1,213,4|0,1:0|0:0,0:0:0:0:
156,244,111147,2,0,P|180:284|216:300,3,71,10|2|2|2,0:0|0:0|0:0|0:0,0:0:0:0:
240,216,111837,2,0,P|268:236|284:267,3,71,2|2|2|2,1:0|0:0|0:0|0:0,0:0:0:0:
264,352,112526,2,0,P|304:352|344:332,1,71,10|2,0:0|0:0,0:0:0:0:
372,264,112871,1,0,1:0:0:0:
240,160,113216,6,0,B|208:144|164:144|168:168|128:168|96:156|96:156|108:144|140:140|164:144,1,213,4|0,1:0|0:0,0:0:0:0:
200,224,113906,2,0,P|204:256|200:296,3,71,10|2|2|2,0:0|0:0|0:0|0:0,0:0:0:0:
120,316,114595,6,0,B|164:320|200:295|200:295|236:328|284:332|328:316,1,213,0|0,1:0|0:0,0:0:0:0:
376,256,115285,2,0,L|360:104,1,142,8|0,0:0|0:0,0:0:0:0:
212,32,115975,6,0,P|164:16|208:100,1,213,4|0,1:0|0:0,0:0:0:0:
276,92,116664,2,0,P|276:136|248:172,3,71,10|2|2|2,0:0|0:0|0:0|0:0,0:0:0:0:
188,196,117354,2,0,P|188:240|216:276,3,71,2|2|2|2,0:0|0:0|0:0|0:0,0:0:0:0:
256,328,118044,2,0,L|328:320,1,71,10|2,0:0|0:0,0:0:0:0:
396,368,118388,1,0,1:0:0:0:
432,200,118733,6,0,B|424:172|424:172|440:144|440:144|432:128|432:128|464:92|464:40|432:4,1,213,0|0,1:0|0:0,0:0:0:0:
352,32,119423,2,0,P|312:36|272:32,3,71,10|2|2|2,0:0|0:0|0:0|0:0,0:0:0:0:
224,96,120113,2,0,P|184:92|144:96,3,71,2|2|2|0,1:0|0:0|0:0|0:0,0:0:0:0:
76,128,120802,2,0,P|96:176|92:280,1,142,8|0,0:0|1:0,0:0:0:0:
48,336,121319,1,0,0:0:0:0:
160,320,121492,6,0,B|196:304|196:304|232:344|288:344|288:344|316:320|360:324,1,213,0|0,1:0|0:0,0:0:0:0:
432,356,122181,2,0,L|444:264,3,71,10|2|2|2,0:0|0:0|0:0|0:0,0:0:0:0:
388,220,122871,2,0,L|376:128,3,71,2|2|2|2,1:0|0:0|0:0|0:0,0:0:0:0:
412,72,123561,2,0,P|376:68|328:48,1,71,10|2,0:0|0:0,0:0:0:0:
272,8,123906,1,0,1:0:0:0:
184,152,124250,6,0,P|168:220|212:296,1,142,10|0,0:0|0:0,0:0:0:0:
314,283,124768,2,0,P|344:219|328:152,1,142,2|0,0:0|0:0,0:0:0:0:
256,108,125285,2,0,L|180:116,1,71,2|0,1:0|0:0,0:0:0:0:
100,132,125630,6,0,P|112:172|112:280,1,142,6|0,1:3|0:0,0:0:0:0:
60,336,126147,1,0,0:0:0:0:
172,332,126319,2,0,B|208:332|208:332|280:320|280:320|316:320,1,142,8|0,0:0|0:0,0:0:0:0:
392,352,126837,1,0,0:0:0:0:
384,236,127009,5,4,1:3:0:0:
