osu file format v14

[General]
AudioFilename: audio.mp3
AudioLeadIn: 0
PreviewTime: 59164
Countdown: 0
SampleSet: None
StackLeniency: 0.4
Mode: 0
LetterboxInBreaks: 0
WidescreenStoryboard: 1

[Editor]
Bookmarks: 60802,127009
DistanceSpacing: 1
BeatDivisor: 4
GridSize: 4
TimelineZoom: 2.2

[Metadata]
Title:Holdin On (Skrillex and Nero Remix)
TitleUnicode:Holdin On (Skrillex and Nero Remix)
Artist:I SEE MONSTAS
ArtistUnicode:I SEE MONSTAS
Creator:Sotarks
Version:Hobbes2's Extreme
Source:
Tags:Hobbes2 Kin Akitoshi Corinn dubstep
BeatmapID:1498152
BeatmapSetID:701330

[Difficulty]
HPDrainRate:6
CircleSize:4
OverallDifficulty:8.2
ApproachRate:9.3
SliderMultiplier:2.8
SliderTickRate:1

[Events]
//Background and Video events
0,0,"monsta.jpg",0,0
//Break Periods
//Storyboard Layer 0 (Background)
//Storyboard Layer 1 (Fail)
//Storyboard Layer 2 (Pass)
//Storyboard Layer 3 (Foreground)
//Storyboard Sound Samples

[TimingPoints]
113,344.827586206897,4,3,22,75,1,0
22181,-200,4,3,22,75,0,0
47699,-200,4,3,22,75,0,0
49768,-200,4,3,22,75,0,0
55199,-400,4,3,22,75,0,0
59250,-400,4,3,22,5,0,0
61147,-100,4,3,22,75,0,0
61492,-83.3333333333333,4,3,22,75,0,0
63216,-100,4,3,22,75,0,0
63561,-400,4,3,22,75,0,0
63906,-100,4,3,22,75,0,0
64250,-83.3333333333333,4,3,22,75,0,0
65113,-66.6666666666667,4,3,22,75,0,0
65975,-100,4,3,22,75,0,0
66319,-400,4,3,22,75,0,0
66664,-100,4,3,22,75,0,0
67009,-83.3333333333333,4,3,22,75,0,0
68733,-100,4,3,22,75,0,0
69078,-400,4,3,22,75,0,0
69423,-100,4,3,22,75,0,0
69768,-83.3333333333333,4,3,22,75,0,0
70457,-100,4,3,22,75,0,0
71492,-80,4,3,22,75,0,0
71837,-400,4,3,22,75,0,0
72181,-100,4,3,22,75,0,0
72526,-83.3333333333333,4,3,22,75,0,0
74250,-100,4,3,22,75,0,0
74595,-400,4,3,22,75,0,0
74940,-100,4,3,22,75,0,0
75285,-83.3333333333333,4,3,22,75,0,0
75974,-66.6666666666667,4,3,22,75,0,0
77009,-100,4,3,22,75,0,0
77354,-400,4,3,22,75,0,0
77699,-100,4,3,22,75,0,0
78044,-83.3333333333333,4,3,22,75,0,0
79768,-100,4,3,22,75,0,0
80113,-400,4,3,22,75,0,0
80457,-100,4,3,22,75,0,0
80802,-83.3333333333333,4,3,22,75,0,0
81492,-100,4,3,22,75,0,0
82871,-400,4,3,22,75,0,0
83215,-100,4,3,22,75,0,0
83561,-83.3333333333333,4,3,22,75,0,0
85285,-100,4,3,22,75,0,0
85630,-400,4,3,22,75,0,0
85974,-100,4,3,22,75,0,0
86320,-83.3333333333333,4,3,22,75,0,0
87181,-66.6666666666667,4,3,22,75,0,0
88044,-100,4,3,22,75,0,0
88388,-400,4,3,22,75,0,0
88732,-100,4,3,22,75,0,0
89078,-83.3333333333333,4,3,22,75,0,0
90802,-100,4,3,22,75,0,0
91147,-400,4,3,22,75,0,0
91491,-100,4,3,22,75,0,0
91837,-83.3333333333333,4,3,22,75,0,0
92526,-100,4,3,22,75,0,0
93561,-100,4,3,22,75,0,0
93906,-400,4,3,22,75,0,0
94250,-100,4,3,22,75,0,0
94595,-71.4285714285714,4,3,22,75,0,0
96319,-100,4,3,22,75,0,0
96664,-400,4,3,22,75,0,0
97009,-100,4,3,22,75,0,0
97354,-71.4285714285714,4,3,22,75,0,0
98733,-62.5,4,3,22,75,0,0
99078,-100,4,3,22,75,0,0
99423,-400,4,3,22,75,0,0
99768,-100,4,3,22,75,0,0
100113,-71.4285714285714,4,3,22,75,0,0
101837,-100,4,3,22,75,0,0
102181,-133.333333333333,4,3,22,75,0,0
104940,-100,4,3,22,75,0,0
105630,-83.3333333333333,4,3,22,75,0,0
107354,-400,4,3,22,75,0,0
107699,-100,4,3,22,75,0,0
108388,-83.3333333333333,4,3,22,75,0,0
109768,-100,4,3,22,75,0,0
110113,-400,4,3,22,75,0,0
110457,-100,4,3,22,75,0,0
111147,-83.3333333333333,4,3,22,75,0,0
112871,-400,4,3,22,75,0,0
113216,-100,4,3,22,75,0,0
113906,-83.3333333333333,4,3,22,75,0,0
114595,-133.333333333333,4,3,22,75,0,0
115975,-100,4,3,22,75,0,0
116664,-83.3333333333333,4,3,22,75,0,0
118388,-400,4,3,22,75,0,0
118733,-100,4,3,22,75,0,0
119423,-83.3333333333333,4,3,22,75,0,0
120802,-100,4,3,22,75,0,0
121147,-400,4,3,22,75,0,0
121492,-100,4,3,22,75,0,0
122181,-83.3333333333333,4,3,22,75,0,0
123906,-400,4,3,22,75,0,0
124250,-62.5,4,3,22,75,0,0
125630,-133.333333333333,4,3,22,75,0,0

[Colours]
Combo1 : 255,154,2
Combo2 : 255,68,68
Combo3 : 255,132,132
Combo4 : 255,156,108

[HitObjects]
262,62,21492,5,8,0:0:0:0:
249,201,21664,1,0,1:0:0:0:
249,201,21837,1,0,1:0:0:0:
262,62,22181,6,0,B|58:52|58:52|124:101,1,280,6|10,1:0|0:0,0:0:0:0:
118,97,23906,1,0,1:0:0:0:
104,236,24250,1,8,0:0:0:0:
118,97,24423,2,0,L|104:246,1,140,0|2,1:0|2:0,0:0:0:0:
169,300,24940,6,0,B|321:246|294:369|449:299,1,280,4|8,1:0|0:0,0:0:0:0:
438,303,26664,1,0,1:0:0:0:
424,163,27008,1,8,0:0:0:0:
438,303,27181,2,0,L|424:153,1,140,0|8,1:0|0:0,0:0:0:0:
379,82,27699,6,0,P|270:65|332:157,1,280,4|8,1:0|0:0,0:0:0:0:
332,157,29423,1,0,1:0:0:0:
326,290,29768,1,8,0:0:0:0:
332,157,29940,2,0,P|348:224|327:290,1,140,0|2,1:0|2:0,0:0:0:0:
235,301,30457,6,0,B|162:263|106:316|106:316|107:220|18:202,1,280,4|8,1:0|0:0,0:0:0:0:
36,206,31664,1,2,2:0:0:0:
83,128,31837,2,0,L|152:121,1,70,2|0,0:0|0:0,0:0:0:0:
296,179,32181,2,0,L|227:173,1,70,2|0,1:0|0:0,0:0:0:0:
144,211,32526,1,10,0:0:0:0:
235,83,32699,1,2,1:0:0:0:
218,264,32871,1,2,0:0:0:0:
152,121,33044,1,10,0:0:0:0:
297,180,33216,6,0,B|403:234|499:170|499:170|475:146|437:153,1,280,4|10,1:0|0:0,0:0:0:0:
437,152,34940,1,0,1:0:0:0:
297,140,35285,1,10,0:0:0:0:
437,153,35457,2,0,L|297:140,1,140,2|2,1:0|2:0,0:0:0:0:
224,86,35975,6,0,B|190:135|218:186|218:186|192:216|192:216|223:287|177:347,1,280,4|8,1:0|0:0,0:0:0:0:
180,342,37699,1,2,1:0:0:0:
319,328,38044,1,8,0:0:0:0:
180,342,38216,2,0,L|319:329,1,140,0|8,1:0|0:0,0:0:0:0:
397,377,38733,6,0,B|409:328|409:328|351:98,1,280,6|10,1:0|0:0,0:0:0:0:
353,106,40457,1,0,1:0:0:0:
221,125,40802,1,10,0:0:0:0:
353,106,40975,2,0,P|289:134|221:125,1,140,2|2,1:0|0:0,0:0:0:0:
173,47,41492,6,0,B|122:82|119:137|136:178|171:203|171:203|116:238|126:308,2,280,4|8|0,1:0|0:0|0:0,0:0:0:0:
173,47,43216,1,2,1:0:0:0:
347,100,43561,1,8,0:0:0:0:
173,47,43733,2,0,P|136:92|149:180,1,140,2|8,1:0|0:0,0:0:0:0:
198,233,44250,5,6,1:0:0:0:
73,234,44940,5,2,0:0:0:0:
371,275,45630,5,2,0:0:0:0:
132,129,46319,5,2,0:0:0:0:
268,322,47009,5,2,0:0:0:0:
243,40,47699,5,2,0:0:0:0:
243,40,47871,2,0,L|232:192,1,140,0|2,2:0|0:0,0:0:0:0:
314,199,48388,2,0,L|325:351,1,140,2|0,0:0|2:0,0:0:0:0:
243,364,48906,2,0,P|191:380|103:362,1,140,0|0,0:0|0:0,0:0:0:0:
56,298,49423,2,0,L|20:300,2,35,0|0|2,0:0|0:0|0:0,0:0:0:0:
132,263,49768,6,0,P|150:207|125:130,2,140,2|2|2,1:0|1:0|1:0,0:0:0:0:
232,249,50630,2,0,P|214:305|239:382,1,140,0|2,0:0|0:0,0:0:0:0:
326,378,51147,6,0,P|382:360|459:385,2,140,2|2|2,1:0|1:0|1:0,0:0:0:0:
340,278,52009,2,0,P|284:296|207:271,1,140,0|0,0:0|0:0,0:0:0:0:
138,226,52526,5,2,1:0:0:0:
122,146,52699,1,0,1:0:0:0:
166,78,52871,1,0,1:0:0:0:
245,61,53044,1,0,1:0:0:0:
313,105,53216,5,0,1:0:0:0:
252,158,53389,1,0,1:0:0:0:
171,154,53561,1,0,1:0:0:0:
116,94,53734,1,0,1:0:0:0:
120,13,53906,5,2,1:0:0:0:
196,39,54078,1,0,1:0:0:0:
233,111,54250,1,0,1:0:0:0:
208,189,54423,1,0,1:0:0:0:
136,226,54595,6,0,P|137:265|141:274,3,35,0|0|0|0,1:0|1:0|1:0|1:0,0:0:0:0:
142,276,54940,1,0,1:0:0:0:
150,292,55026,1,0,1:0:0:0:
155,309,55113,1,0,1:0:0:0:
157,322,55199,6,0,B|270:247|371:316|371:316|303:178|386:133|427:191|401:-25|353:59|325:-15|201:-36|120:59|194:185|291:118,1,822.5,0|0,1:0|0:0,0:0:0:0:
353,80,60802,6,0,L|357:27,1,52.5,6|0,1:0|2:0,0:0:0:0:
353,32,61147,6,0,B|346:106|346:106|367:170|367:170|362:237,1,210,10|0,0:0|0:0,0:0:0:0:
185,186,61492,6,0,P|226:177|268:184,1,83.9999974365235,2|0,0:0|0:0,0:0:0:0:
397,331,61664,1,2,1:0:0:0:
448,96,61837,1,10,0:0:0:0:
254,312,62009,1,2,0:0:0:0:
505,257,62181,1,2,1:0:0:0:
185,186,62354,6,0,P|226:177|268:184,1,83.9999974365235,6|0,0:0|0:0,0:0:0:0:
397,331,62526,1,10,0:0:0:0:
448,96,62699,1,2,0:0:0:0:
185,186,62871,6,0,P|226:177|268:184,1,83.9999974365235,6|0,0:0|0:0,0:0:0:0:
397,331,63044,1,2,1:0:0:0:
147,278,63216,6,0,L|77:272,1,70,10|0,0:0|0:0,0:0:0:0:
73,276,63388,2,0,L|143:282,1,70,2|0,1:0|0:0,0:0:0:0:
176,134,63561,6,0,P|180:159|184:185,1,52.5,6|0,1:0|2:0,0:0:0:0:
180,189,63906,6,0,B|176:154|171:137|171:137|251:189|364:109,1,210,10|0,0:0|0:0,0:0:0:0:
485,86,64250,6,0,L|401:78,1,83.9999974365235,2|0,0:0|0:0,0:0:0:0:
306,248,64423,1,2,1:0:0:0:
313,36,64595,1,10,0:0:0:0:
450,215,64768,1,2,0:0:0:0:
209,135,64940,1,2,1:0:0:0:
485,86,65113,6,0,P|472:48|470:88,1,105.000004005432,6|0,0:0|0:0,0:0:0:0:
450,215,65285,1,10,0:0:0:0:
313,36,65457,1,2,0:0:0:0:
485,86,65630,6,0,P|472:48|470:88,1,105.000004005432,6|0,1:3|0:0,0:0:0:0:
450,215,65802,2,0,P|437:252|428:214,1,105.000004005432,6|0,1:0|0:0,0:0:0:0:
273,89,65975,6,0,L|267:19,1,70,10|0,0:0|0:0,0:0:0:0:
271,15,66147,2,0,L|277:85,1,70,2|0,1:0|0:0,0:0:0:0:
131,235,66319,6,0,P|154:247|180:243,1,52.5,6|0,1:0|2:0,0:0:0:0:
183,240,66664,6,0,P|116:184|199:159,1,210,10|0,0:0|0:0,0:0:0:0:
22,235,67009,6,0,P|15:193|23:149,1,83.9999974365235,2|0,0:0|0:0,0:0:0:0:
162,45,67181,1,2,1:0:0:0:
288,221,67354,1,10,0:0:0:0:
40,34,67526,1,2,0:0:0:0:
313,106,67699,1,2,1:0:0:0:
22,235,67872,6,0,P|15:193|23:149,1,83.9999974365235,6|0,0:0|0:0,0:0:0:0:
162,45,68044,1,10,0:0:0:0:
183,240,68216,1,2,0:0:0:0:
22,235,68388,6,0,P|15:193|23:149,1,83.9999974365235,6|0,0:0|0:0,0:0:0:0:
162,45,68560,1,2,1:0:0:0:
282,224,68733,6,0,L|276:294,1,70,10|0,0:0|0:0,0:0:0:0:
280,298,68905,2,0,L|286:228,1,70,2|0,1:0|0:0,0:0:0:0:
160,199,69078,6,0,B|140:150,1,52.5,6|0,1:0|2:0,0:0:0:0:
137,155,69423,6,0,B|157:202|157:202|162:45,1,210,10|0,0:0|0:0,0:0:0:0:
51,105,69768,6,0,P|36:143|43:188,1,83.9999974365235,2|0,0:0|0:0,0:0:0:0:
157,304,69940,1,2,1:0:0:0:
261,109,70113,1,10,0:0:0:0:
42,306,70285,1,2,0:0:0:0:
365,314,70457,6,0,B|395:251|395:251|394:110,1,210,14|0,0:0|0:0,0:0:0:0:
392,75,70802,1,0,1:0:0:0:
147,314,70975,6,0,B|117:251|117:251|118:110,1,210,14|0,0:0|0:0,0:0:0:0:
120,75,71320,1,0,1:0:0:0:
256,368,71492,6,0,L|256:105,1,262.5,14|0,0:0|0:0,0:0:0:0:
403,101,71837,6,0,P|429:102|453:114,1,52.5,6|0,1:0|2:0,0:0:0:0:
447,116,72181,6,0,B|409:90|354:127|354:127|299:75|256:105,1,210,10|0,0:0|0:0,0:0:0:0:
261,282,72526,6,0,P|282:246|285:205,1,83.9999974365235,2|0,0:0|0:0,0:0:0:0:
154,81,72699,1,2,1:0:0:0:
84,304,72871,1,10,0:0:0:0:
257,106,73044,1,2,0:0:0:0:
0,174,73216,1,2,1:0:0:0:
261,282,73388,6,0,P|282:246|285:205,1,83.9999974365235,6|0,0:0|0:0,0:0:0:0:
154,81,73561,1,10,0:0:0:0:
84,304,73733,1,2,0:0:0:0:
261,282,73906,6,0,P|282:246|285:205,1,83.9999974365235,6|0,0:0|0:0,0:0:0:0:
154,81,74079,1,2,1:0:0:0:
349,38,74250,6,0,L|419:44,1,70,10|0,0:0|0:0,0:0:0:0:
423,40,74422,2,0,L|353:34,1,70,2|0,1:0|0:0,0:0:0:0:
429,195,74595,6,0,P|427:169|420:144,1,52.5,6|0,1:0|2:0,0:0:0:0:
424,140,74940,6,0,P|433:243|405:344,1,210,10|0,0:0|0:0,0:0:0:0:
306,324,75285,2,0,L|298:240,1,83.9999974365235,2|0,0:0|0:0,0:0:0:0:
284,72,75457,1,2,1:0:0:0:
147,170,75630,1,10,0:0:0:0:
424,140,75802,1,2,0:0:0:0:
147,170,75975,1,2,1:0:0:0:
306,324,76147,6,0,P|324:356|320:319,1,105.000004005432,6|0,0:0|0:0,0:0:0:0:
424,140,76319,1,10,0:0:0:0:
147,170,76492,1,2,0:0:0:0:
306,324,76664,6,0,P|324:356|320:319,1,105.000004005432,6|0,1:0|0:0,0:0:0:0:
424,140,76837,2,0,P|405:107|409:144,1,105.000004005432,6|0,1:0|0:0,0:0:0:0:
508,269,77009,6,0,L|438:275,1,70,10|0,0:0|0:0,0:0:0:0:
442,279,77181,2,0,L|512:273,1,70,2|0,1:0|0:0,0:0:0:0:
294,218,77354,6,0,P|269:209|243:208,1,52.5,6|0,1:0|2:0,0:0:0:0:
239,212,77699,6,0,P|331:206|313:116,1,210,10|0,0:0|0:0,0:0:0:0:
146,170,78044,6,0,P|136:210|147:250,1,83.9999974365235,2|0,0:0|0:0,0:0:0:0:
364,318,78216,1,2,1:0:0:0:
311,114,78388,1,10,0:0:0:0:
192,357,78561,1,2,0:0:0:0:
423,232,78733,1,2,1:0:0:0:
146,170,78906,6,0,P|136:210|147:250,1,83.9999974365235,6|0,0:0|0:0,0:0:0:0:
364,318,79078,1,10,0:0:0:0:
311,114,79250,1,2,0:0:0:0:
146,170,79423,6,0,P|136:210|147:250,1,83.9999974365235,6|0,0:0|0:0,0:0:0:0:
364,318,79595,1,2,1:0:0:0:
211,88,79768,6,0,L|205:18,1,70,10|0,0:0|0:0,0:0:0:0:
201,14,79940,2,0,L|207:84,1,70,2|0,1:0|0:0,0:0:0:0:
299,203,80113,6,0,P|325:204|351:200,1,52.5,6|0,1:0|2:0,0:0:0:0:
358,207,80457,6,0,B|256:245|256:245|165:199,1,210,10|0,0:0|0:0,0:0:0:0:
250,56,80802,6,0,P|265:95|264:137,1,83.9999974365235,2|0,0:0|0:0,0:0:0:0:
82,258,80975,1,2,1:0:0:0:
358,207,81147,1,10,0:0:0:0:
74,157,81319,1,2,0:0:0:0:
249,347,81492,6,0,L|388:334,1,140,6|0,1:0|0:0,0:0:0:0:
250,56,81837,2,0,L|110:43,1,140,10|0,0:0|0:0,0:0:0:0:
74,157,82181,1,0,0:0:0:0:
388,334,82354,1,12,0:0:0:0:
250,56,82526,2,0,L|110:43,1,140,12|0,0:0|0:0,0:0:0:0:
125,158,82871,6,0,P|99:154|73:156,1,52.5,4|0,1:0|2:0,0:0:0:0:
69,161,83216,6,0,B|133:154|163:188|163:188|204:218|285:188,1,210,8|0,0:0|0:0,0:0:0:0:
263,33,83561,1,2,0:0:0:0:
234,63,83647,1,2,0:0:0:0:
217,102,83733,1,2,1:0:0:0:
306,293,83906,1,10,0:0:0:0:
366,35,84078,1,2,0:0:0:0:
201,278,84250,1,2,1:0:0:0:
483,281,84423,6,0,P|490:239|490:197,1,83.9999974365235,6|0,0:0|0:0,0:0:0:0:
366,35,84595,1,10,0:0:0:0:
201,278,84767,1,2,0:0:0:0:
483,281,84940,6,0,P|490:239|490:197,1,83.9999974365235,6|0,0:0|0:0,0:0:0:0:
366,35,85113,1,2,1:0:0:0:
197,187,85285,6,0,L|266:193,1,70,10|0,0:0|0:0,0:0:0:0:
262,197,85457,2,0,L|192:190,1,70,2|0,1:0|0:0,0:0:0:0:
243,34,85630,6,0,P|242:60|233:84,1,52.5,6|0,1:0|2:0,0:0:0:0:
229,89,85975,6,0,B|241:50|239:18|239:18|323:63|401:20,1,210,10|0,0:0|0:0,0:0:0:0:
471,17,86319,5,2,0:0:0:0:
384,296,86492,1,2,1:0:0:0:
372,32,86664,1,10,0:0:0:0:
483,281,86837,1,2,0:0:0:0:
273,47,87009,1,2,1:0:0:0:
258,297,87181,6,0,P|254:337|284:310,1,105.000004005432,6|0,0:0|0:0,0:0:0:0:
483,281,87354,1,10,0:0:0:0:
273,47,87526,1,2,0:0:0:0:
258,297,87699,6,0,P|254:337|284:310,1,105.000004005432,6|0,1:0|0:0,0:0:0:0:
483,281,87871,2,0,P|486:240|456:267,1,105.000004005432,6|0,1:0|0:0,0:0:0:0:
306,189,88044,6,0,L|236:182,1,70,10|0,0:0|0:0,0:0:0:0:
231,178,88216,2,0,L|300:184,1,70,0|0,1:0|0:0,0:0:0:0:
395,77,88388,6,0,P|385:101|385:128,1,52.5,6|0,1:0|2:0,0:0:0:0:
391,133,88733,6,0,P|447:67|473:149,1,210,10|0,0:0|0:0,0:0:0:0:
409,314,89078,1,2,0:0:0:0:
420,274,89164,1,2,0:0:0:0:
414,232,89250,1,2,1:0:0:0:
309,49,89423,1,10,0:0:0:0:
247,271,89595,1,2,0:0:0:0:
473,149,89768,1,2,1:0:0:0:
176,49,89940,6,0,P|177:90|184:132,1,83.9999974365235,6|0,0:0|0:0,0:0:0:0:
247,271,90113,1,10,0:0:0:0:
473,149,90286,5,2,0:0:0:0:
176,49,90457,6,0,P|177:90|184:132,1,83.9999974365235,6|0,0:0|0:0,0:0:0:0:
247,271,90630,1,2,1:0:0:0:
330,128,90802,6,0,L|336:58,1,70,10|0,0:0|0:0,0:0:0:0:
340,54,90975,2,0,L|333:123,1,70,2|0,1:0|0:0,0:0:0:0:
247,271,91147,6,0,L|182:271,1,52.5,6|0,1:0|2:0,0:0:0:0:
190,276,91492,6,0,P|347:315|389:348,1,210,10|0,0:0|0:0,0:0:0:0:
483,326,91837,5,2,0:0:0:0:
436,71,92009,1,2,1:0:0:0:
483,326,92181,1,10,0:0:0:0:
436,71,92353,1,2,0:0:0:0:
383,342,92526,6,0,L|387:202,1,140,6|0,1:0|0:0,0:0:0:0:
129,42,92871,2,0,L|124:181,1,140,10|0,0:0|0:0,0:0:0:0:
327,124,93216,6,0,P|280:97|237:96,1,93.3333333333333,12|0,0:0|2:0,0:0:0:0:
279,287,93446,2,0,P|320:265|346:228,1,93.3333333333333,12|0,0:0|2:0,0:0:0:0:
161,164,93676,2,0,P|159:210|179:252,1,93.3333333333333,12|0,0:0|2:0,0:0:0:0:
279,287,93906,6,0,L|283:349,1,52.5,6|0,1:0|2:0,0:0:0:0:
286,344,94250,6,0,B|281:88,1,210,10|0,0:0|0:0,0:0:0:0:
372,0,94595,6,0,P|382:46|372:94,1,97.9999970092774,2|0,0:0|0:0,0:0:0:0:
284,246,94768,1,2,1:0:0:0:
159,29,94940,1,10,0:0:0:0:
388,192,95113,1,2,0:0:0:0:
110,160,95285,1,2,1:0:0:0:
372,0,95457,6,0,P|382:46|372:94,1,97.9999970092774,6|0,0:0|0:0,0:0:0:0:
284,246,95630,1,10,0:0:0:0:
159,29,95802,1,2,0:0:0:0:
388,192,95975,1,2,0:0:0:0:
372,0,96147,6,0,P|382:46|372:94,1,97.9999970092774,2|0,1:0|0:0,0:0:0:0:
185,158,96319,6,0,L|115:164,1,70,10|0,0:0|0:0,0:0:0:0:
110,160,96492,2,0,L|179:153,1,70,2|0,1:0|0:0,0:0:0:0:
276,303,96664,6,0,P|282:277|280:251,1,52.5,2|0,1:0|2:0,0:0:0:0:
286,257,97009,6,0,P|233:326|201:245,1,210,10|0,0:0|0:0,0:0:0:0:
247,62,97354,6,0,L|256:160,1,97.9999970092774,2|0,0:0|0:0,0:0:0:0:
99,321,97526,1,2,1:0:0:0:
355,184,97699,1,10,0:0:0:0:
110,160,97871,1,2,0:0:0:0:
381,317,98044,1,2,1:0:0:0:
247,62,98216,6,0,L|256:160,1,97.9999970092774,6|0,0:0|0:0,0:0:0:0:
99,321,98388,1,10,0:0:0:0:
355,184,98561,1,2,0:0:0:0:
5,278,98733,6,0,P|-2:344|18:386,1,112,6|0,1:0|0:0,0:0:0:0:
268,359,98906,2,0,P|275:292|254:250,1,112,2|0,1:0|0:0,0:0:0:0:
99,321,99078,6,0,L|194:321,1,70,14|0,0:0|0:0,0:0:0:0:
173,317,99250,2,0,L|103:317,1,70,0|0,0:0|2:0,0:0:0:0:
27,180,99423,6,0,P|25:153|28:127,1,52.5,6|0,1:0|2:0,0:0:0:0:
32,132,99768,6,0,B|25:160|34:184|34:184|114:167|114:167|212:188,1,210,10|0,0:0|0:0,0:0:0:0:
285,339,100113,6,0,P|285:291|269:245,1,97.9999970092774,2|0,0:0|0:0,0:0:0:0:
151,72,100285,1,2,1:0:0:0:
173,317,100457,1,10,0:0:0:0:
277,110,100630,1,2,0:0:0:0:
32,132,100802,1,2,0:0:0:0:
285,339,100975,6,0,P|285:291|269:245,1,97.9999970092774,6|0,1:0|0:0,0:0:0:0:
151,72,101147,1,2,0:0:0:0:
173,317,101319,1,2,0:0:0:0:
277,110,101492,1,2,1:0:0:0:
285,339,101664,6,0,P|285:291|269:245,1,97.9999970092774,2|0,1:0|0:0,0:0:0:0:
53,221,101837,6,0,L|123:217,1,70,10|0,0:0|0:0,0:0:0:0:
127,221,102009,2,0,L|57:225,1,70,2|0,1:0|0:0,0:0:0:0:
166,93,102181,6,0,P|262:67|385:64,2,210.000008010865,6|8|0,1:0|0:0|0:0,0:0:0:0:
229,258,103044,1,2,1:0:0:0:
150,193,103216,2,0,P|147:141|166:93,1,105.000004005432,14|0,0:0|0:0,0:0:0:0:
372,62,103561,6,0,P|382:106|382:133,1,52.5000020027161,12|8,0:0|0:0,0:0:0:0:
319,176,103733,1,0,1:0:0:0:
308,214,103819,1,0,1:0:0:0:
308,253,103905,1,0,1:0:0:0:
320,291,103991,1,0,1:0:0:0:
343,323,104078,6,0,P|369:319|394:312,1,52.5000020027161,12|8,0:0|0:0,0:0:0:0:
319,176,104250,1,0,1:0:0:0:
281,165,104336,1,0,1:0:0:0:
242,165,104422,1,0,1:0:0:0:
204,177,104508,1,0,1:0:0:0:
172,200,104595,6,0,P|175:226|182:251,1,52.5000020027161,12|0,0:0|0:0,0:0:0:0:
182,251,104940,6,0,B|180:158|320:150|315:283|233:327|233:327|369:255|468:338,1,490,4|0,1:3|2:0,0:0:0:0:
484,165,105630,6,0,P|474:205|480:246,1,83.9999974365235,10|0,0:0|0:0,0:0:0:0:
431,78,105802,2,0,P|401:108|386:146,1,83.9999974365235,2|0,0:2|0:2,0:0:0:0:
435,315,105975,2,0,P|464:285|479:246,1,83.9999974365235,2|0,0:0|0:0,0:0:0:0:
382,228,106147,2,0,P|392:187|386:146,1,83.9999974365235,2|0,0:2|0:2,0:0:0:0:
325,48,106319,6,0,L|241:40,1,83.9999974365235,2|0,1:0|0:0,0:0:0:0:
159,101,106492,2,0,L|75:108,1,83.9999974365235,2|0,0:0|0:0,0:0:0:0:
321,52,106664,2,0,L|237:44,1,83.9999974365235,2|0,0:0|0:0,0:0:0:0:
155,105,106837,2,0,L|71:112,1,83.9999974365235,2|0,0:0|0:0,0:0:0:0:
26,202,107009,6,0,P|45:264|70:286,1,83.9999974365235,10|0,0:0|0:0,0:0:0:0:
137,337,107181,2,0,P|200:351|231:340,1,83.9999974365235,2|0,0:0|0:0,0:0:0:0:
289,274,107354,6,0,L|289:221,1,52.5,0|0,1:0|2:0,0:0:0:0:
294,217,107699,6,0,B|287:265|318:305|361:310|415:290|420:234|420:234|472:285|473:360|473:360|465:255|500:218,1,490,4|0,1:0|2:0,0:0:0:0:
448,134,108388,6,0,P|438:93|424:51,1,83.9999974365235,10|0,0:0|0:0,0:0:0:0:
301,112,108561,2,0,P|315:72|325:32,1,83.9999974365235,2|0,0:0|0:0,0:0:0:0:
424,214,108733,2,0,P|434:173|448:131,1,83.9999974365235,2|0,0:0|0:0,0:0:0:0:
325,193,108906,2,0,P|311:153|301:112,1,83.9999974365235,2|0,0:0|0:0,0:0:0:0:
206,80,109078,6,0,P|128:109|114:148,1,83.9999974365235,2|0,1:0|0:0,0:0:0:0:
70,186,109250,2,0,P|50:222|54:264,1,83.9999974365235,2|0,0:0|0:0,0:0:0:0:
200,75,109423,2,0,P|122:104|108:143,1,83.9999974365235,2|0,0:0|0:0,0:0:0:0:
64,181,109595,2,0,P|44:217|48:259,1,83.9999974365235,2|0,0:0|0:0,0:0:0:0:
125,324,109768,6,0,B|212:328|212:328|235:341|235:341|267:330|267:330|329:332,1,210,8|0,0:0|2:0,0:0:0:0:
182,321,110113,6,0,B|130:319,1,52.5,0|0,1:0|2:0,0:0:0:0:
135,314,110457,6,0,B|256:320|256:320|309:300|309:300|357:305|447:309|447:309|321:292|292:199,1,490,4|0,1:0|2:0,0:0:0:0:
357,54,111147,6,0,P|362:96|356:138,1,83.9999974365235,10|0,0:0|0:0,0:0:0:0:
171,132,111319,2,0,P|213:127|255:133,1,83.9999974365235,2|0,0:0|0:0,0:0:0:0:
439,138,111492,2,0,P|397:142|355:136,1,83.9999974365235,2|0,0:0|0:0,0:0:0:0:
253,215,111664,2,0,P|248:173|254:131,1,83.9999974365235,2|0,0:0|0:0,0:0:0:0:
345,262,111837,6,0,L|352:345,1,83.9999974365235,2|0,1:0|0:0,0:0:0:0:
149,315,112009,2,0,L|157:232,1,83.9999974365235,2|0,0:0|0:0,0:0:0:0:
351,267,112181,2,0,L|358:350,1,83.9999974365235,2|0,0:0|0:0,0:0:0:0:
144,320,112353,2,0,L|151:236,1,83.9999974365235,2|0,0:0|0:0,0:0:0:0:
270,165,112526,6,0,P|311:160|353:166,1,83.9999974365235,10|0,0:0|0:0,0:0:0:0:
434,269,112699,2,0,P|393:273|351:267,1,83.9999974365235,2|0,0:0|0:0,0:0:0:0:
171,143,112871,6,0,P|118:142|118:142,1,52.5,0|0,1:0|2:0,0:0:0:0:
113,146,113216,6,0,P|198:308|40:216,1,490,4|0,1:0|2:0,0:0:0:0:
183,51,113906,6,0,P|224:43|266:45,1,83.9999974365235,10|0,0:0|0:0,0:0:0:0:
311,134,114078,2,0,P|352:135|394:128,1,83.9999974365235,2|0,0:0|0:0,0:0:0:0:
183,51,114250,2,0,P|175:92|177:134,1,83.9999974365235,2|0,0:0|0:0,0:0:0:0:
311,134,114422,2,0,P|312:175|305:217,1,83.9999974365235,2|0,0:0|0:0,0:0:0:0:
81,314,114595,6,0,P|238:310|392:337,1,315.000012016297,0|0,1:0|0:0,0:0:0:0:
512,184,115285,2,0,P|357:210|199:206,1,315.000012016297,8|0,0:0|0:0,0:0:0:0:
34,207,115975,6,0,B|101:143|135:-18|135:-18|137:151|199:205,1,490,4|0,1:0|2:0,0:0:0:0:
332,287,116664,6,0,P|291:280|252:292,1,83.9999974365235,10|0,0:0|0:0,0:0:0:0:
286,150,116837,2,0,P|327:157|366:145,1,83.9999974365235,2|0,0:0|0:0,0:0:0:0:
252,292,117009,2,0,P|244:333|256:372,1,83.9999974365235,2|0,0:0|0:0,0:0:0:0:
366,145,117181,2,0,P|373:103|361:64,1,83.9999974365235,2|0,0:0|0:0,0:0:0:0:
200,206,117354,6,0,L|95:196,1,83.9999974365235,2|0,0:0|0:0,0:0:0:0:
24,105,117526,2,0,L|108:98,1,83.9999974365235,2|0,0:0|0:0,0:0:0:0:
205,211,117699,2,0,L|100:201,1,83.9999974365235,2|0,0:0|0:0,0:0:0:0:
19,100,117871,2,0,L|102:92,1,83.9999974365235,2|0,0:0|0:0,0:0:0:0:
181,28,118044,6,0,P|241:15|297:64,1,83.9999974365235,10|0,0:0|0:0,0:0:0:0:
310,109,118216,2,0,P|271:123|230:115,1,83.9999974365235,2|0,0:0|0:0,0:0:0:0:
448,115,118388,6,0,P|452:89|461:64,1,52.5,0|0,1:0|2:0,0:0:0:0:
457,60,118733,6,0,B|417:163|468:261|468:261|397:205|336:236|322:263|294:372|545:337|425:265|368:267,1,490,0|0,1:0|2:0,0:0:0:0:
253,338,119423,2,0,P|212:348|170:342,1,83.9999974365235,10|0,0:0|0:0,0:0:0:0:
95,188,119595,2,0,P|89:230|99:271,1,83.9999974365235,2|0,0:0|0:0,0:0:0:0:
253,338,119768,2,0,P|293:328|335:334,1,83.9999974365235,2|0,0:0|0:0,0:0:0:0:
95,188,119940,2,0,P|101:146|91:105,1,83.9999974365235,2|0,0:0|0:0,0:0:0:0:
198,0,120113,6,0,L|190:83,1,83.9999974365235,2|0,1:0|0:0,0:0:0:0:
262,152,120285,2,0,L|270:235,1,83.9999974365235,2|0,0:0|0:0,0:0:0:0:
203,5,120457,2,0,L|194:88,1,83.9999974365235,2|0,0:0|0:0,0:0:0:0:
267,157,120629,2,0,L|275:240,1,83.9999974365235,2|0,0:0|0:0,0:0:0:0:
453,333,120802,6,0,P|349:323|251:359,1,210,8|0,0:0|2:0,0:0:0:0:
396,327,121147,6,0,P|422:329|446:338,1,52.5,0|0,1:0|2:0,0:0:0:0:
441,343,121492,6,0,B|534:345|542:205|409:210|365:292|365:292|437:156|354:57,1,490,0|0,1:0|2:0,0:0:0:0:
285,131,122181,6,0,P|256:160|240:200,1,83.9999974365235,10|0,0:0|0:0,0:0:0:0:
282,29,122353,2,0,P|241:39|209:65,1,83.9999974365235,2|0,0:0|0:0,0:0:0:0:
166,236,122526,2,0,P|207:224|239:198,1,83.9999974365235,2|0,0:0|0:0,0:0:0:0:
164,134,122698,2,0,P|193:103|208:64,1,83.9999974365235,2|0,0:0|0:0,0:0:0:0:
84,240,122871,6,0,P|125:246|166:236,1,83.9999974365235,2|0,1:0|0:0,0:0:0:0:
312,318,123044,2,0,P|272:308|231:314,1,83.9999974365235,2|0,0:0|0:0,0:0:0:0:
79,245,123216,2,0,P|120:250|160:240,1,83.9999974365235,2|0,0:0|0:0,0:0:0:0:
307,323,123389,2,0,P|266:312|225:318,1,83.9999974365235,2|0,0:0|0:0,0:0:0:0:
367,240,123561,6,0,P|395:209|411:171,1,83.9999974365235,10|0,0:0|0:0,0:0:0:0:
366,81,123733,2,0,P|381:42|410:12,1,83.9999974365235,2|0,0:0|0:0,0:0:0:0:
225,125,123906,6,0,L|277:129,1,52.5,0|0,1:0|2:0,0:0:0:0:
281,125,124250,6,0,L|36:104,1,224,10|0,0:0|0:0,0:0:0:0:
144,259,124768,6,0,L|367:240,1,224,2|8,0:0|0:0,0:0:0:0:
286,120,125285,6,0,L|41:99,1,224,2|0,1:0|0:0,0:0:0:0:
60,370,125630,6,0,P|191:283|449:327,2,420.000016021729,6|8|4,1:3|0:0|1:3,0:0:0:0:
