osu file format v14

[General]
AudioFilename: audio.mp3
AudioLeadIn: 0
PreviewTime: 59164
Countdown: 0
SampleSet: None
StackLeniency: 0.7
Mode: 0
LetterboxInBreaks: 0
WidescreenStoryboard: 1

[Editor]
Bookmarks: 60802,127009
DistanceSpacing: 1.3
BeatDivisor: 4
GridSize: 4
TimelineZoom: 1.5

[Metadata]
Title:Holdin On (Skrillex and Nero Remix)
TitleUnicode:Holdin On (Skrillex and Nero Remix)
Artist:I SEE MONSTAS
ArtistUnicode:I SEE MONSTAS
Creator:Sotarks
Version:Insane
Source:
Tags:Hobbes2 Kin Akitoshi Corinn dubstep
BeatmapID:1498150
BeatmapSetID:701330

[Difficulty]
HPDrainRate:5.8
CircleSize:4
OverallDifficulty:8
ApproachRate:9
SliderMultiplier:1.82
SliderTickRate:1

[Events]
//Background and Video events
0,0,"monsta.jpg",0,0
//Break Periods
2,55485,59423
//Storyboard Layer 0 (Background)
//Storyboard Layer 1 (Fail)
//Storyboard Layer 2 (Pass)
//Storyboard Layer 3 (Foreground)
//Storyboard Sound Samples

[TimingPoints]
113,344.827586206897,4,3,22,62,1,0
22181,-161.290322580645,4,3,22,62,0,0
49768,-121.951219512195,4,3,22,62,0,0
60802,-81.9672131147541,4,3,22,82,0,0
102181,-98.0392156862745,4,3,22,82,0,0
104940,-81.9672131147541,4,3,22,82,0,0
114595,-121.951219512195,4,3,22,82,0,0
115975,-81.9672131147541,4,3,22,62,0,0
125630,-98.0392156862745,4,3,22,82,0,0

[Colours]
Combo1 : 130,133,152
Combo2 : 219,13,0
Combo3 : 155,27,55
Combo4 : 252,65,46
Combo5 : 104,77,94

[HitObjects]
358,220,21492,70,0,L|251:239,2,91,8|0|0,0:0|1:0|1:0,0:0:0:0:
268,235,22181,54,0,L|279:58,1,169.259993284973,6|0,1:0|2:0,0:0:0:0:
371,219,22871,1,10,0:0:0:0:
371,219,23044,2,0,P|296:214|258:247,2,112.839995523316,2|2|2,2:0|2:0|2:0,0:0:0:0:
429,284,23906,2,0,P|471:289|491:281,1,56.4199977616578,0|2,1:0|2:0,0:0:0:0:
442,159,24250,1,8,0:0:0:0:
442,159,24423,2,0,B|453:186|453:186|455:237,2,56.4199977616578,0|2|2,1:0|2:0|2:0,0:0:0:0:
278,50,24940,6,0,B|211:50|184:101|184:101|111:112,1,169.259993284973,4|0,1:0|2:0,0:0:0:0:
64,41,25630,2,0,B|128:108|128:108|71:295,1,282.099988808289,8|0,0:0|0:0,0:0:0:0:
204,252,26664,2,0,P|243:247|272:250,1,56.4199977616578,0|0,1:0|2:0,0:0:0:0:
349,356,27009,1,8,0:0:0:0:
349,356,27181,2,0,L|340:225,1,112.839995523316,0|8,1:0|0:0,0:0:0:0:
447,138,27699,54,0,P|417:157|323:138,1,112.839995523316,4|2,1:0|0:0,0:0:0:0:
282,87,28216,1,2,2:0:0:0:
169,180,28388,2,0,P|178:216|182:250,1,56.4199977616578,8|2,0:0|2:0,0:0:0:0:
188,261,28906,6,0,P|190:209|222:133,1,112.839995523316,2|2,0:0|2:0,0:0:0:0:
281,57,29423,2,0,L|287:129,1,56.4199977616578,0|2,1:0|2:0,0:0:0:0:
295,249,29768,1,8,0:0:0:0:
295,249,29940,2,0,L|290:192,2,56.4199977616578,0|2|2,1:0|2:0|2:0,0:0:0:0:
164,343,30457,54,0,B|399:333,1,225.679991046631,4|8,1:0|0:0,0:0:0:0:
364,125,31664,1,2,2:0:0:0:
364,125,31837,2,0,L|392:188,1,56.4199977616578,2|0,0:0|0:0,0:0:0:0:
276,118,32181,2,0,L|251:67,1,56.4199977616578,2|0,1:0|0:0,0:0:0:0:
268,288,32526,5,10,0:0:0:0:
388,175,32699,1,2,1:0:0:0:
325,231,32871,1,2,0:0:0:0:
325,231,33044,1,10,0:0:0:0:
259,180,33216,54,0,B|155:135|155:135|80:147,1,169.259993284973,4|2,1:0|2:0,0:0:0:0:
236,43,33906,2,0,B|256:88|256:88|297:112,2,84.6299966424867,10|2|2,0:0|2:0|2:0,0:0:0:0:
236,43,34768,5,2,0:0:0:0:
297,227,34940,1,0,1:0:0:0:
96,135,35285,53,10,0:0:0:0:
96,135,35457,2,0,P|116:202|129:264,1,112.839995523316,2|2,1:0|2:0,0:0:0:0:
228,335,35975,6,0,B|325:330|264:260|382:255,1,169.259993284973,4|0,1:0|2:0,0:0:0:0:
482,127,36664,2,0,P|341:167|244:70,1,282.099988808289,8|0,0:0|2:0,0:0:0:0:
36,186,37699,2,0,L|98:160,1,56.4199977616578,2|0,1:0|2:0,0:0:0:0:
147,276,38044,1,8,0:0:0:0:
147,276,38216,2,0,L|252:235,1,112.839995523316,0|8,1:0|0:0,0:0:0:0:
380,219,38733,54,0,P|401:172|396:133,2,84.6299966424867,6|2|2,1:0|2:0|2:0,0:0:0:0:
318,160,39423,2,0,P|298:122|299:80,2,84.6299966424867,10|2|2,0:0|2:0|2:0,0:0:0:0:
217,29,40113,2,0,P|178:38|142:76,1,84.6299966424867,2|0,0:0|0:0,0:0:0:0:
146,67,40457,2,0,L|152:147,1,56.4199977616578,0|0,1:0|0:0,0:0:0:0:
141,237,40802,1,10,0:0:0:0:
141,237,40975,2,0,L|199:229,1,56.4199977616578,2|0,1:0|2:0,0:0:0:0:
282,258,41492,6,0,B|206:263|206:263|140:235|140:235|46:245,2,225.679991046631,4|8|0,1:0|0:0|0:0,0:0:0:0:
423,86,43216,1,2,1:0:0:0:
370,334,43561,1,8,0:0:0:0:
440,260,43733,1,2,1:0:0:0:
440,260,43906,2,0,P|424:207|423:190,1,56.4199977616578,2|8,0:0|0:0,0:0:0:0:
314,97,44250,54,0,P|316:145|298:197,1,84.6299966424867,6|2,1:0|2:0,0:0:0:0:
306,179,44595,2,0,L|250:174,1,56.4199977616578,0|0,2:0|2:0,0:0:0:0:
85,132,44940,2,0,L|206:120,1,112.839995523316,2|0,0:0|2:0,0:0:0:0:
295,88,45457,1,2,2:0:0:0:
399,210,45630,6,0,P|380:166|403:114,1,84.6299966424867,2|2,0:0|2:0,0:0:0:0:
388,131,45975,2,0,L|448:146,1,56.4199977616578,2|0,2:0|2:0,0:0:0:0:
369,336,46319,2,0,L|356:211,1,112.839995523316,2|0,0:0|2:0,0:0:0:0:
290,157,46837,1,2,2:0:0:0:
218,286,47009,54,0,P|177:296|121:273,1,84.6299966424867,2|2,0:0|2:0,0:0:0:0:
136,284,47354,2,0,P|138:246|135:225,1,56.4199977616578,2|0,2:0|2:0,0:0:0:0:
154,64,47699,2,0,P|151:92|153:120,1,56.4199977616578,2|0,0:0|2:0,0:0:0:0:
210,203,48044,1,2,0:0:0:0:
210,203,48216,1,2,0:0:0:0:
261,130,48388,6,0,L|379:120,1,112.839995523316,2|0,0:0|2:0,0:0:0:0:
446,196,48906,1,0,0:0:0:0:
446,196,49078,2,0,L|451:256,2,56.4199977616578,0|0|0,0:0|0:0|0:0,0:0:0:0:
454,103,49595,1,2,0:0:0:0:
368,273,49768,2,0,P|321:246|244:256,1,111.930001707916,2|0,1:0|0:0,0:0:0:0:
264,247,50113,2,0,P|190:262|169:259,1,74.6200011386109,2|0,1:0|0:0,0:0:0:0:
55,179,50457,2,0,P|150:193|200:169,1,149.240002277222,2|0,1:0|1:0,0:0:0:0:
251,100,50975,1,2,0:0:0:0:
370,197,51147,54,0,P|323:182|303:163,1,74.6200011386109,2|0,1:0|0:0,0:0:0:0:
437,142,51492,2,0,P|457:191|452:224,1,74.6200011386109,2|0,1:0|0:0,0:0:0:0:
351,266,51837,2,0,P|352:229|369:196,1,74.6200011386109,2|0,1:0|0:0,0:0:0:0:
420,322,52181,2,0,P|390:344|354:353,1,74.6200011386109,2|0,1:0|0:0,0:0:0:0:
222,299,52526,5,2,1:0:0:0:
222,299,52699,1,0,1:0:0:0:
241,213,52871,1,0,1:0:0:0:
241,213,53044,1,0,1:0:0:0:
262,131,53216,1,0,1:0:0:0:
262,131,53388,1,0,1:0:0:0:
283,48,53561,1,0,1:0:0:0:
283,48,53733,1,0,1:0:0:0:
193,85,53906,53,2,1:0:0:0:
343,119,54078,1,0,1:0:0:0:
171,161,54250,1,0,1:0:0:0:
321,200,54423,1,0,1:0:0:0:
183,245,54595,6,0,P|189:290|188:298,3,37.3100005693054,0|0|0|0,1:0|1:0|1:0|1:0,0:0:0:0:
276,277,54940,2,0,P|270:322|271:330,3,37.3100005693054,0|0|0|0,1:0|1:0|1:0|1:0,0:0:0:0:
207,358,55285,53,2,0:0:0:0:
213,338,60802,22,0,P|151:323|39:361,1,166.529993139176,6|0,1:0|2:0,0:0:0:0:
53,349,61147,2,0,P|63:284|54:230,1,111.019995426117,10|0,0:0|0:0,0:0:0:0:
141,96,61492,5,2,0:0:0:0:
152,241,61664,1,2,1:0:0:0:
141,96,61837,2,0,L|260:76,1,111.019995426117,10|2,0:0|0:0,0:0:0:0:
237,244,62181,1,2,1:0:0:0:
109,169,62354,2,0,L|-10:149,1,111.019995426117,6|10,0:0|0:0,0:0:0:0:
244,157,62699,1,2,0:0:0:0:
317,299,62871,2,0,L|436:279,1,111.019995426117,6|2,0:0|1:0,0:0:0:0:
323,144,63216,1,10,0:0:0:0:
223,261,63388,1,2,1:0:0:0:
283,75,63561,6,0,P|347:68|402:169,1,166.529993139176,6|0,1:0|2:0,0:0:0:0:
404,142,63906,2,0,P|388:206|335:230,1,111.019995426117,10|0,0:0|0:0,0:0:0:0:
486,136,64250,37,2,0:0:0:0:
323,144,64423,1,2,1:0:0:0:
444,263,64595,2,0,B|462:322|462:322|438:372,1,111.019995426117,10|2,0:0|0:0,0:0:0:0:
289,274,64940,1,2,1:0:0:0:
404,142,65113,2,0,B|407:76|407:76|380:36,1,111.019995426117,6|10,0:0|0:0,0:0:0:0:
348,210,65457,1,2,0:0:0:0:
298,63,65630,1,6,1:3:0:0:
298,63,65802,1,6,1:0:0:0:
190,198,65975,1,10,0:0:0:0:
321,137,66147,1,2,1:0:0:0:
119,103,66319,6,0,B|108:221|108:221|139:275,1,166.529993139176,6|0,1:0|2:0,0:0:0:0:
131,262,66664,2,0,B|177:289|177:289|238:271,1,111.019995426117,10|0,0:0|0:0,0:0:0:0:
46,278,67009,5,2,0:0:0:0:
190,198,67181,1,2,1:0:0:0:
269,347,67354,2,0,L|388:337,1,111.019995426117,10|2,0:0|0:0,0:0:0:0:
270,200,67699,1,2,1:0:0:0:
183,368,67871,2,0,L|64:358,1,111.019995426117,6|10,0:0|0:0,0:0:0:0:
185,191,68216,1,2,0:0:0:0:
274,355,68388,2,0,L|393:345,1,111.019995426117,6|2,0:0|1:0,0:0:0:0:
264,188,68733,1,10,0:0:0:0:
125,279,68906,1,2,1:0:0:0:
240,100,69078,38,0,P|320:121|344:222,1,166.529993139176,6|0,1:0|2:0,0:0:0:0:
350,193,69423,2,0,P|384:123|423:108,1,111.019995426117,10|0,0:0|0:0,0:0:0:0:
264,188,69768,5,2,0:0:0:0:
437,198,69940,1,2,1:0:0:0:
285,263,70113,1,10,0:0:0:0:
240,100,70285,1,2,0:0:0:0:
204,306,70457,6,0,L|150:73,1,222.039990852234,14|0,0:0|1:0,0:0:0:0:
285,263,70975,2,0,P|356:258|364:100,1,222.039990852234,14|0,0:0|1:0,0:0:0:0:
283,0,71492,2,0,P|232:40|260:141,1,166.529993139176,14|0,0:0|0:0,0:0:0:0:
311,170,71837,38,0,P|238:133|135:188,1,166.529993139176,6|0,1:0|2:0,0:0:0:0:
161,156,72181,2,0,P|104:182|40:163,1,111.019995426117,10|0,0:0|0:0,0:0:0:0:
228,225,72526,5,2,0:0:0:0:
96,96,72699,1,2,1:0:0:0:
228,225,72871,2,0,L|229:342,1,111.019995426117,10|2,0:0|0:0,0:0:0:0:
304,196,73216,1,2,1:0:0:0:
156,296,73388,2,0,B|92:296|92:296|52:272,1,111.019995426117,6|10,0:0|0:0,0:0:0:0:
184,152,73733,1,2,0:0:0:0:
304,280,73906,2,0,B|368:280|368:280|408:256,1,111.019995426117,6|2,0:0|1:0,0:0:0:0:
264,124,74250,1,10,0:0:0:0:
224,248,74423,1,2,1:0:0:0:
184,52,74595,6,0,L|360:36,1,166.529993139176,6|0,1:0|2:0,0:0:0:0:
349,36,74940,2,0,P|388:96|372:172,1,111.019995426117,10|0,0:0|0:0,0:0:0:0:
476,28,75285,37,2,0:0:0:0:
448,192,75457,1,2,1:0:0:0:
288,136,75630,2,0,P|220:152|176:184,1,111.019995426117,10|2,0:0|0:0,0:0:0:0:
388,248,75975,1,2,1:0:0:0:
248,336,76147,2,0,P|180:320|136:288,1,111.019995426117,6|10,0:0|0:0,0:0:0:0:
304,248,76492,1,2,0:0:0:0:
112,220,76664,1,6,1:0:0:0:
112,220,76837,1,6,1:0:0:0:
192,88,77009,1,10,0:0:0:0:
220,236,77181,1,2,1:0:0:0:
120,56,77354,6,0,B|180:48|180:48|232:64|232:64|320:56,1,166.529993139176,6|0,1:0|2:0,0:0:0:0:
283,59,77699,2,0,P|352:32|416:52,1,111.019995426117,10|0,0:0|0:0,0:0:0:0:
392,232,78044,5,2,0:0:0:0:
352,120,78216,1,2,1:0:0:0:
304,260,78388,2,0,L|320:372,1,111.019995426117,10|2,0:0|0:0,0:0:0:0:
240,176,78733,1,2,1:0:0:0:
132,264,78906,2,0,L|116:376,1,111.019995426117,6|10,0:0|0:0,0:0:0:0:
148,176,79250,1,2,0:0:0:0:
224,320,79423,1,6,0:0:0:0:
240,176,79595,1,2,1:0:0:0:
132,264,79768,1,10,0:0:0:0:
304,260,79940,1,2,1:0:0:0:
148,176,80113,38,0,P|100:120|192:60,1,166.529993139176,6|0,1:0|2:0,0:0:0:0:
147,54,80457,2,0,B|223:71|223:71|275:63,1,111.019995426117,10|0,0:0|0:0,0:0:0:0:
424,12,80802,5,2,0:0:0:0:
288,144,80975,1,2,1:0:0:0:
440,92,81147,1,10,0:0:0:0:
468,224,81319,1,2,0:0:0:0:
284,52,81492,6,0,P|216:92|248:224,1,222.039990852234,6|10,1:0|0:0,0:0:0:0:
448,352,82354,1,12,0:0:0:0:
360,308,82526,2,0,L|208:328,1,111.019995426117,12|0,0:0|0:0,0:0:0:0:
56,232,82871,38,0,B|96:264|96:264|200:184,1,166.529993139176,4|0,1:0|2:0,0:0:0:0:
187,193,83216,2,0,P|188:80|208:56,1,111.019995426117,8|0,0:0|0:0,0:0:0:0:
320,176,83561,5,2,0:0:0:0:
320,176,83647,1,2,0:0:0:0:
320,176,83733,1,2,1:0:0:0:
392,64,83906,2,0,L|268:52,1,111.019995426117,10|2,0:0|0:0,0:0:0:0:
408,148,84250,1,2,1:0:0:0:
292,252,84423,2,0,B|272:316|272:316|296:372,1,111.019995426117,6|10,0:0|0:0,0:0:0:0:
320,176,84768,1,2,0:0:0:0:
192,296,84940,2,0,L|48:272,1,111.019995426117,6|2,0:0|1:0,0:0:0:0:
196,164,85285,1,10,0:0:0:0:
292,252,85457,1,2,1:0:0:0:
108,144,85630,6,0,L|304:128,1,166.529993139176,6|0,1:0|2:0,0:0:0:0:
273,130,85975,2,0,P|344:164|376:156,1,111.019995426117,10|0,0:0|0:0,0:0:0:0:
344,80,86319,37,2,0:0:0:0:
344,80,86492,1,2,1:0:0:0:
444,104,86664,1,10,0:0:0:0:
444,104,86837,1,2,0:0:0:0:
460,196,87009,1,2,1:0:0:0:
385,267,87181,2,0,L|369:127,2,111.019995426117,6|10|2,0:0|0:0|0:0,0:0:0:0:
304,248,87699,1,6,1:0:0:0:
464,288,87871,1,6,1:0:0:0:
320,324,88044,1,10,0:0:0:0:
288,172,88216,1,0,1:0:0:0:
224,352,88388,6,0,P|152:352|92:256,1,166.529993139176,6|0,1:0|2:0,0:0:0:0:
94,284,88733,2,0,L|96:144,1,111.019995426117,10|0,0:0|0:0,0:0:0:0:
208,40,89078,5,2,0:0:0:0:
208,40,89164,1,2,0:0:0:0:
208,40,89250,1,2,1:0:0:0:
252,144,89423,2,0,L|140:112,1,111.019995426117,10|2,0:0|0:0,0:0:0:0:
324,48,89768,1,2,1:0:0:0:
392,188,89940,2,0,L|372:320,1,111.019995426117,6|10,0:0|0:0,0:0:0:0:
404,100,90285,1,2,0:0:0:0:
472,232,90457,2,0,L|452:364,1,111.019995426117,6|2,0:0|1:0,0:0:0:0:
480,148,90802,1,10,0:0:0:0:
316,220,90975,1,2,1:0:0:0:
408,88,91147,38,0,B|326:115|338:49|238:86,1,166.529993139176,6|0,1:0|2:0,0:0:0:0:
246,83,91492,2,0,P|155:103|104:83,1,111.019995426117,10|0,0:0|0:0,0:0:0:0:
291,148,91837,5,2,0:0:0:0:
291,148,92009,1,2,1:0:0:0:
235,212,92181,1,10,0:0:0:0:
235,212,92354,1,2,0:0:0:0:
123,306,92526,2,0,P|185:282|232:291,1,111.019995426117,6|0,1:0|0:0,0:0:0:0:
339,228,92871,2,0,P|277:204|230:213,1,111.019995426117,10|0,0:0|0:0,0:0:0:0:
69,165,93216,2,0,P|171:158|220:117,2,148.026660568156,12|12|12,0:0|0:0|0:0,0:0:0:0:
195,35,93906,6,0,B|300:41|241:94|357:95,1,166.529993139176,6|0,1:0|2:0,0:0:0:0:
344,94,94250,2,0,P|397:61|460:69,1,111.019995426117,10|0,0:0|0:0,0:0:0:0:
421,271,94595,37,2,0:0:0:0:
414,143,94768,1,2,1:0:0:0:
479,202,94940,1,10,0:0:0:0:
479,202,95113,1,2,0:0:0:0:
362,202,95285,1,2,1:0:0:0:
366,342,95457,1,6,0:0:0:0:
421,271,95630,1,10,0:0:0:0:
421,271,95802,1,2,0:0:0:0:
288,299,95975,1,2,0:0:0:0:
327,153,96147,1,2,1:0:0:0:
366,342,96319,1,10,0:0:0:0:
342,229,96492,1,2,1:0:0:0:
221,340,96664,6,0,B|160:358|106:334|106:334|82:272,1,166.529993139176,2|0,1:0|2:0,0:0:0:0:
88,288,97009,2,0,B|111:227|111:227|87:158,1,111.019995426117,10|0,0:0|0:0,0:0:0:0:
247,241,97354,1,2,0:0:0:0:
189,96,97526,1,2,1:0:0:0:
175,182,97699,1,10,0:0:0:0:
175,182,97871,1,2,0:0:0:0:
356,142,98044,1,2,1:0:0:0:
251,31,98216,1,6,0:0:0:0:
274,120,98388,1,10,0:0:0:0:
274,120,98561,1,2,0:0:0:0:
435,44,98733,2,0,B|455:108|455:108|440:145|440:145|469:205,1,166.529993139176,6|0,1:0|0:0,0:0:0:0:
486,276,99078,2,0,P|435:316|322:286,1,166.529993139176,14|0,0:0|2:0,0:0:0:0:
279,261,99423,6,0,B|216:233|216:233|99:293,1,166.529993139176,6|0,1:0|2:0,0:0:0:0:
129,277,99768,2,0,L|109:151,1,111.019995426117,10|0,0:0|0:0,0:0:0:0:
291,35,100113,37,2,0:0:0:0:
192,148,100285,1,2,1:0:0:0:
389,121,100457,1,10,0:0:0:0:
272,113,100630,1,2,0:0:0:0:
361,298,100802,1,2,0:0:0:0:
330,174,100975,1,6,1:0:0:0:
211,302,101147,1,2,0:0:0:0:
295,249,101319,1,2,0:0:0:0:
161,124,101492,1,2,1:0:0:0:
208,224,101664,1,2,1:0:0:0:
292,39,101837,1,10,0:0:0:0:
82,157,102009,1,2,1:0:0:0:
254,118,102181,6,0,P|323:136|373:258,1,185.640001133057,6|8,1:0|0:0,0:0:0:0:
92,332,103044,1,2,1:0:0:0:
45,251,103217,2,0,P|53:190|83:153,1,92.8200005665283,14|0,0:0|0:0,0:0:0:0:
198,85,103561,6,0,P|204:151|209:160,1,46.4100002832642,12|8,0:0|0:0,0:0:0:0:
269,185,103733,2,0,P|272:207|270:230,3,46.4100002832642,0|0|0|0,1:0|1:0|1:0|1:0,0:0:0:0:
342,80,104078,2,0,P|348:146|353:155,1,46.4100002832642,12|8,0:0|0:0,0:0:0:0:
413,180,104250,2,0,P|416:202|414:225,3,46.4100002832642,0|0|0|0,1:0|1:0|1:0|1:0,0:0:0:0:
484,92,104595,2,0,L|501:269,1,139.230000849792,12|0,0:0|2:0,0:0:0:0:
479,259,104940,6,0,P|395:318|375:115,1,388.56998399141,4|0,1:3|2:0,0:0:0:0:
372,52,105630,38,0,L|248:44,1,111.019995426117,10|2,0:0|0:2,0:0:0:0:
124,128,105975,1,2,0:0:0:0:
261,44,106147,1,2,0:2:0:0:
40,104,106319,2,0,L|60:236,1,111.019995426117,2|2,1:0|0:0,0:0:0:0:
208,156,106664,1,2,0:0:0:0:
40,104,106837,1,2,0:0:0:0:
191,265,107009,2,0,L|207:155,1,111.019995426117,10|2,0:0|0:0,0:0:0:0:
400,96,107354,2,0,L|372:308,1,166.529993139176,0|0,1:0|2:0,0:0:0:0:
397,289,107699,6,0,P|425:217|197:177,1,388.56998399141,4|0,1:0|2:0,0:0:0:0:
176,232,108388,2,0,L|32:212,1,111.019995426117,10|2,0:0|0:0,0:0:0:0:
148,72,108733,1,2,0:0:0:0:
64,216,108906,1,2,0:0:0:0:
288,160,109078,2,0,L|432:180,1,111.019995426117,2|2,1:0|0:0,0:0:0:0:
368,24,109423,1,2,0:0:0:0:
288,160,109595,1,2,0:0:0:0:
148,72,109768,2,0,B|35:87|35:87|0:168,1,166.529993139176,8|0,0:0|2:0,0:0:0:0:
0,168,110113,2,0,P|52:236|20:344,1,166.529993139176,0|0,1:0|2:0,0:0:0:0:
16,352,110457,6,0,P|88:204|260:312,1,388.56998399141,4|0,1:0|2:0,0:0:0:0:
276,356,111147,2,0,L|400:340,1,111.019995426117,10|2,0:0|0:0,0:0:0:0:
424,176,111492,1,2,0:0:0:0:
386,341,111664,1,2,0:0:0:0:
324,168,111837,2,0,L|344:48,1,111.019995426117,2|2,1:0|0:0,0:0:0:0:
484,120,112181,1,2,0:0:0:0:
324,168,112354,1,2,0:0:0:0:
448,11,112526,2,0,L|420:203,1,166.529993139176,10|0,0:0|0:0,0:0:0:0:
436,228,112871,2,0,P|372:204|296:296,1,166.529993139176,0|0,1:0|2:0,0:0:0:0:
296,312,113216,38,0,P|240:232|40:368,1,388.56998399141,4|0,1:0|2:0,0:0:0:0:
116,368,113906,2,0,L|228:352,1,111.019995426117,10|2,0:0|0:0,0:0:0:0:
248,192,114250,1,2,0:0:0:0:
224,352,114423,1,2,0:0:0:0:
180,125,114595,6,0,B|243:82|314:127|314:127|380:169|457:120,1,261.170003985138,0|0,1:0|2:0,0:0:0:0:
455,112,115285,2,0,B|427:61|427:61|441:286,1,261.170003985138,8|0,0:0|2:0,0:0:0:0:
442,308,115975,6,0,P|388:220|196:343,1,388.56998399141,4|0,1:0|2:0,0:0:0:0:
120,344,116664,38,0,B|59:340|59:340|25:297,1,111.019995426117,10|2,0:0|0:0,0:0:0:0:
106,157,117009,1,2,0:0:0:0:
29,300,117181,1,2,0:0:0:0:
47,97,117354,2,0,B|105:67|105:67|157:85,1,111.019995426117,2|2,0:0|0:0,0:0:0:0:
179,220,117699,1,2,0:0:0:0:
47,97,117871,1,2,0:0:0:0:
229,142,118044,2,0,B|268:196|268:196|260:267,1,111.019995426117,10|2,0:0|0:0,0:0:0:0:
351,107,118388,2,0,L|336:284,1,166.529993139176,0|0,1:0|2:0,0:0:0:0:
377,300,118733,6,0,P|428:207|220:154,1,388.56998399141,0|0,1:0|2:0,0:0:0:0:
171,196,119423,2,0,B|101:189|101:189|68:156,1,111.019995426117,10|2,0:0|0:0,0:0:0:0:
184,37,119768,1,2,0:0:0:0:
71,162,119940,1,2,0:0:0:0:
261,58,120113,2,0,B|309:96|309:96|316:154,1,111.019995426117,2|2,1:0|0:0,0:0:0:0:
133,99,120457,1,2,0:0:0:0:
263,59,120630,1,2,0:0:0:0:
208,232,120802,2,0,P|240:155|342:161,1,166.529993139176,8|0,0:0|2:0,0:0:0:0:
337,168,121147,2,0,P|258:181|229:255,1,166.529993139176,0|0,1:0|2:0,0:0:0:0:
254,284,121492,6,0,P|174:218|340:219,1,388.56998399141,0|0,1:0|2:0,0:0:0:0:
390,257,122181,38,0,B|430:205|430:205|425:146,1,111.019995426117,10|2,0:0|0:0,0:0:0:0:
318,47,122526,1,2,0:0:0:0:
426,159,122699,1,2,0:0:0:0:
258,102,122871,2,0,B|193:95|193:95|143:125,1,111.019995426117,2|2,1:0|0:0,0:0:0:0:
217,263,123216,1,2,0:0:0:0:
257,103,123388,1,2,0:0:0:0:
298,261,123561,1,10,0:0:0:0:
137,268,123733,1,2,0:0:0:0:
277,181,123906,2,0,P|356:201|363:311,1,166.529993139176,0|0,1:0|2:0,0:0:0:0:
387,312,124250,6,0,L|408:192,1,111.019995426117,10|0,0:0|0:0,0:0:0:0:
257,71,124595,1,0,0:0:0:0:
257,71,124768,2,0,L|276:180,1,111.019995426117,2|8,0:0|0:0,0:0:0:0:
154,329,125113,1,0,0:0:0:0:
154,329,125285,2,0,L|173:219,1,111.019995426117,2|0,1:0|0:0,0:0:0:0:
1,86,125630,22,0,B|74:34|152:85|152:85|207:203|338:149,1,371.280002266113,6|8,1:3|0:0,0:0:0:0:
69,305,127009,1,4,1:3:0:0:
