osu file format v14

[General]
AudioFilename: audio.mp3
AudioLeadIn: 0
PreviewTime: 59164
Countdown: 0
SampleSet: None
StackLeniency: 0.7
Mode: 0
LetterboxInBreaks: 0
WidescreenStoryboard: 0

[Editor]
Bookmarks: 60802,127009
DistanceSpacing: 1.3
BeatDivisor: 4
GridSize: 4
TimelineZoom: 1.5

[Metadata]
Title:Holdin On (Skrillex and Nero Remix)
TitleUnicode:Holdin On (Skrillex and Nero Remix)
Artist:I SEE MONSTAS
ArtistUnicode:I SEE MONSTAS
Creator:Sotarks
Version:Immortal
Source:
Tags:Hobbes2 Kin Akitoshi Corinn dubstep
BeatmapID:1501472
BeatmapSetID:701330

[Difficulty]
HPDrainRate:6.2
CircleSize:3.8
OverallDifficulty:9.2
ApproachRate:9.2
SliderMultiplier:1.82
SliderTickRate:1

[Events]
//Background and Video events
0,0,"monsta.jpg",0,0
//Break Periods
2,55485,59423
//Storyboard Layer 0 (Background)
//Storyboard Layer 1 (Fail)
//Storyboard Layer 2 (Pass)
//Storyboard Layer 3 (Foreground)
//Storyboard Sound Samples

[TimingPoints]
113,344.827586206897,4,3,22,62,1,0
22181,-161.290322580645,4,3,22,62,0,0
49768,-121.951219512195,4,3,22,62,0,0
60802,-81.9672131147541,4,3,22,82,0,0
102181,-98.0392156862745,4,3,22,82,0,0
104940,-81.9672131147541,4,3,22,82,0,0
114595,-121.951219512195,4,3,22,82,0,0
115975,-81.9672131147541,4,3,22,62,0,0
125630,-98.0392156862745,4,3,22,82,0,0
127009,-98.0392156862745,4,3,69,82,0,0

[Colours]
Combo1 : 130,133,152
Combo2 : 219,13,0
Combo3 : 155,27,55
Combo4 : 252,65,46
Combo5 : 104,77,94

[HitObjects]
162,136,21492,53,8,0:0:0:0:
344,207,21664,1,0,1:0:0:0:
268,235,21837,1,0,1:0:0:0:
268,235,22181,6,0,L|279:58,1,169.259993284973,6|0,1:0|2:0,0:0:0:0:
327,291,22871,1,10,0:0:0:0:
371,219,23044,2,0,P|296:214|258:247,2,112.839995523316,2|2|2,2:0|2:0|2:0,0:0:0:0:
429,284,23906,2,0,P|471:289|491:281,1,56.4199977616578,0|2,1:0|2:0,0:0:0:0:
440,57,24250,1,8,0:0:0:0:
456,143,24423,2,0,L|469:221,2,56.4199977616578,0|2|2,1:0|2:0|2:0,0:0:0:0:
278,50,24940,54,0,B|176:55|234:120|117:124,1,169.259993284973,4|0,1:0|2:0,0:0:0:0:
0,87,25630,2,0,P|47:101|116:268,1,225.679991046631,8|0,0:0|2:0,0:0:0:0:
354,155,26664,2,0,P|393:150|422:153,1,56.4199977616578,0|0,1:0|2:0,0:0:0:0:
473,301,27009,1,8,0:0:0:0:
395,346,27181,2,0,L|386:215,1,112.839995523316,0|8,1:0|0:0,0:0:0:0:
455,83,27699,6,0,P|402:103|331:83,1,112.839995523316,4|2,1:0|0:0,0:0:0:0:
269,57,28216,1,2,2:0:0:0:
102,151,28388,2,0,P|111:187|115:221,1,56.4199977616578,8|2,0:0|2:0,0:0:0:0:
121,232,28906,54,0,P|123:180|155:104,1,112.839995523316,2|2,0:0|2:0,0:0:0:0:
269,57,29423,2,0,L|275:129,1,56.4199977616578,0|2,1:0|2:0,0:0:0:0:
288,335,29768,1,8,0:0:0:0:
283,249,29940,2,0,L|278:192,2,56.4199977616578,0|2|2,1:0|2:0|2:0,0:0:0:0:
135,331,30457,6,0,B|221:316|221:316|289:337|289:337|370:321,1,225.679991046631,4|8,1:0|0:0,0:0:0:0:
421,60,31664,1,2,2:0:0:0:
364,125,31837,2,0,P|382:160|392:188,1,56.4199977616578,2|0,0:0|0:0,0:0:0:0:
270,112,32181,2,0,P|259:85|245:61,1,56.4199977616578,2|0,1:0|0:0,0:0:0:0:
155,284,32526,53,10,0:0:0:0:
388,175,32699,1,2,1:0:0:0:
204,166,32871,1,2,0:0:0:0:
414,304,33044,1,10,0:0:0:0:
298,228,33216,6,0,P|188:194|119:195,1,169.259993284973,4|2,1:0|2:0,0:0:0:0:
230,56,33906,2,0,P|255:100|291:125,2,84.6299966424867,10|2|2,0:0|2:0|2:0,0:0:0:0:
230,56,34768,53,2,0:0:0:0:
297,227,34940,1,0,1:0:0:0:
98,68,35285,5,10,0:0:0:0:
45,140,35457,2,0,P|65:207|78:269,1,112.839995523316,2|2,1:0|2:0,0:0:0:0:
231,347,35975,54,0,B|328:342|272:264|385:267,1,169.259993284973,4|0,1:0|2:0,0:0:0:0:
467,107,36664,2,0,P|423:134|229:50,1,282.099988808289,8|0,0:0|2:0,0:0:0:0:
67,187,37699,2,0,P|118:161|129:161,1,56.4199977616578,2|0,1:0|2:0,0:0:0:0:
308,233,38044,1,8,0:0:0:0:
228,204,38216,2,0,P|186:210|126:263,1,112.839995523316,0|8,1:0|0:0,0:0:0:0:
377,295,38733,6,0,P|398:248|393:209,2,84.6299966424867,6|2|2,1:0|2:0|2:0,0:0:0:0:
311,137,39423,2,0,P|291:99|292:57,2,84.6299966424867,10|2|2,0:0|2:0|2:0,0:0:0:0:
141,43,40113,2,0,P|102:52|72:81,1,56.4199977616578,2|0,0:0|2:0,0:0:0:0:
54,159,40457,2,0,L|63:250,1,84.6299966424867,0|0,1:0|2:0,0:0:0:0:
98,315,40802,1,10,0:0:0:0:
157,243,40975,2,0,L|215:235,2,56.4199977616578,2|0|2,1:0|2:0|0:0,0:0:0:0:
287,255,41492,54,0,L|51:242,2,225.679991046631,4|8|0,1:0|0:0|0:0,0:0:0:0:
423,86,43216,1,2,1:0:0:0:
370,334,43561,1,8,0:0:0:0:
440,260,43733,1,2,1:0:0:0:
440,260,43906,2,0,P|424:207|423:190,1,56.4199977616578,2|8,0:0|0:0,0:0:0:0:
314,97,44250,6,0,P|316:145|298:197,1,84.6299966424867,6|2,1:0|2:0,0:0:0:0:
252,233,44595,2,0,L|196:228,1,56.4199977616578,0|0,2:0|2:0,0:0:0:0:
85,132,44940,2,0,L|206:120,1,112.839995523316,2|0,0:0|2:0,0:0:0:0:
295,88,45457,1,2,2:0:0:0:
399,210,45630,54,0,P|380:166|403:114,1,84.6299966424867,2|2,0:0|2:0,0:0:0:0:
456,165,45975,2,0,L|459:238,1,56.4199977616578,2|0,2:0|2:0,0:0:0:0:
369,336,46319,2,0,L|356:211,1,112.839995523316,2|0,0:0|2:0,0:0:0:0:
290,157,46837,1,2,2:0:0:0:
218,286,47009,6,0,P|177:296|121:273,1,84.6299966424867,2|2,0:0|2:0,0:0:0:0:
81,232,47354,2,0,P|83:194|80:173,1,56.4199977616578,2|0,2:0|2:0,0:0:0:0:
154,64,47699,2,0,P|151:92|153:120,1,56.4199977616578,2|0,0:0|2:0,0:0:0:0:
179,213,48044,1,2,0:0:0:0:
179,213,48216,1,2,0:0:0:0:
248,140,48388,54,0,L|366:130,1,112.839995523316,2|0,0:0|2:0,0:0:0:0:
446,196,48906,1,0,0:0:0:0:
446,196,49078,2,0,L|451:256,2,56.4199977616578
436,100,49595,1,2,0:0:0:0:
344,366,49768,6,0,P|298:378|257:370,1,74.6200011386109,2|0,1:0|0:0,0:0:0:0:
109,328,50113,2,0,P|144:339|181:336,1,74.6200011386109,2|0,1:0|0:0,0:0:0:0:
367,264,50457,2,0,P|325:287|283:290,1,74.6200011386109,2|0,1:0|0:0,0:0:0:0:
94,226,50802,2,0,P|125:246|161:253,1,74.6200011386109,0|2,1:0|0:0,0:0:0:0:
353,147,51147,54,0,P|328:188|294:211,1,74.6200011386109,2|0,1:0|0:0,0:0:0:0:
117,108,51492,2,0,P|134:140|161:165,1,74.6200011386109,2|0,1:0|0:0,0:0:0:0:
292,61,51837,2,0,P|284:98|263:129,1,74.6200011386109,2|0,1:0|0:0,0:0:0:0:
173,17,52181,2,0,P|180:54|201:85,1,74.6200011386109,2|0,1:0|0:0,0:0:0:0:
353,147,52526,5,2,1:0:0:0:
117,108,52699,1,0,1:0:0:0:
308,204,52871,1,0,1:0:0:0:
161,165,53044,1,0,1:0:0:0:
377,299,53216,1,0,1:0:0:0:
161,244,53388,1,0,1:0:0:0:
344,366,53561,1,0,1:0:0:0:
117,301,53733,1,0,1:0:0:0:
271,127,53906,53,2,1:0:0:0:
256,365,54078,1,0,1:0:0:0:
61,218,54250,1,0,1:0:0:0:
284,148,54423,1,0,1:0:0:0:
152,312,54595,1,0,1:0:0:0:
151,297,54681,1,0,1:0:0:0:
150,282,54767,1,0,1:0:0:0:
149,267,54853,1,0,1:0:0:0:
149,252,54939,1,0,1:0:0:0:
148,237,55026,1,0,1:0:0:0:
147,222,55112,1,0,1:0:0:0:
146,207,55198,1,0,1:0:0:0:
146,194,55285,1,2,0:0:0:0:
148,87,60802,22,0,P|204:89|254:215,1,166.529993139176,6|0,1:0|2:0,0:0:0:0:
238,251,61147,2,0,P|217:308|232:360,1,111.019995426117,10|0,0:0|0:0,0:0:0:0:
174,170,61492,5,2,0:0:0:0:
305,308,61664,1,2,1:0:0:0:
62,169,61837,1,10,0:0:0:0:
301,44,62009,1,2,0:0:0:0:
305,308,62181,1,2,1:0:0:0:
214,29,62354,5,6,0:0:0:0:
179,354,62526,1,10,0:0:0:0:
308,37,62699,1,2,0:0:0:0:
418,356,62871,37,6,0:0:0:0:
73,297,63044,1,2,1:0:0:0:
441,178,63216,5,10,0:0:0:0:
103,108,63388,1,2,1:0:0:0:
390,61,63561,6,0,B|349:185|349:185|375:239,1,166.529993139176,6|0,1:0|2:0,0:0:0:0:
409,289,63906,2,0,P|345:302|300:273,1,111.019995426117,10|0,0:0|0:0,0:0:0:0:
475,95,64250,37,2,0:0:0:0:
233,58,64423,1,2,1:0:0:0:
441,178,64595,1,10,0:0:0:0:
206,300,64768,1,2,0:0:0:0:
388,82,64940,1,2,1:0:0:0:
431,360,65113,6,0,L|359:346,1,55.5099977130586,6|0,0:0|0:0,0:0:0:0:
266,233,65285,1,10,0:0:0:0:
475,95,65457,1,2,0:0:0:0:
285,329,65630,6,0,L|213:315,1,55.5099977130586,6|0,1:3|0:0,0:0:0:0:
188,133,65802,2,0,L|260:147,1,55.5099977130586,6|0,1:0|0:0,0:0:0:0:
354,254,65975,37,10,0:0:0:0:
26,186,66147,1,2,1:0:0:0:
261,53,66319,6,0,L|269:270,1,166.529993139176,6|0,1:0|2:0,0:0:0:0:
354,254,66664,2,0,L|350:135,1,111.019995426117,10|0,0:0|0:0,0:0:0:0:
274,349,67009,5,2,0:0:0:0:
188,133,67181,1,2,1:0:0:0:
428,190,67354,1,10,0:0:0:0:
184,348,67526,1,2,0:0:0:0:
108,109,67699,1,2,1:0:0:0:
358,352,67871,37,6,0:0:0:0:
82,188,68044,1,10,0:0:0:0:
389,117,68216,1,2,0:0:0:0:
103,342,68388,5,6,0:0:0:0:
261,90,68561,1,2,1:0:0:0:
447,308,68733,5,10,0:0:0:0:
108,109,68906,1,2,1:0:0:0:
360,45,69078,38,0,B|397:148|310:117|369:254,1,166.529993139176,6|0,1:0|2:0,0:0:0:0:
360,288,69423,2,0,P|297:273|240:278,1,111.019995426117,10|0,0:0|0:0,0:0:0:0:
443,178,69768,5,2,0:0:0:0:
191,220,69940,1,2,1:0:0:0:
456,163,70113,1,10,0:0:0:0:
142,141,70285,1,2,0:0:0:0:
385,23,70457,6,0,P|394:85|359:144,1,111.019995426117,14|0,0:0|0:0,0:0:0:0:
240,303,70802,1,0,1:0:0:0:
14,59,70975,38,0,P|5:121|40:180,1,111.019995426117,14|0,0:0|0:0,0:0:0:0:
158,340,71320,1,0,1:0:0:0:
281,25,71492,6,0,P|290:87|255:146,1,111.019995426117,14|0,0:0|0:0,0:0:0:0:
63,337,71837,6,0,P|105:259|197:250,1,166.529993139176,6|0,1:0|2:0,0:0:0:0:
246,286,72181,2,0,L|358:278,1,111.019995426117,10|0,0:0|0:0,0:0:0:0:
158,340,72526,37,2,0:0:0:0:
289,204,72699,1,2,1:0:0:0:
411,341,72871,1,10,0:0:0:0:
269,120,73044,1,2,0:0:0:0:
177,257,73216,1,2,1:0:0:0:
298,42,73388,5,6,0:0:0:0:
399,256,73561,1,10,0:0:0:0:
177,115,73733,1,2,0:0:0:0:
422,75,73906,5,6,0:0:0:0:
267,277,74078,1,2,1:0:0:0:
294,20,74250,37,10,0:0:0:0:
442,332,74423,1,2,1:0:0:0:
274,180,74595,6,0,B|219:183|219:183|175:215|175:215|81:218,1,166.529993139176,6|0,1:0|2:0,0:0:0:0:
37,231,74940,2,0,B|51:171|51:171|32:118,1,111.019995426117,10|0,0:0|0:0,0:0:0:0:
158,319,75285,5,2,0:0:0:0:
263,92,75457,1,2,1:0:0:0:
369,325,75630,1,10,0:0:0:0:
256,77,75802,1,2,0:0:0:0:
138,332,75975,1,2,1:0:0:0:
333,139,76147,38,0,L|421:131,1,55.5099977130586,6|0,0:0|0:0,0:0:0:0:
467,228,76319,1,10,0:0:0:0:
249,331,76492,1,2,0:0:0:0:
200,82,76664,6,0,L|264:120,1,55.5099977130586,6|0,1:0|0:0,0:0:0:0:
324,256,76837,2,0,L|276:227,1,55.5099977130586,6|0,1:0|0:0,0:0:0:0:
84,124,77009,5,10,0:0:0:0:
388,133,77181,1,2,1:0:0:0:
60,263,77354,38,0,B|139:234|139:234|243:291,1,166.529993139176,6|0,1:0|2:0,0:0:0:0:
276,323,77699,2,0,B|328:348|328:348|383:322,1,111.019995426117,10|0,0:0|0:0,0:0:0:0:
134,328,78044,5,2,0:0:0:0:
320,230,78216,1,2,1:0:0:0:
129,119,78388,1,10,0:0:0:0:
391,277,78561,1,2,0:0:0:0:
57,263,78733,1,2,1:0:0:0:
382,123,78906,5,6,0:0:0:0:
72,46,79078,1,10,0:0:0:0:
299,302,79250,1,2,0:0:0:0:
423,43,79423,37,6,0:0:0:0:
66,134,79595,1,2,1:0:0:0:
390,276,79768,5,10,0:0:0:0:
156,47,79940,1,2,1:0:0:0:
106,344,80113,6,0,P|128:277|243:229,1,166.529993139176,6|0,1:0|2:0,0:0:0:0:
292,239,80457,2,0,P|342:211|359:157,1,111.019995426117,10|0,0:0|0:0,0:0:0:0:
286,361,80802,37,2,0:0:0:0:
270,153,80975,1,2,1:0:0:0:
438,284,81147,1,10,0:0:0:0:
186,153,81319,1,2,0:0:0:0:
378,351,81492,6,0,P|350:285|369:223,1,111.019995426117,6|0,1:0|0:0,0:0:0:0:
292,49,81837,2,0,P|295:103|269:152,1,111.019995426117,10|0,0:0|0:0,0:0:0:0:
160,228,82181,1,0,0:0:0:0:
435,158,82354,5,12,0:0:0:0:
113,304,82526,2,0,P|177:318|225:277,1,111.019995426117,12|0,0:0|0:0,0:0:0:0:
391,66,82871,38,0,P|343:125|373:233,1,166.529993139176,4|0,1:0|2:0,0:0:0:0:
409,289,83216,2,0,P|379:340|303:341,1,111.019995426117,8|0,0:0|0:0,0:0:0:0:
146,217,83561,5,2,0:0:0:0:
132,163,83647,1,2,0:0:0:0:
149,111,83733,1,2,1:0:0:0:
400,46,83906,1,10,0:0:0:0:
328,269,84078,1,2,0:0:0:0:
185,76,84250,1,2,1:0:0:0:
380,336,84423,5,6,0:0:0:0:
86,311,84595,1,10,0:0:0:0:
422,252,84768,1,2,0:0:0:0:
269,62,84940,37,6,0:0:0:0:
177,320,85113,1,2,1:0:0:0:
462,174,85285,5,10,0:0:0:0:
102,89,85457,1,2,1:0:0:0:
259,363,85630,6,0,B|269:315|269:315|219:172,1,166.529993139176,6|0,1:0|2:0,0:0:0:0:
197,126,85975,2,0,B|178:63|178:63|216:12,1,111.019995426117,10|0,0:0|0:0,0:0:0:0:
318,210,86319,37,2,0:0:0:0:
151,193,86492,1,2,1:0:0:0:
376,146,86664,1,10,0:0:0:0:
197,126,86837,1,2,0:0:0:0:
430,83,87009,1,2,1:0:0:0:
269,274,87181,6,0,L|192:273,1,55.5099977130586,6|0,0:0|0:0,0:0:0:0:
66,179,87354,1,10,0:0:0:0:
246,56,87526,1,2,0:0:0:0:
195,350,87699,6,0,L|118:349,1,55.5099977130586,6|0,1:0|0:0,0:0:0:0:
312,208,87871,2,0,L|389:209,1,55.5099977130586,6|0,1:0|0:0,0:0:0:0:
481,350,88044,1,10,0:0:0:0:
430,83,88216,1,0,1:0:0:0:
419,289,88388,38,0,L|241:286,1,166.529993139176,6|0,1:0|2:0,0:0:0:0:
196,232,88733,2,0,P|153:187|102:182,1,111.019995426117,10|0,0:0|0:0,0:0:0:0:
218,369,89078,1,2,0:0:0:0:
273,369,89164,1,2,0:0:0:0:
329,369,89250,1,2,1:0:0:0:
116,273,89423,1,10,0:0:0:0:
353,208,89595,1,2,0:0:0:0:
170,109,89768,1,2,1:0:0:0:
431,35,89940,5,6,0:0:0:0:
391,293,90113,1,10,0:0:0:0:
251,34,90285,1,2,0:0:0:0:
197,284,90457,5,6,0:0:0:0:
22,108,90630,1,2,1:0:0:0:
326,106,90802,37,10,0:0:0:0:
139,358,90975,1,2,1:0:0:0:
390,178,91147,6,0,P|457:203|417:310,1,166.529993139176,6|0,1:0|2:0,0:0:0:0:
388,334,91492,2,0,L|252:305,1,111.019995426117,10|0,0:0|0:0,0:0:0:0:
178,104,91837,5,2,0:0:0:0:
328,240,92009,1,2,1:0:0:0:
68,116,92181,1,10,0:0:0:0:
218,252,92353,1,2,0:0:0:0:
305,88,92526,38,0,L|419:77,1,111.019995426117,6|0,1:0|0:0,0:0:0:0:
439,210,92871,2,0,L|328:220,1,111.019995426117,10|0,0:0|0:0,0:0:0:0:
194,170,93216,6,0,P|134:206|122:238,1,74.0133302840781,12|0,0:0|2:0,0:0:0:0:
242,336,93446,2,0,P|302:300|310:239,1,74.0133302840781,12|0,0:0|2:0,0:0:0:0:
329,220,93676,2,0,P|310:181|279:163,1,74.0133302840781,12|0,0:0|2:0,0:0:0:0:
117,330,93906,6,0,P|56:300|60:185,1,166.529993139176,6|0,1:0|2:0,0:0:0:0:
82,135,94250,2,0,P|97:74|81:19,1,111.019995426117,10|0,0:0|0:0,0:0:0:0:
125,242,94595,37,2,0:0:0:0:
411,96,94768,1,2,1:0:0:0:
117,330,94940,1,10,0:0:0:0:
344,136,95113,1,2,0:0:0:0:
46,289,95285,1,2,1:0:0:0:
414,178,95457,5,6,0:0:0:0:
115,81,95630,1,10,0:0:0:0:
487,214,95802,1,2,0:0:0:0:
149,155,95975,5,2,0:0:0:0:
420,16,96147,1,2,1:0:0:0:
76,193,96319,1,10,0:0:0:0:
404,331,96492,1,2,1:0:0:0:
245,38,96664,38,0,B|234:98|234:98|242:151|242:151|218:235,1,166.529993139176,2|0,1:0|2:0,0:0:0:0:
204,277,97009,2,0,L|176:391,1,111.019995426117,10|0,0:0|0:0,0:0:0:0:
323,98,97354,5,2,0:0:0:0:
108,334,97526,1,2,1:0:0:0:
110,50,97699,1,10,0:0:0:0:
330,336,97871,1,2,0:0:0:0:
323,16,98044,1,2,1:0:0:0:
107,304,98216,5,6,0:0:0:0:
109,19,98388,1,10,0:0:0:0:
331,311,98561,1,2,0:0:0:0:
323,16,98733,37,6,1:0:0:0:
34,253,98906,1,2,1:0:0:0:
377,243,99078,6,0,P|429:209|353:188,1,166.529993139176,14|0,0:0|2:0,0:0:0:0:
292,214,99423,6,0,L|111:197,1,166.529993139176,6|0,1:0|2:0,0:0:0:0:
71,139,99768,2,0,P|100:90|173:90,1,111.019995426117,10|0,0:0|0:0,0:0:0:0:
324,357,100113,37,2,0:0:0:0:
253,29,100285,1,2,1:0:0:0:
191,357,100457,1,10,0:0:0:0:
348,47,100630,1,2,0:0:0:0:
445,355,100802,1,2,0:0:0:0:
159,49,100975,5,6,1:0:0:0:
47,357,101147,1,2,0:0:0:0:
253,29,101319,1,2,0:0:0:0:
448,361,101492,1,2,1:0:0:0:
45,102,101664,5,2,1:0:0:0:
451,102,101837,1,10,0:0:0:0:
254,357,102009,1,2,1:0:0:0:
178,161,102181,38,0,P|245:121|349:194,1,185.640001133057,6|8,1:0|0:0,0:0:0:0:
336,163,103044,1,2,1:0:0:0:
162,319,103216,2,0,L|63:301,1,92.8200005665283,14|0,0:0|0:0,0:0:0:0:
168,31,103561,6,0,L|175:120,1,46.4100002832642,12|8,0:0|0:0,0:0:0:0:
104,191,103733,1,0,1:0:0:0:
144,169,103819,1,0,1:0:0:0:
190,171,103905,1,0,1:0:0:0:
228,197,103991,1,0,1:0:0:0:
246,239,104078,2,0,P|284:280|301:286,1,46.4100002832642,12|8,0:0|0:0,0:0:0:0:
400,321,104250,1,0,1:0:0:0:
414,276,104336,1,0,1:0:0:0:
414,230,104422,1,0,1:0:0:0:
401,186,104508,1,0,1:0:0:0:
376,147,104595,22,0,B|339:57|339:57|390:98,1,139.230000849792,12|0,0:0|2:0,1:0:0:0:
376,147,104940,22,0,P|323:95|323:259,1,388.56998399141,4|0,1:3|2:0,0:0:0:0:
293,177,105630,6,0,L|225:163,1,55.5099977130586,10|0,0:0|0:0,0:0:0:0:
181,102,105802,2,0,L|126:113,1,55.5099977130586,2|0,0:2|0:2,0:2:0:0:
27,184,105975,2,0,L|95:198,1,55.5099977130586,2|0,0:0|0:0,0:0:0:0:
139,259,106147,2,0,L|193:247,1,55.5099977130586,2|0,0:2|0:2,0:2:0:0:
280,89,106319,6,0,P|338:72|362:77,1,55.5099977130586,2|0,1:0|0:0,0:0:0:0:
432,159,106492,2,0,P|374:142|350:147,1,55.5099977130586,2|0,0:0|0:0,0:0:0:0:
279,224,106664,2,0,P|337:207|361:212,1,55.5099977130586,2|0,0:0|0:0,0:0:0:0:
431,294,106837,2,0,P|373:277|349:282,1,55.5099977130586,2|0,0:0|0:0,0:0:0:0:
299,322,107009,2,0,L|234:327,1,55.5099977130586,10|0,0:0|0:0,0:0:0:0:
162,376,107181,2,0,L|106:372,1,55.5099977130586,2|0,0:0|0:0,0:0:0:0:
23,205,107354,38,0,L|205:193,1,166.529993139176,0|0,1:0|2:0,0:0:0:0:
264,250,107699,6,0,P|216:167|396:196,1,388.56998399141,4|0,1:0|2:0,0:0:0:0:
374,252,108388,6,0,P|365:286|368:338,1,55.5099977130586,10|0,0:0|0:0,0:0:0:0:
289,377,108561,2,0,P|286:349|278:322,1,55.5099977130586,2|0,0:0|0:0,0:0:0:0:
103,252,108733,2,0,P|112:286|109:338,1,55.5099977130586,2|0,0:0|0:0,0:0:0:0:
188,377,108906,2,0,P|190:349|198:322,1,55.5099977130586,2|0,0:0|0:0,0:0:0:0:
370,176,109078,38,0,P|361:210|364:262,1,55.5099977130586,2|0,1:0|0:0,0:0:0:0:
285,301,109251,2,0,P|282:273|274:246,1,55.5099977130586,2|0,0:0|0:0,0:0:0:0:
101,180,109423,2,0,P|110:214|107:266,1,55.5099977130586,2|0,0:0|0:0,0:0:0:0:
186,305,109596,2,0,P|188:277|196:250,1,55.5099977130586,2|0,0:0|0:0,0:0:0:0:
237,163,109768,6,0,B|234:33|234:33|200:81,1,166.529993139176,8|0,0:0|2:0,0:0:0:0:
299,117,110113,6,0,P|244:84|161:161,1,166.529993139176,0|0,1:0|2:0,0:0:0:0:
106,187,110457,38,0,P|182:70|368:209,1,388.56998399141,4|0,1:0|2:0,0:0:0:0:
341,245,111147,6,0,P|346:306|361:331,1,55.5099977130586,10|0,0:0|0:0,0:0:0:0:
217,371,111319,2,0,P|154:355|136:358,1,55.5099977130586,2|0,0:0|0:0,0:0:0:0:
103,241,111492,2,0,P|108:213|105:186,1,55.5099977130586,2|0,0:0|0:0,0:0:0:0:
232,111,111664,2,0,P|295:127|313:124,1,55.5099977130586,2|0,0:0|0:0,0:0:0:0:
323,266,111837,6,0,P|311:326|318:354,1,55.5099977130586,2|0,1:0|0:0,0:0:0:0:
169,353,112009,2,0,P|113:320|94:318,1,55.5099977130586,2|0,0:0|0:0,0:0:0:0:
95,196,112182,2,0,P|107:172|113:145,1,55.5099977130586,2|0,0:0|0:0,0:0:0:0:
255,107,112354,2,0,P|311:140|329:142,1,55.5099977130586,2|0,0:0|0:0,0:0:0:0:
323,266,112526,2,0,P|295:321|295:350,1,55.5099977130586,10|0,0:0|0:0,0:0:0:0:
169,353,112699,2,0,P|124:306|107:299,1,55.5099977130586,2|0,0:0|0:0,0:0:0:0:
215,210,112871,38,0,L|412:200,1,166.529993139176,0|0,1:0|2:0,0:0:0:0:
366,279,113216,6,0,P|309:230|446:247,1,388.56998399141,4|0,1:0|2:0,0:0:0:0:
442,317,113906,6,0,P|413:354|372:366,1,55.5099977130586,10|0,0:0|0:0,0:0:0:0:
258,316,114078,2,0,P|289:347|333:354,1,55.5099977130586,2|0,0:0|0:0,0:0:0:0:
381,201,114250,2,0,P|352:238|311:250,1,55.5099977130586,2|0,0:0|0:0,0:0:0:0:
197,200,114423,2,0,P|228:231|272:238,1,55.5099977130586,2|0,0:0|0:0,0:0:0:0:
260,119,114595,38,0,B|104:69|156:194|-11:131,1,261.170003985138,0|0,1:0|2:0,0:0:0:0:
68,52,115285,6,0,L|83:324,1,261.170003985138,8|0,0:0|2:0,0:0:0:0:
130,376,115975,6,0,P|109:289|324:299,1,388.56998399141,4|0,1:0|2:0,0:0:0:0:
376,352,116664,38,0,P|433:326|441:319,1,55.5099977130586,10|0,0:0|0:0,0:0:0:0:
460,181,116837,2,0,P|448:249|435:274,1,55.5099977130586,2|0,0:0|0:0,0:0:0:0:
366,263,117009,6,0,P|365:200|362:190,1,55.5099977130586,2|0,0:0|0:0,0:0:0:0:
243,116,117182,2,0,P|300:154|317:176,1,55.5099977130586,2|0,0:0|0:0,0:0:0:0:
281,233,117354,6,0,P|223:208|212:206,1,55.5099977130586,2|0,0:0|0:0,0:0:0:0:
95,284,117527,2,0,P|153:247|180:240,1,55.5099977130586,2|0,0:0|0:0,0:0:0:0:
206,117,117699,38,0,P|144:130|135:135,1,55.5099977130586,2|0,0:0|0:0,0:0:0:0:
85,267,117871,2,0,P|110:202|128:181,1,55.5099977130586,2|0,0:0|0:0,0:0:0:0:
87,72,118044,6,0,P|43:116|38:126,1,55.5099977130586,10|0,0:0|0:0,0:0:0:0:
67,263,118217,2,0,P|53:195|57:167,1,55.5099977130586,2|0,0:0|0:0,0:0:0:0:
186,38,118388,6,0,P|258:54|270:160,1,166.529993139176,0|0,1:0|2:0,0:0:0:0:
261,208,118733,38,0,P|303:138|353:302,1,388.56998399141,0|0,1:0|2:0,0:0:0:0:
282,340,119423,6,0,L|208:334,1,55.5099977130586,10|0,0:0|0:0,0:0:0:0:
109,281,119595,2,0,L|183:275,1,55.5099977130586,2|0,0:0|0:0,0:0:0:0:
261,208,119768,2,0,L|187:202,1,55.5099977130586,2|0,0:0|0:0,0:0:0:0:
88,149,119940,2,0,L|162:143,1,55.5099977130586,2|0,0:0|0:0,0:0:0:0:
258,59,120113,6,0,P|275:124|283:136,1,55.5099977130586,2|0,1:0|0:0,0:0:0:0:
396,84,120285,2,0,P|379:149|371:161,1,55.5099977130586,2|0,0:0|0:0,0:0:0:0:
261,208,120457,2,0,P|278:273|286:285,1,55.5099977130586,2|0,0:0|0:0,0:0:0:0:
399,233,120629,2,0,P|382:298|374:310,1,55.5099977130586,2|0,0:0|0:0,0:0:0:0:
275,352,120802,38,0,B|213:340|213:340|172:353|172:353|86:341,1,166.529993139176,8|0,0:0|2:0,0:0:0:0:
29,268,121147,6,0,B|91:256|91:256|132:269|132:269|218:257,1,166.529993139176,0|0,1:0|2:0,0:0:0:0:
261,208,121492,6,0,P|227:156|386:180,1,388.56998399141,0|0,1:0|2:0,0:0:0:0:
356,263,122181,38,0,L|423:275,1,55.5099977130586,10|0,0:0|0:0,0:0:0:0:
306,336,122354,2,0,L|239:348,1,55.5099977130586,2|0,0:0|0:0,0:0:0:0:
213,238,122526,2,0,L|280:250,1,55.5099977130586,2|0,0:0|0:0,0:0:0:0:
163,311,122699,2,0,L|96:323,1,55.5099977130586,2|0,0:0|0:0,0:0:0:0:
119,215,122871,6,0,P|98:158|90:145,1,55.5099977130586,2|0,1:0|0:0,0:0:0:0:
195,149,123044,2,0,P|216:92|224:79,1,55.5099977130586,2|0,0:0|0:0,0:0:0:0:
18,158,123216,2,0,P|-3:101|-11:88,1,55.5099977130586,2|0,0:0|0:0,0:0:0:0:
125,81,123389,2,0,P|146:24|154:11,1,55.5099977130586,2|0,0:0|0:0,0:0:0:0:
299,80,123561,2,0,P|278:23|270:10,1,55.5099977130586,10|0,0:0|0:0,0:0:0:0:
395,146,123733,2,0,P|416:89|424:76,1,55.5099977130586,2|0,0:0|0:0,0:0:0:0:
463,242,123906,6,0,P|380:231|313:302,1,166.529993139176,0|0,1:0|2:0,0:0:0:0:
280,348,124250,38,0,L|152:340,1,111.019995426117,10|0,0:0|0:0,0:0:0:0:
407,320,124595,1,0,0:0:0:0:
236,250,124768,6,0,L|125:256,1,111.019995426117,2|8,0:0|0:0,0:0:0:0:
376,192,125113,1,0,0:0:0:0:
191,169,125285,6,0,L|80:162,1,111.019995426117,2|0,1:0|0:0,0:0:0:0:
331,107,125630,6,0,P|430:117|320:277,1,371.280002266113,6|8,1:3|0:0,0:0:0:0:
146,41,127009,5,4,1:3:0:0:
