osu file format v14

[General]
AudioFilename: audio.mp3
AudioLeadIn: 0
PreviewTime: 59164
Countdown: 0
SampleSet: None
StackLeniency: 0.7
Mode: 0
LetterboxInBreaks: 0
WidescreenStoryboard: 1

[Editor]
Bookmarks: 60802,127009
DistanceSpacing: 1.3
BeatDivisor: 4
GridSize: 4
TimelineZoom: 1.5

[Metadata]
Title:Holdin On (Skrillex and Nero Remix)
TitleUnicode:Holdin On (Skrillex and Nero Remix)
Artist:I SEE MONSTAS
ArtistUnicode:I SEE MONSTAS
Creator:Sotarks
Version:Expert
Source:
Tags:Hobbes2 Kin Akitoshi Corinn dubstep
BeatmapID:1484989
BeatmapSetID:701330

[Difficulty]
HPDrainRate:6
CircleSize:3.5
OverallDifficulty:8.7
ApproachRate:9
SliderMultiplier:1.82
SliderTickRate:1

[Events]
//Background and Video events
0,0,"monsta.jpg",0,0
//Break Periods
2,55485,59423
//Storyboard Layer 0 (Background)
//Storyboard Layer 1 (Fail)
//Storyboard Layer 2 (Pass)
//Storyboard Layer 3 (Foreground)
//Storyboard Sound Samples

[TimingPoints]
113,344.827586206897,4,3,22,62,1,0
22181,-161.290322580645,4,3,22,62,0,0
49768,-121.951219512195,4,3,22,62,0,0
60802,-81.9672131147541,4,3,22,82,0,0
102181,-98.0392156862745,4,3,22,82,0,0
104940,-81.9672131147541,4,3,22,82,0,0
114595,-121.951219512195,4,3,22,82,0,0
115975,-81.9672131147541,4,3,22,62,0,0
125630,-98.0392156862745,4,3,22,82,0,0

[Colours]
Combo1 : 130,133,152
Combo2 : 219,13,0
Combo3 : 155,27,55
Combo4 : 252,65,46
Combo5 : 104,77,94

[HitObjects]
85,203,21492,53,8,0:0:0:0:
163,174,21664,1,0,1:0:0:0:
244,149,21837,1,0,1:0:0:0:
244,149,22181,6,0,L|233:326,1,169.259993284973,6|0,1:0|2:0,0:0:0:0:
185,93,22871,1,10,0:0:0:0:
141,165,23044,2,0,P|216:170|254:137,2,112.839995523316,2|2|2,2:0|2:0|2:0,0:0:0:0:
83,100,23906,2,0,P|41:95|21:103,1,56.4199977616578,0|2,1:0|2:0,0:0:0:0:
72,327,24250,1,8,0:0:0:0:
56,241,24423,2,0,L|43:163,2,56.4199977616578,0|2|2,1:0|2:0|2:0,0:0:0:0:
234,334,24940,54,0,B|298:323|298:323|320:287|320:287|401:272,1,169.259993284973,4|0,1:0|2:0,0:0:0:0:
447,342,25630,2,0,P|399:305|396:136,1,225.679991046631,8|0,0:0|0:0,0:0:0:0:
225,227,26664,2,0,P|186:232|157:229,1,56.4199977616578,0|0,1:0|2:0,0:0:0:0:
85,73,27009,1,8,0:0:0:0:
163,28,27181,2,0,L|172:159,1,112.839995523316,0|8,1:0|0:0,0:0:0:0:
65,246,27699,6,0,P|95:227|189:246,1,112.839995523316,4|2,1:0|0:0,0:0:0:0:
225,308,28216,1,2,2:0:0:0:
343,204,28388,2,0,P|334:168|330:134,1,56.4199977616578,8|2,0:0|2:0,0:0:0:0:
324,123,28906,54,0,P|322:175|290:251,1,112.839995523316,2|2,0:0|2:0,0:0:0:0:
231,327,29423,2,0,L|225:255,1,56.4199977616578,0|2,1:0|2:0,0:0:0:0:
210,46,29768,1,8,0:0:0:0:
217,135,29940,2,0,L|222:192,2,56.4199977616578,0|2|2,1:0|2:0|2:0,0:0:0:0:
348,41,30457,6,0,B|113:51,1,225.679991046631,4|8,1:0|0:0,0:0:0:0:
91,324,31664,1,2,2:0:0:0:
148,259,31837,2,0,L|120:196,1,56.4199977616578,2|0,0:0|0:0,0:0:0:0:
236,266,32181,2,0,L|261:317,1,56.4199977616578,2|0,1:0|0:0,0:0:0:0:
244,96,32526,53,10,0:0:0:0:
124,209,32699,1,2,1:0:0:0:
187,153,32871,1,2,0:0:0:0:
116,103,33044,1,10,0:0:0:0:
253,204,33216,6,0,B|357:249|357:249|432:237,1,169.259993284973,4|2,1:0|2:0,0:0:0:0:
276,341,33906,2,0,B|256:296|256:296|215:272,2,84.6299966424867,10|2|2,0:0|2:0|2:0,0:0:0:0:
276,341,34768,53,2,0:0:0:0:
215,157,34940,1,0,1:0:0:0:
363,321,35285,5,10,0:0:0:0:
416,249,35457,2,0,P|396:182|383:120,1,112.839995523316,2|2,1:0|2:0,0:0:0:0:
284,49,35975,54,0,B|187:54|248:124|130:129,1,169.259993284973,4|0,1:0|2:0,0:0:0:0:
30,257,36664,2,0,P|171:217|268:314,1,282.099988808289,8|0,0:0|2:0,0:0:0:0:
436,209,37699,2,0,L|374:235,1,56.4199977616578,2|0,1:0|2:0,0:0:0:0:
223,138,38044,1,8,0:0:0:0:
294,182,38216,2,0,L|402:140,1,112.839995523316,0|8,1:0|0:0,0:0:0:0:
153,81,38733,6,0,P|132:128|137:167,2,84.6299966424867,6|2|2,1:0|2:0|2:0,0:0:0:0:
194,224,39423,2,0,P|214:262|213:304,2,84.6299966424867,10|2|2,0:0|2:0|2:0,0:0:0:0:
371,341,40113,2,0,P|410:332|446:294,1,84.6299966424867,2|0,0:0|0:0,0:0:0:0:
458,225,40457,2,0,L|451:147,1,56.4199977616578,0|0,1:0|0:0,0:0:0:0:
414,69,40802,1,10,0:0:0:0:
371,147,40975,2,0,L|313:155,1,56.4199977616578,2|0,1:0|2:0,0:0:0:0:
230,126,41492,54,0,B|306:121|306:121|372:149|372:149|466:139,2,225.679991046631,4|8|0,1:0|0:0|0:0,0:0:0:0:
89,298,43216,1,2,1:0:0:0:
142,50,43561,1,8,0:0:0:0:
72,124,43733,1,2,1:0:0:0:
72,124,43906,2,0,P|88:177|89:194,1,56.4199977616578,2|8,0:0|0:0,0:0:0:0:
198,287,44250,6,0,P|196:239|214:187,1,84.6299966424867,6|2,1:0|2:0,0:0:0:0:
260,151,44595,2,0,L|316:156,1,56.4199977616578,0|0,2:0|2:0,0:0:0:0:
427,252,44940,2,0,L|306:264,1,112.839995523316,2|0,0:0|2:0,0:0:0:0:
217,296,45457,1,2,2:0:0:0:
113,174,45630,54,0,P|132:218|109:270,1,84.6299966424867,2|2,0:0|2:0,0:0:0:0:
55,218,45975,2,0,L|52:145,1,56.4199977616578,2|0,2:0|2:0,0:0:0:0:
143,48,46319,2,0,L|156:173,1,112.839995523316,2|0,0:0|2:0,0:0:0:0:
222,227,46837,1,2,2:0:0:0:
294,98,47009,6,0,P|335:88|391:111,1,84.6299966424867,2|2,0:0|2:0,0:0:0:0:
431,152,47354,2,0,P|429:190|432:211,1,56.4199977616578,2|0,2:0|2:0,0:0:0:0:
358,320,47699,2,0,P|361:292|359:264,1,56.4199977616578,2|0,0:0|2:0,0:0:0:0:
333,171,48044,1,2,0:0:0:0:
333,171,48216,1,2,0:0:0:0:
264,244,48388,54,0,L|146:254,1,112.839995523316,2|0,0:0|2:0,0:0:0:0:
66,188,48906,1,0,0:0:0:0:
66,188,49078,2,0,L|61:128,2,56.4199977616578,0|0|0,0:0|0:0|0:0,0:0:0:0:
76,284,49595,1,2,0:0:0:0:
168,18,49768,6,0,L|255:14,1,74.6200011386109,2|0,1:0|0:0,0:0:0:0:
388,51,50113,2,0,L|292:38,1,74.6200011386109,2|0,1:0|0:0,0:0:0:0:
136,117,50457,2,0,L|220:91,1,74.6200011386109,2|0,1:0|0:0,0:0:0:0:
405,152,50802,2,0,L|328:122,1,74.6200011386109,0|2,1:0|0:0,0:0:0:0:
155,234,51147,54,0,L|214:170,1,74.6200011386109,2|0,1:0|0:0,0:0:0:0:
388,273,51492,2,0,L|335:204,1,74.6200011386109,2|0,1:0|0:0,0:0:0:0:
209,329,51837,2,0,L|238:261,1,74.6200011386109,2|0,1:0|0:0,0:0:0:0:
339,369,52181,2,0,L|307:294,1,74.6200011386109,2|0,1:0|0:0,0:0:0:0:
159,237,52526,5,2,1:0:0:0:
309,300,52699,1,0,1:0:0:0:
203,172,52871,1,0,1:0:0:0:
353,236,53044,1,0,1:0:0:0:
251,104,53216,1,0,1:0:0:0:
398,170,53388,1,0,1:0:0:0:
300,36,53561,1,0,1:0:0:0:
445,105,53733,1,0,1:0:0:0:
203,172,53906,53,2,1:0:0:0:
300,36,54078,1,0,1:0:0:0:
353,236,54250,1,0,1:0:0:0:
445,105,54423,1,0,1:0:0:0:
212,52,54595,6,0,L|219:101,3,37.3100005693054,0|0|0|0,1:0|1:0|1:0|1:0,0:0:0:0:
126,128,54940,2,0,L|132:92,3,37.3100005693054,0|0|0|0,1:0|1:0|1:0|1:0,0:0:0:0:
203,172,55285,53,2,0:0:0:0:
416,124,60802,22,0,B|303:131|388:189|248:201,1,166.529993139176,6|0,1:0|2:0,0:0:0:0:
275,197,61147,2,0,P|212:169|161:182,1,111.019995426117,10|0,0:0|0:0,0:0:0:0:
274,95,61492,5,2,0:0:0:0:
409,207,61664,1,2,1:0:0:0:
212,259,61837,1,10,0:0:0:0:
275,88,62009,1,2,0:0:0:0:
417,216,62181,1,2,1:0:0:0:
161,174,62354,5,6,0:0:0:0:
290,83,62526,1,10,0:0:0:0:
205,268,62699,1,2,0:0:0:0:
352,150,62871,37,6,0:0:0:0:
246,352,63044,1,2,1:0:0:0:
282,210,63216,5,10,0:0:0:0:
246,352,63388,1,2,1:0:0:0:
161,174,63561,6,0,P|83:183|38:285,1,166.529993139176,6|0,1:0|2:0,0:0:0:0:
36,251,63906,2,0,L|28:135,1,111.019995426117,10|0,0:0|0:0,0:0:0:0:
132,269,64250,37,2,0:0:0:0:
175,85,64423,1,2,1:0:0:0:
131,279,64595,1,10,0:0:0:0:
28,129,64768,1,2,0:0:0:0:
128,291,64940,1,2,1:0:0:0:
176,74,65113,6,0,L|242:67,1,55.5099977130586,6|0,0:0|0:0,0:0:0:0:
312,158,65285,2,0,L|183:170,1,111.019995426117,10|2,0:0|0:0,0:0:0:0:
315,60,65630,6,0,L|381:53,1,55.5099977130586,6|0,1:3|0:0,0:0:0:0:
450,141,65802,2,0,L|394:146,1,55.5099977130586,6|0,1:0|0:0,0:0:0:0:
313,246,65975,37,10,0:0:0:0:
315,60,66147,1,2,1:0:0:0:
313,246,66319,6,0,B|246:340|246:340|176:328,1,166.529993139176,6|0,1:0|2:0,0:0:0:0:
195,331,66664,2,0,P|159:280|94:274,1,111.019995426117,10|0,0:0|0:0,0:0:0:0:
232,177,67009,5,2,0:0:0:0:
114,359,67181,1,2,1:0:0:0:
114,177,67354,1,10,0:0:0:0:
114,359,67526,1,2,0:0:0:0:
236,167,67699,1,2,1:0:0:0:
24,184,67871,37,6,0:0:0:0:
202,86,68044,1,10,0:0:0:0:
272,244,68216,1,2,0:0:0:0:
114,177,68388,5,6,0:0:0:0:
256,21,68561,1,2,1:0:0:0:
272,244,68733,5,10,0:0:0:0:
202,86,68906,1,2,1:0:0:0:
218,313,69078,38,0,P|286:331|354:260,1,166.529993139176,6|0,1:0|2:0,0:0:0:0:
351,270,69423,2,0,L|363:141,1,111.019995426117,10|0,0:0|0:0,0:0:0:0:
432,301,69768,5,2,0:0:0:0:
272,244,69940,1,2,1:0:0:0:
438,197,70113,1,10,0:0:0:0:
288,130,70285,1,2,0:0:0:0:
462,56,70457,6,0,B|386:81|386:81|232:17,1,222.039990852234,14|0,0:0|1:0,0:0:0:0:
94,182,70975,2,0,P|189:114|307:142,1,222.039990852234,14|0,0:0|1:0,0:0:0:0:
400,272,71492,2,0,P|352:235|417:166,1,166.529993139176,14|0,0:0|0:0,0:0:0:0:
485,172,71837,38,0,L|499:391,1,166.529993139176,6|0,1:0|2:0,0:0:0:0:
495,338,72181,2,0,B|430:373|430:373|371:360,1,111.019995426117,10|0,0:0|0:0,0:0:0:0:
230,283,72526,5,2,0:0:0:0:
400,272,72699,1,2,1:0:0:0:
216,199,72871,1,10,0:0:0:0:
242,368,73044,1,2,0:0:0:0:
311,241,73216,1,2,1:0:0:0:
134,162,73388,5,6,0:0:0:0:
148,336,73561,1,10,0:0:0:0:
216,199,73733,1,2,0:0:0:0:
242,368,73906,37,6,0:0:0:0:
134,162,74078,1,2,1:0:0:0:
311,241,74250,5,10,0:0:0:0:
200,82,74423,1,2,1:0:0:0:
57,243,74595,6,0,P|25:182|65:75,1,166.529993139176,6|0,1:0|2:0,0:0:0:0:
48,91,74940,2,0,B|91:32|91:32|144:27,1,111.019995426117,10|0,0:0|0:0,0:0:0:0:
279,146,75285,37,2,0:0:0:0:
134,162,75457,1,2,1:0:0:0:
321,216,75630,1,10,0:0:0:0:
169,152,75802,1,2,0:0:0:0:
363,286,75975,1,2,1:0:0:0:
337,82,76147,6,0,P|374:140|390:154,1,55.5099977130586,6|0,0:0|0:0,0:0:0:0:
435,199,76319,1,10,0:0:0:0:
302,348,76492,1,2,0:0:0:0:
253,117,76664,6,0,P|290:175|306:189,1,55.5099977130586,6|0,1:0|0:0,0:0:0:0:
335,238,76837,2,0,P|350:260|362:285,1,55.5099977130586,6|0,1:0|0:0,0:0:0:0:
435,199,77009,37,10,0:0:0:0:
302,348,77181,1,2,1:0:0:0:
364,129,77354,6,0,L|174:120,1,166.529993139176,6|0,1:0|2:0,0:0:0:0:
197,121,77699,2,0,P|162:178|173:244,1,111.019995426117,10|0,0:0|0:0,0:0:0:0:
131,60,78044,5,2,0:0:0:0:
247,199,78216,1,2,1:0:0:0:
305,41,78388,1,10,0:0:0:0:
325,232,78561,1,2,0:0:0:0:
197,121,78733,1,2,1:0:0:0:
146,323,78906,37,6,0:0:0:0:
356,313,79078,1,10,0:0:0:0:
163,220,79250,1,2,0:0:0:0:
373,158,79423,1,6,0:0:0:0:
254,322,79595,1,2,1:0:0:0:
105,158,79768,1,10,0:0:0:0:
325,232,79940,1,2,1:0:0:0:
37,224,80113,6,0,P|11:152|77:65,1,166.529993139176,6|0,1:0|2:0,0:0:0:0:
52,77,80457,2,0,P|128:66|174:94,1,111.019995426117,10|0,0:0|0:0,0:0:0:0:
182,256,80802,1,2,0:0:0:0:
246,71,80975,1,2,1:0:0:0:
105,158,81147,1,10,0:0:0:0:
310,171,81319,1,2,0:0:0:0:
243,340,81492,6,0,P|296:287|442:318,1,222.039990852234,6|10,1:0|0:0,0:0:0:0:
203,86,82354,1,12,0:0:0:0:
415,174,82526,2,0,P|345:158|291:185,1,111.019995426117,12|0,0:0|0:0,0:0:0:0:
106,254,82871,38,0,P|198:227|286:293,1,166.529993139176,4|0,1:0|2:0,0:0:0:0:
258,255,83216,2,0,P|330:271|369:247,1,111.019995426117,8|0,0:0|0:0,0:0:0:0:
324,117,83561,6,0,P|309:179|310:191,2,55.5099977130586,2|2|2,0:0|0:0|1:0,0:0:0:0:
171,128,83906,1,10,0:0:0:0:
407,112,84078,1,2,0:0:0:0:
241,68,84250,1,2,1:0:0:0:
418,194,84423,5,6,0:0:0:0:
400,29,84595,1,10,0:0:0:0:
440,218,84768,1,2,0:0:0:0:
319,118,84940,37,6,0:0:0:0:
278,287,85113,1,2,1:0:0:0:
414,114,85285,5,10,0:0:0:0:
226,120,85457,1,2,1:0:0:0:
366,228,85630,6,0,B|279:195|279:195|179:238,1,166.529993139176,6|0,1:0|2:0,0:0:0:0:
211,224,85975,2,0,P|147:258|91:240,1,111.019995426117,10|0,0:0|0:0,0:0:0:0:
278,287,86319,37,2,0:0:0:0:
145,170,86492,1,2,1:0:0:0:
79,326,86664,1,10,0:0:0:0:
147,158,86837,1,2,0:0:0:0:
286,296,87009,1,2,1:0:0:0:
112,252,87181,6,0,L|37:240,1,55.5099977130586,6|0,0:0|0:0,0:0:0:0:
57,149,87354,1,10,0:0:0:0:
211,224,87526,1,2,0:0:0:0:
174,346,87699,6,0,L|99:334,1,55.5099977130586,6|0,1:0|0:0,0:0:0:0:
57,243,87871,2,0,L|111:251,1,55.5099977130586,6|0,1:0|0:0,0:0:0:0:
230,217,88044,37,10,0:0:0:0:
57,149,88216,1,0,1:0:0:0:
285,142,88388,6,0,P|324:206|282:301,1,166.529993139176,6|0,1:0|2:0,0:0:0:0:
297,288,88733,2,0,P|364:276|421:322,1,111.019995426117,10|0,0:0|0:0,0:0:0:0:
230,217,89078,6,0,P|174:236|165:247,2,55.5099977130586,2|2|2,0:0|0:0|1:0,0:0:0:0:
346,360,89423,1,10,0:0:0:0:
288,148,89595,1,2,0:0:0:0:
256,301,89768,1,2,1:0:0:0:
195,142,89940,37,6,0:0:0:0:
104,261,90113,1,10,0:0:0:0:
322,227,90285,1,2,0:0:0:0:
182,134,90457,5,6,0:0:0:0:
87,270,90630,1,2,1:0:0:0:
343,232,90802,5,10,0:0:0:0:
72,281,90975,1,2,1:0:0:0:
169,125,91147,38,0,B|227:212|227:212|189:321,1,166.529993139176,6|0,1:0|2:0,0:0:0:0:
206,270,91492,2,0,B|182:344|182:344|230:367,1,111.019995426117,10|0,0:0|0:0,0:0:0:0:
104,277,91837,5,2,0:0:0:0:
293,264,92009,1,2,1:0:0:0:
114,193,92181,1,10,0:0:0:0:
309,180,92354,1,2,0:0:0:0:
124,103,92526,6,0,P|198:39|265:75,1,166.529993139176,6|0,1:0|0:0,0:0:0:0:
252,60,92871,2,0,L|390:54,1,111.019995426117,10|0,0:0|0:0,0:0:0:0:
446,180,93216,2,0,L|435:332,2,148.026660568156,12|12|12,0:0|0:0|0:0,0:0:0:0:
294,242,93906,38,0,B|195:262|239:201|105:247,1,166.529993139176,6|0,1:0|2:0,0:0:0:0:
131,238,94250,2,0,L|118:108,1,111.019995426117,10|0,0:0|0:0,0:0:0:0:
176,317,94595,5,2,0:0:0:0:
259,153,94768,1,2,1:0:0:0:
324,317,94940,1,10,0:0:0:0:
228,75,95113,1,2,0:0:0:0:
217,230,95285,1,2,1:0:0:0:
298,26,95457,5,6,0:0:0:0:
367,233,95630,1,10,0:0:0:0:
211,66,95802,1,2,0:0:0:0:
429,17,95975,1,2,0:0:0:0:
289,181,96147,37,2,1:0:0:0:
467,292,96319,1,10,0:0:0:0:
357,102,96492,1,2,1:0:0:0:
280,333,96664,6,0,B|158:336|158:336|106:302,1,166.529993139176,2|0,1:0|2:0,0:0:0:0:
120,311,97009,2,0,P|127:239|87:175,1,111.019995426117,10|0,0:0|0:0,0:0:0:0:
236,249,97354,5,2,0:0:0:0:
40,262,97526,1,2,1:0:0:0:
240,163,97699,1,10,0:0:0:0:
26,129,97871,1,2,0:0:0:0:
275,143,98044,1,2,1:0:0:0:
107,22,98216,37,6,0:0:0:0:
138,258,98388,1,10,0:0:0:0:
254,47,98561,1,2,0:0:0:0:
304,262,98733,1,6,1:0:0:0:
351,58,98906,1,2,1:0:0:0:
163,154,99078,6,0,P|233:133|355:174,1,166.529993139176,14|0,0:0|2:0,0:0:0:0:
377,232,99423,6,0,P|356:160|428:146,1,166.529993139176,6|0,1:0|2:0,0:0:0:0:
428,146,99768,2,0,B|454:198|454:198|459:268,1,111.019995426117,10|0,0:0|0:0,0:0:0:0:
258,97,100113,37,2,0:0:0:0:
366,303,100285,1,2,1:0:0:0:
348,112,100457,1,10,0:0:0:0:
263,337,100630,1,2,0:0:0:0:
426,231,100802,1,2,0:0:0:0:
200,165,100975,5,6,1:0:0:0:
431,78,101147,1,2,0:0:0:0:
292,254,101319,1,2,0:0:0:0:
146,74,101492,1,2,1:0:0:0:
379,150,101664,5,2,1:0:0:0:
212,318,101837,1,10,0:0:0:0:
241,69,102009,1,2,1:0:0:0:
380,258,102181,6,0,B|293:257|293:257|182:184,1,185.640001133057,6|8,1:0|0:0,0:0:0:0:
29,350,103044,1,2,1:0:0:0:
81,263,103216,2,0,L|65:164,1,92.8200005665283,14|0,0:0|0:0,0:0:0:0:
175,33,103561,6,0,L|186:116,1,46.4100002832642,12|8,0:0|0:0,0:0:0:0:
271,152,103733,2,0,L|277:105,3,46.4100002832642,0|0|0|0,1:0|1:0|1:0|1:0,0:0:0:0:
368,23,104078,2,0,L|379:106,1,46.4100002832642,12|8,0:0|0:0,0:0:0:0:
464,142,104250,2,0,L|470:95,3,46.4100002832642,0|0|0|0,1:0|1:0|1:0|1:0,0:0:0:0:
447,253,104595,1,12,0:0:0:0:
447,253,104940,6,0,P|383:183|399:340,1,388.56998399141,4|0,1:3|2:0,0:0:0:0:
365,265,105630,6,0,L|294:253,1,55.5099977130586,10|0,0:0|0:0,0:0:0:0:
229,283,105802,2,0,L|174:292,1,55.5099977130586,2|0,0:2|0:2,0:0:0:0:
51,169,105975,2,0,L|122:157,1,55.5099977130586,2|0,0:0|0:0,0:0:0:0:
187,191,106147,2,0,L|241:200,1,55.5099977130586,2|0,0:2|0:2,0:0:0:0:
370,71,106319,6,0,L|299:59,1,55.5099977130586,2|0,1:0|0:0,0:0:0:0:
234,93,106491,2,0,L|179:102,1,55.5099977130586,2|0,0:0|0:0,0:0:0:0:
325,155,106664,2,0,L|411:178,1,55.5099977130586,2|0,0:0|0:0,0:0:0:0:
449,247,106837,2,0,L|363:270,1,55.5099977130586,2|0,0:0|0:0,0:0:0:0:
331,335,107009,2,0,L|277:320,1,55.5099977130586,10|0,0:0|0:0,0:0:0:0:
193,280,107181,2,0,L|139:294,1,55.5099977130586,2|0,0:0|0:0,0:0:0:0:
65,354,107354,38,0,L|51:177,1,166.529993139176,0|0,1:0|2:0,0:0:0:0:
51,187,107699,6,0,P|29:115|237:131,1,388.56998399141,4|0,1:0|2:0,0:0:0:0:
209,205,108388,6,0,P|271:198|281:189,1,55.5099977130586,10|0,0:0|0:0,0:0:0:0:
323,135,108561,2,0,P|349:128|376:133,1,55.5099977130586,2|0,0:0|0:0,0:0:0:0:
438,219,108733,2,0,P|376:226|366:235,1,55.5099977130586,2|0,0:0|0:0,0:0:0:0:
324,289,108906,2,0,P|297:295|270:290,1,55.5099977130586,2|0,0:0|0:0,0:0:0:0:
209,205,109078,38,0,P|147:212|137:221,1,55.5099977130586,2|0,1:0|0:0,0:0:0:0:
95,275,109251,2,0,P|68:281|41:276,1,55.5099977130586,2|0,0:0|0:0,0:0:0:0:
70,169,109423,2,0,L|72:106,1,55.5099977130586,2|0,0:0|0:0,0:0:0:0:
163,36,109595,2,0,L|164:91,1,55.5099977130586,2|0,0:0|0:0,0:0:0:0:
209,205,109768,6,0,P|247:134|368:140,1,166.529993139176,8|0,0:0|2:0,0:0:0:0:
398,154,110113,2,0,L|393:329,1,166.529993139176,0|0,1:0|2:0,0:0:0:0:
393,320,110457,6,0,P|395:209|271:336,1,388.56998399141,4|0,1:0|2:0,0:0:0:0:
320,263,111147,2,0,P|288:212|280:207,1,55.5099977130586,10|0,0:0|0:0,0:0:0:0:
205,174,111319,2,0,P|187:152|177:126,1,55.5099977130586,2|0,0:0|0:0,0:0:0:0:
245,57,111492,2,0,P|277:108|285:113,1,55.5099977130586,2|0,0:0|0:0,0:0:0:0:
360,146,111664,2,0,P|377:167|387:193,1,55.5099977130586,2|0,0:0|0:0,0:0:0:0:
324,284,111837,38,0,P|292:233|284:228,1,55.5099977130586,2|0,1:0|0:0,0:0:0:0:
209,195,112009,2,0,P|191:173|181:147,1,55.5099977130586,2|0,0:0|0:0,0:0:0:0:
249,78,112182,2,0,P|281:129|289:134,1,55.5099977130586,2|0,0:0|0:0,0:0:0:0:
364,167,112354,2,0,P|381:188|391:214,1,55.5099977130586,2|0,0:0|0:0,0:0:0:0:
402,329,112526,2,0,P|347:366|330:366,1,55.5099977130586,10|0,0:0|0:0,0:0:0:0:
266,358,112699,2,0,P|241:344|223:323,1,55.5099977130586,2|0,0:0|0:0,0:0:0:0:
157,245,112871,6,0,P|88:252|40:344,1,166.529993139176,0|0,1:0|2:0,0:0:0:0:
39,329,113216,6,0,P|-2:229|214:170,1,388.56998399141,4|0,1:0|2:0,0:0:0:0:
264,218,113906,38,0,P|276:254|276:278,1,55.5099977130586,10|0,0:0|0:0,0:0:0:0:
350,341,114078,2,0,P|414:334|421:336,1,55.5099977130586,2|0,0:0|0:0,0:0:0:0:
438,254,114250,2,0,P|440:226|450:200,1,55.5099977130586,2|0,0:0|0:0,0:0:0:0:
377,138,114423,2,0,P|350:146|322:146,1,55.5099977130586,2|0,0:0|0:0,0:0:0:0:
234,76,114595,6,0,B|175:56|121:118|121:118|65:179|-21:134,1,261.170003985138,0|0,1:0|2:0,0:0:0:0:
49,65,115285,6,0,B|82:95|82:95|128:179|115:247|44:313,1,261.170003985138,8|0,0:0|2:0,0:0:0:0:
62,294,115975,38,0,P|144:199|348:335,1,388.56998399141,4|0,1:0|2:0,0:0:0:0:
430,343,116664,6,0,P|428:274|430:260,1,55.5099977130586,10|0,0:0|0:0,0:0:0:0:
455,204,116837,2,0,P|458:176|458:148,1,55.5099977130586,2|0,0:0|0:0,0:0:0:0:
418,68,117009,2,0,P|369:41|361:39,1,55.5099977130586,2|0,0:0|0:0,0:0:0:0:
279,36,117181,2,0,P|253:46|230:62,1,55.5099977130586,2|0,0:0|0:0,0:0:0:0:
162,135,117354,6,0,L|222:146,1,55.5099977130586,2|0,0:0|0:0,0:0:0:0:
288,217,117526,2,0,L|228:228,1,55.5099977130586,2|0,0:0|0:0,0:0:0:0:
99,256,117699,2,0,L|159:267,1,55.5099977130586,2|0,0:0|0:0,0:0:0:0:
225,338,117871,2,0,L|165:349,1,55.5099977130586,2|0,0:0|0:0,0:0:0:0:
53,344,118044,2,0,P|15:295|15:286,1,55.5099977130586,10|0,0:0|0:0,0:0:0:0:
7,214,118216,2,0,P|20:189|43:174,1,55.5099977130586,2|0,0:0|0:0,0:0:0:0:
146,157,118388,38,0,B|206:174|206:174|245:161|245:161|331:179,1,166.529993139176,0|0,1:0|2:0,0:0:0:0:
306,173,118733,6,0,P|304:108|408:220,1,388.56998399141,0|0,1:0|2:0,0:0:0:0:
353,245,119423,6,0,P|362:302|369:313,1,55.5099977130586,10|0,0:0|0:0,0:0:0:0:
259,329,119595,2,0,P|267:302|266:274,1,55.5099977130586,2|0,0:0|0:0,0:0:0:0:
205,204,119768,2,0,L|148:209,1,55.5099977130586,2|0,0:0|0:0,0:0:0:0:
88,288,119940,2,0,L|145:293,1,55.5099977130586,2|0,0:0|0:0,0:0:0:0:
55,195,120113,38,0,P|64:168|63:140,1,55.5099977130586,2|0,1:0|0:0,0:0:0:0:
142,73,120285,2,0,P|141:101|149:128,1,55.5099977130586,2|0,0:0|0:0,0:0:0:0:
242,83,120457,2,0,L|308:81,1,55.5099977130586,2|0,0:0|0:0,0:0:0:0:
353,164,120630,2,0,L|287:162,1,55.5099977130586,2|0,0:0|0:0,0:0:0:0:
388,84,120802,6,0,P|439:138|391:250,1,166.529993139176,8|0,0:0|2:0,0:0:0:0:
378,291,121147,6,0,B|270:272|329:347|168:308,1,166.529993139176,0|0,1:0|2:0,0:0:0:0:
218,317,121492,38,0,P|245:241|86:315,1,388.56998399141,0|0,1:0|2:0,0:0:0:0:
153,250,122181,6,0,L|169:187,1,55.5099977130586,10|0,0:0|0:0,0:0:0:0:
215,86,122354,2,0,L|228:139,1,55.5099977130586,2|0,0:0|0:0,0:0:0:0:
248,270,122526,2,0,L|264:207,1,55.5099977130586,2|0,0:0|0:0,0:0:0:0:
310,106,122699,2,0,L|323:159,1,55.5099977130586,2|0,0:0|0:0,0:0:0:0:
357,260,122871,6,0,P|417:257|429:252,1,55.5099977130586,2|0,1:0|0:0,0:0:0:0:
463,176,123044,2,0,P|403:173|391:168,1,55.5099977130586,2|0,0:0|0:0,0:0:0:0:
310,106,123216,2,0,P|370:103|382:98,1,55.5099977130586,2|0,0:0|0:0,0:0:0:0:
416,22,123389,2,0,P|356:19|344:14,1,55.5099977130586,2|0,0:0|0:0,0:0:0:0:
254,27,123561,2,0,P|190:42|167:40,1,55.5099977130586,10|0,0:0|0:0,0:0:0:0:
99,29,123733,2,0,P|71:33|45:43,1,55.5099977130586,2|0,0:0|0:0,0:0:0:0:
26,140,123906,38,0,P|106:118|191:194,1,166.529993139176,0|0,1:0|2:0,0:0:0:0:
211,231,124250,6,0,L|332:220,1,111.019995426117,10|0,0:0|0:0,0:0:0:0:
444,324,124595,1,0,0:0:0:0:
444,324,124768,2,0,L|323:313,1,111.019995426117,2|8,0:0|0:0,0:0:0:0:
315,140,125113,1,0,0:0:0:0:
315,140,125286,2,0,L|436:129,1,111.019995426117,2|0,1:0|0:0,0:0:0:0:
216,36,125630,38,0,P|119:52|109:286,1,371.280002266113,6|8,1:3|0:0,0:0:0:0:
410,36,127009,1,4,1:3:0:0:
