osu file format v14

[General]
AudioFilename: audio.mp3
AudioLeadIn: 0
PreviewTime: -1
Countdown: 1
SampleSet: Soft
StackLeniency: 0.4
Mode: 0
LetterboxInBreaks: 0
WidescreenStoryboard: 0

[Editor]
Bookmarks: 15961
DistanceSpacing: 1
BeatDivisor: 4
GridSize: 8
TimelineZoom: 1

[Metadata]
Title:Troublemaker
TitleUnicode:とらぶるめーか
Artist:I My Me Mine
ArtistUnicode:I My Me Mine
Creator:fdsfd
Version:Secret Princess
Source:ひめゴト
Tags:yuki kuwahara yuka matenro saki ono hisako tojo traps crossdressing anime tv size
BeatmapID:1367148
BeatmapSetID:645139

[Difficulty]
HPDrainRate:7
CircleSize:4.2
OverallDifficulty:9
ApproachRate:9.2
SliderMultiplier:1.86
SliderTickRate:1

[Events]
//Background and Video events
0,0,"bg.jpg",0,0
//Break Periods
//Storyboard Layer 0 (Background)
//Storyboard Layer 1 (Fail)
//Storyboard Layer 2 (Pass)
//Storyboard Layer 3 (Foreground)
//Storyboard Sound Samples

[TimingPoints]
145,326.086956521739,4,2,0,40,1,0
145,-133.333333333333,4,2,0,40,0,0
1123,322.58064516129,4,2,1,75,1,0
11445,-90.9090909090909,4,2,1,75,0,0
23058,-80,4,2,1,75,0,1
26929,-200,4,2,1,75,0,1
28219,-200,4,2,1,75,0,1
29348,-200,4,2,1,50,0,1
29429,-200,4,2,1,25,0,1
29510,-200,4,2,1,5,0,1

[HitObjects]
82,44,145,5,0,0:0:0:0:
67,182,471,1,0,0:0:0:0:
53,320,797,1,0,0:0:0:0:
218,161,1123,6,0,L|122:169,1,93
305,109,1445,2,0,L|397:117,1,93
321,376,1768,2,0,P|277:286|310:213,1,186
386,293,2252,1,0,0:0:0:0:
191,318,2413,1,0,0:0:0:0:
396,293,2574,2,0,L|488:284,1,93
288,176,2897,2,0,B|220:181|220:181|171:162|171:162|97:167,1,186
194,324,3381,1,0,0:0:0:0:
232,91,3542,1,0,0:0:0:0:
232,91,3622,1,0,0:0:0:0:
232,91,3703,6,0,P|217:133|232:187,1,93
362,106,4026,2,0,P|377:64|362:10,1,93
140,189,4348,2,0,B|207:194|207:194|256:175|256:175|330:180,1,186
193,106,4832,1,0,0:0:0:0:
193,106,4913,1,0,0:0:0:0:
193,106,4993,1,0,0:0:0:0:
111,262,5155,2,0,P|100:306|115:350,1,93
197,207,5477,2,0,P|107:163|34:196,1,186
203,298,5961,1,0,0:0:0:0:
317,217,6122,1,0,0:0:0:0:
317,217,6203,1,0,0:0:0:0:
317,217,6284,6,0,B|365:208|365:208|413:217,1,93
197,305,6606,2,0,B|149:314|149:314|101:305,1,93
285,129,6929,2,0,B|340:117|376:147|376:147|418:115|477:129,1,186
145,52,7413,2,0,B|136:95|136:95|145:143,1,93
317,217,7735,1,0,0:0:0:0:
239,16,7897,1,0,0:0:0:0:
113,221,8058,2,0,L|205:212,1,93
314,68,8381,5,0,0:0:0:0:
69,111,8542,1,0,0:0:0:0:
324,220,8703,1,0,0:0:0:0:
125,384,8864,6,0,P|81:294|114:221,1,186
168,133,9348,2,0,P|212:223|179:296,1,186
0,221,9832,1,0,0:0:0:0:
171,128,9993,2,8,L|362:144,1,186,0|0,0:0|0:0,0:0:0:0:
185,219,10477,5,0,0:0:0:0:
277,39,10639,1,0,0:0:0:0:
331,233,10800,5,0,0:0:0:0:
160,0,10961,1,0,0:0:0:0:
255,292,11122,5,0,0:0:0:0:
392,7,11284,1,0,0:0:0:0:
207,106,11445,6,0,L|102:114,1,102.300003121948
267,264,11768,2,0,L|372:272,1,102.300003121948
168,384,12090,2,0,P|119:285|155:204,1,204.600006243897
403,166,12574,1,0,0:0:0:0:
210,111,12735,1,0,0:0:0:0:
411,167,12897,2,8,L|514:176,1,102.300003121948,0|0,0:0|0:0,2:0:0:0:
403,285,13219,2,0,B|328:278|328:278|274:300|274:300|193:294,1,204.600006243897
512,177,13703,1,0,0:0:0:0:
340,337,13864,1,0,0:0:0:0:
340,337,13945,1,0,0:0:0:0:
340,337,14026,6,0,P|320:286|335:233,1,102.300003121948
421,84,14348,2,0,P|441:135|426:188,1,102.300003121948
147,129,14671,2,0,B|221:122|221:122|275:144|275:144|356:138,1,204.600006243897
188,225,15155,1,0,0:0:0:0:
296,23,15316,1,0,0:0:0:0:
186,232,15477,2,0,P|237:252|290:237,1,102.300003121948
114,143,15800,2,0,P|78:235|126:321,1,204.600006243897
236,106,16284,1,0,0:0:0:0:
342,326,16445,1,0,0:0:0:0:
342,326,16526,1,0,0:0:0:0:
342,326,16606,6,0,B|293:335|293:335|238:326,1,102.300003121948
85,232,16929,2,0,B|134:223|134:223|189:232,1,102.300003121948
397,124,17252,2,0,B|337:116|299:147|299:147|258:115|191:125,1,204.600006243897
111,361,17735,2,0,B|137:310|110:257|110:257|89:212|111:160,1,204.600006243897
38,307,18219,1,0,0:0:0:0:
193,92,18381,2,0,P|101:56|15:105,1,204.600006243897
216,191,18864,5,0,0:0:0:0:
388,3,19026,1,0,0:0:0:0:
500,263,19187,2,8,L|289:244,1,204.600006243897,0|0,0:0|0:0,0:0:0:0:
435,74,19671,5,0,0:0:0:0:
315,327,19832,1,0,0:0:0:0:
312,43,19993,5,0,0:0:0:0:
393,333,20155,2,0,L|496:342,1,102.300003121948,0|0,2:0|0:0,0:0:0:0:
260,166,20477,6,0,B|185:172|185:172|131:150|131:150|50:156,1,204.600006243897
364,43,20961,1,0,0:0:0:0:
271,274,21122,1,0,0:0:0:0:
271,274,21203,1,0,0:0:0:0:
271,274,21284,1,0,0:0:0:0:
200,100,21445,1,0,0:0:0:0:
417,209,21606,1,0,0:0:0:0:
152,201,21768,6,0,L|48:210,1,102.300003121948,0|0,2:0|0:0,0:0:0:0:
154,211,22090,2,0,L|50:220,1,102.300003121948,0|0,2:0|0:0,0:0:0:0:
52,219,22332,1,0,0:0:0:0:
52,219,22413,1,0,0:0:0:0:
200,100,22574,5,0,0:0:0:0:
250,308,22735,1,0,0:0:0:0:
84,124,22897,1,0,0:0:0:0:
390,295,23058,6,0,L|509:284,1,116.25
333,78,23381,5,0,0:0:0:0:
175,368,23542,1,0,0:0:0:0:
132,64,23703,5,0,0:0:0:0:
330,370,23864,1,0,0:0:0:0:
120,56,24026,6,0,L|1:67,1,116.25
150,306,24348,5,0,0:0:0:0:
318,27,24510,1,0,0:0:0:0:
144,310,24671,6,0,L|16:298,1,116.25
398,71,24993,1,0,0:0:0:0:
58,149,25155,1,0,0:0:0:0:
390,258,25316,1,0,0:0:0:0:
204,0,25477,1,0,0:0:0:0:
143,309,25639,6,0,L|28:299,1,116.25
102,34,25961,5,0,0:0:0:0:
277,384,26122,1,0,0:0:0:0:
249,10,26284,5,0,0:0:0:0:
157,355,26445,1,0,0:0:0:0:
0,133,26606,5,0,0:0:0:0:
408,370,26768,1,0,0:0:0:0:
408,370,26848,1,0,0:0:0:0:
408,370,26929,6,0,P|426:267|406:188,2,186
256,192,28300,12,0,30100,0:0:0:0:
