osu file format v14

[General]
AudioFilename: audio.mp3
AudioLeadIn: 0
PreviewTime: 1462
Countdown: 0
SampleSet: Normal
StackLeniency: 0.7
Mode: 0
LetterboxInBreaks: 0
WidescreenStoryboard: 1

[Editor]
Bookmarks: 9687,18311,19506,21300,23022
DistanceSpacing: 1.6
BeatDivisor: 4
GridSize: 4
TimelineZoom: 2.7

[Metadata]
Title:Troublemaker
TitleUnicode:とらぶるめーかー
Artist:I My Me Mine
ArtistUnicode:あいまいみーまいん
Creator:Kamisama-
Version:Insane
Source:ひめゴト
Tags:HIMEGOTO Leonita -[hotaru]- mina- yuri- kamisama kazuyo - magic bomb - kowaii_ne [T]wilight
BeatmapID:1068073
BeatmapSetID:498261

[Difficulty]
HPDrainRate:6
CircleSize:4
OverallDifficulty:7
ApproachRate:9
SliderMultiplier:1.4
SliderTickRate:1

[Events]
//Background and Video events
0,0,"bg.jpg",0,0
//Break Periods
//Storyboard Layer 0 (Background)
//Storyboard Layer 1 (Fail)
//Storyboard Layer 2 (Pass)
//Storyboard Layer 3 (Foreground)
//Storyboard Sound Samples

[TimingPoints]
333,322.58064516129,4,1,1,30,1,0
655,-100,4,1,1,30,0,0
978,-100,4,1,1,40,0,0
1300,-100,4,1,1,50,0,0
1623,-100,4,1,1,60,0,1
1703,-100,4,1,1,60,0,0
10978,-100,4,1,1,30,0,0
11300,-100,4,1,1,40,0,0
11623,-100,4,1,1,50,0,0
11945,-100,4,1,1,60,0,1
12026,-100,4,1,1,60,0,0
22268,-100,4,1,1,45,0,0
23558,-100,4,1,1,60,0,0
27429,-133.333333333333,4,2,1,40,0,0
30655,-133.333333333333,4,2,1,5,0,0

[HitObjects]
160,104,655,5,0,0:0:0:0:
256,192,978,1,0,0:0:0:0:
140,256,1300,1,0,0:0:0:0:
152,136,1623,2,0,B|144:188|176:204|208:188|232:172|216:236,1,140
312,176,2107,1,0,0:0:0:0:
376,128,2268,2,0,P|360:84|260:64,1,140
344,304,2752,1,0,0:0:0:0:
104,256,2913,2,0,P|148:296|184:296,1,70
256,188,3236,5,0,0:0:0:0:
280,80,3397,2,0,L|344:120,2,70
408,180,3881,2,0,P|416:240|396:272,1,70
332,288,4203,2,0,P|280:336|208:328,1,140
152,236,4687,1,0,0:0:0:0:
204,180,4849,2,0,P|248:144|256:112,1,70
320,112,5171,1,0,0:0:0:0:
408,208,5332,1,0,0:0:0:0:
376,280,5494,6,0,P|308:320|296:320,1,70
280,252,5816,2,0,P|244:212|208:224,1,70
128,192,6139,1,0,0:0:0:0:
256,88,6300,1,0,0:0:0:0:
348,276,6462,1,0,0:0:0:0:
252,284,6623,1,0,0:0:0:0:
252,284,6703,1,0,0:0:0:0:
252,284,6784,2,0,P|184:292|132:240,1,140
160,160,7268,5,0,0:0:0:0:
232,176,7429,2,0,P|268:216|304:208,1,70
312,132,7752,1,0,0:0:0:0:
384,64,7913,2,0,P|420:120|428:152,1,70
384,328,8236,1,0,0:0:0:0:
312,132,8397,1,0,0:0:0:0:
224,264,8558,1,0,0:0:0:0:
128,160,8881,1,0,0:0:0:0:
200,72,9042,1,0,0:0:0:0:
296,264,9203,1,0,0:0:0:0:
296,264,9365,6,0,L|392:188,1,105
378,198,9687,2,0,L|322:130,1,70
256,92,10010,1,0,0:0:0:0:
156,132,10171,1,0,0:0:0:0:
145,165,10252,1,0,0:0:0:0:
131,197,10332,1,0,0:0:0:0:
256,312,10494,1,0,0:0:0:0:
296,96,10978,2,0,P|336:108|344:144,1,70
236,176,11300,2,0,P|252:208|296:228,1,70
124,208,11623,1,0,0:0:0:0:
148,232,11703,1,0,0:0:0:0:
172,256,11784,1,0,0:0:0:0:
196,280,11865,1,0,0:0:0:0:
228,292,11945,2,0,P|330:288|370:260,1,140
288,176,12429,5,0,0:0:0:0:
168,220,12591,2,0,P|180:168|216:152,1,70
252,228,12913,2,0,P|288:252|280:280,1,70
212,312,13236,1,0,0:0:0:0:
144,316,13397,2,0,P|104:312|84:268,1,70
128,232,13720,2,0,P|172:208|200:220,1,70
256,140,14042,1,0,0:0:0:0:
256,140,14203,1,0,0:0:0:0:
368,224,14526,6,0,P|424:160|388:108,1,140
320,76,15010,1,0,0:0:0:0:
348,160,15171,2,0,L|276:192,1,70
284,188,15494,2,0,L|232:128,1,70
44,48,15816,1,0,0:0:0:0:
44,48,15978,2,0,P|119:103|107:151,1,140
174,177,16462,2,0,P|171:242|184:256,1,70
248,252,16784,2,0,P|266:285|243:334,1,70
152,336,17026,1,0,0:0:0:0:
92,288,17107,6,0,P|44:236|72:152,1,140
228,40,17591,1,0,0:0:0:0:
120,128,17752,2,0,P|172:188|256:196,1,140
232,124,18236,2,0,P|288:100|320:104,1,70
360,144,18558,1,0,0:0:0:0:
456,228,18720,1,0,0:0:0:0:
324,312,18881,1,0,0:0:0:0:
288,232,19042,2,0,P|240:184|220:184,1,70
224,264,19365,2,0,P|200:304|228:344,1,70
112,320,19687,6,0,P|80:252|112:188,1,140
156,112,20171,2,0,P|188:152|224:148,1,70
253,104,20494,2,0,P|284:68|328:64,1,70
384,192,20816,1,0,0:0:0:0:
444,268,20978,2,0,P|384:336|324:316,1,140
272,232,21462,1,0,0:0:0:0:
272,162,21623,1,0,0:0:0:0:
296,137,21703,1,0,0:0:0:0:
320,112,21784,1,0,0:0:0:0:
360,52,21945,6,0,P|416:52|432:84,1,70
468,136,22268,2,0,P|456:208|380:264,1,140
100,212,22752,1,0,0:0:0:0:
288,156,22913,1,0,0:0:0:0:
216,264,23074,1,0,0:0:0:0:
128,96,23236,1,0,0:0:0:0:
240,80,23558,2,0,P|272:140|296:148,1,70
328,192,23881,1,0,0:0:0:0:
440,72,24042,1,0,0:0:0:0:
484,152,24203,6,0,P|476:216|456:240,1,70
473,219,24526,2,0,P|465:287|449:299,1,70
388,320,24849,1,0,0:0:0:0:
256,192,25010,1,0,0:0:0:0:
280,84,25171,2,0,P|328:80|356:112,1,70
472,232,25494,1,0,0:0:0:0:
416,124,25655,1,0,0:0:0:0:
320,288,25816,1,0,0:0:0:0:
224,160,25978,1,0,0:0:0:0:
308,192,26139,6,0,P|380:212|404:288,1,140
144,204,26623,1,0,0:0:0:0:
304,188,26784,1,0,0:0:0:0:
224,80,26945,1,0,0:0:0:0:
192,308,27107,1,0,0:0:0:0:
304,188,27268,1,0,0:0:0:0:
224,80,27429,2,0,B|152:132|128:188|232:256,1,210.000008010865
288,176,28236,1,0,0:0:0:0:
408,272,28397,1,0,0:0:0:0:
256,192,28720,12,0,30655,0:0:0:0:
