osu file format v14

[General]
AudioFilename: audio.mp3
AudioLeadIn: 0
PreviewTime: -1
Countdown: 0
SampleSet: Normal
StackLeniency: 0.7
Mode: 0
LetterboxInBreaks: 0
SkinPreference:-+Seouless+v7+-+Momoko+
WidescreenStoryboard: 1

[Editor]
Bookmarks: 2267,5654,7913,9365,10655,10816,19687,20493,20654,20977,21300,21622,23397,24364,27429,28719,30816
DistanceSpacing: 1.5
BeatDivisor: 4
GridSize: 4
TimelineZoom: 1.4

[Metadata]
Title:Troublemaker
TitleUnicode:Troublemaker
Artist:I My Me Mine
ArtistUnicode:I My Me Mine
Creator:GAVlN
Version:Insane
Source:
Tags:jump
BeatmapID:1876635
BeatmapSetID:898351

[Difficulty]
HPDrainRate:5
CircleSize:4
OverallDifficulty:8.2
ApproachRate:9.4
SliderMultiplier:1.8
SliderTickRate:1

[Events]
//Background and Video events
0,0,"Background.png",0,0
//Break Periods
//Storyboard Layer 0 (Background)
//Storyboard Layer 1 (Fail)
//Storyboard Layer 2 (Pass)
//Storyboard Layer 3 (Foreground)
//Storyboard Sound Samples

[TimingPoints]
655,322.58064516129,4,1,1,30,1,0
655,-100,4,1,1,30,0,0
977,-100,4,1,1,40,0,0
1300,-100,4,1,1,50,0,0
1622,-100,4,1,1,60,0,0
9687,-200,4,1,1,60,0,0
10816,-100,4,1,1,60,0,0
10977,-100,4,1,1,70,0,0
11945,-100,4,1,1,60,0,0
19687,-200,4,1,1,50,0,0
22267,-200,4,1,1,45,0,0
23558,-200,4,1,1,75,0,0
27429,-200,4,1,1,65,0,0
28074,-200,4,1,1,60,0,0
28719,-200,4,1,1,55,0,0
28819,-200,4,1,1,50,0,0

[Colours]
Combo1 : 253,169,119
Combo2 : 104,27,45
Combo3 : 53,31,68

[HitObjects]
135,293,655,6,0,P|99:247|111:182,1,90
176,223,977,2,0,P|213:175|195:121,1,90
133,160,1300,2,0,P|97:114|109:49,1,90
348,91,1622,5,0,0:0:0:0:
179,93,1784,1,0,0:0:0:0:
235,206,1945,2,0,P|286:219|340:194,1,90
421,151,2267,1,0,0:0:0:0:
399,289,2429,2,0,P|345:283|290:308,1,90
232,300,2752,5,0,0:0:0:0:
210,295,2832,1,0,0:0:0:0:
187,297,2913,1,0,0:0:0:0:
186,151,3074,2,0,P|121:119|108:80,1,90
26,123,3396,1,0,0:0:0:0:
86,31,3558,5,8,0:0:0:0:
178,193,3719,1,0,0:0:0:0:
185,81,3880,1,8,0:0:0:0:
89,177,4042,6,0,P|96:232|119:267,1,90
213,148,4364,1,0,0:0:0:0:
297,252,4525,1,0,0:0:0:0:
392,155,4687,2,0,P|418:92|408:90,1,90
401,34,5009,2,0,P|375:97|385:99,1,90
427,202,5332,5,0,0:0:0:0:
300,154,5493,1,8,0:0:0:0:
300,154,5574,1,8,0:0:0:0:
300,154,5654,1,8,0:0:0:0:
226,268,5816,1,0,0:0:0:0:
340,338,5977,1,0,0:0:0:0:
400,271,6138,2,0,P|450:186|410:112,1,180
300,52,6622,5,0,0:0:0:0:
300,52,6703,1,0,0:0:0:0:
300,52,6784,1,0,0:0:0:0:
171,116,6945,5,0,0:0:0:0:
350,137,7107,1,8,0:0:0:0:
383,244,7267,2,0,P|436:226|447:191,1,90
453,107,7590,2,0,P|399:83|353:115,1,90
294,130,7913,5,0,0:0:0:0:
216,84,8074,1,8,0:0:0:0:
130,56,8235,1,8,0:0:0:0:
41,68,8396,2,0,P|102:119|125:101,1,90
130,56,8880,5,0,0:0:0:0:
155,189,9042,1,8,0:0:0:0:
221,56,9203,5,0,0:0:0:0:
75,161,9364,1,8,0:0:0:0:
177,127,9687,2,0,P|223:120|226:121,1,45
275,178,10171,1,0,0:0:0:0:
322,30,10333,1,8,0:0:0:0:
364,179,10493,1,8,0:0:0:0:
135,293,10977,6,0,P|99:247|111:182,1,90
176,223,11299,2,0,P|213:175|195:121,1,90
133,160,11622,2,0,P|97:114|109:49,1,90
217,125,11945,5,0,0:0:0:0:
217,258,12106,1,8,0:0:0:0:
179,192,12267,5,0,0:0:0:0:
294,258,12429,1,8,0:0:0:0:
378,227,12590,6,0,P|422:195|431:155,1,90
364,102,12913,1,0,0:0:0:0:
291,155,13074,1,8,0:0:0:0:
247,76,13235,2,0,P|200:85|170:138,1,90
103,171,13558,1,0,0:0:0:0:
178,219,13719,1,0,0:0:0:0:
103,269,13880,1,0,0:0:0:0:
178,318,14042,2,0,P|289:303|289:281,1,90
315,279,14364,5,8,0:0:0:0:
383,220,14525,1,0,0:0:0:0:
307,171,14687,1,8,0:0:0:0:
375,112,14848,1,0,0:0:0:0:
289,85,15009,2,0,P|249:86|202:161,1,90
151,183,15332,1,0,0:0:0:0:
231,223,15493,1,0,0:0:0:0:
160,278,15654,1,0,0:0:0:0:
230,334,15816,6,0,P|299:331|340:278,1,90
403,311,16138,1,0,0:0:0:0:
314,291,16300,1,0,0:0:0:0:
318,201,16461,1,0,0:0:0:0:
228,211,16622,2,0,P|126:194|118:67,1,180
125,46,17106,5,8,0:0:0:0:
74,218,17267,1,0,0:0:0:0:
210,47,17429,5,8,0:0:0:0:
262,218,17590,1,0,0:0:0:0:
351,223,17751,2,0,P|443:210|444:169,1,90
90,322,18235,2,0,P|108:216|192:169,1,180
249,153,18719,1,0,0:0:0:0:
338,150,18880,1,0,0:0:0:0:
419,34,19203,5,0,0:0:0:0:
328,36,19364,1,0,0:0:0:0:
256,88,19525,1,0,0:0:0:0:
192,152,19687,2,0,P|135:249|176:332,1,180
271,358,20654,6,0,P|360:350|389:323,1,90
423,289,21300,2,0,P|449:269|458:229,1,45
447,146,21784,1,0,0:0:0:0:
386,241,21946,1,0,0:0:0:0:
312,155,22107,1,0,0:0:0:0:
235,108,22267,1,0,0:0:0:0:
162,58,22429,2,0,B|87:56|48:108|41:163|110:211,1,225
436,326,23558,6,8,P|462:294|453:229,1,90,0|8,0:0|0:0,0:0:0:0:
384,200,24042,1,8,0:0:0:0:
455,145,24203,1,8,0:0:0:0:
98,340,24525,6,8,P|124:308|115:243,1,90,0|8,0:0|0:0,0:0:0:0:
46,214,25009,1,8,0:0:0:0:
117,159,25170,1,8,0:0:0:0:
428,227,25493,5,8,0:0:0:0:
374,155,25654,1,8,0:0:0:0:
309,218,25816,1,8,0:0:0:0:
275,134,25977,1,8,0:0:0:0:
215,201,26138,2,0,P|132:175|168:26,1,270,8|0,0:0|0:0,0:0:0:0:
342,62,27429,1,0,0:0:0:0:
123,289,28074,1,0,0:0:0:0:
256,192,28719,2,0,B|276:152|296:108|296:108|368:128|368:128|352:204|320:240|272:264|216:282|176:280|176:280|150:256|147:211,1,495,0|8,0:0|0:0,0:0:0:0:
