osu file format v14

[General]
AudioFilename: audio.mp3
AudioLeadIn: 0
PreviewTime: 1462
Countdown: 1
SampleSet: Soft
StackLeniency: 0.7
Mode: 2
LetterboxInBreaks: 0
WidescreenStoryboard: 1

[Editor]
DistanceSpacing: 1
BeatDivisor: 4
GridSize: 4
TimelineZoom: 4

[Metadata]
Title:Troublemaker
TitleUnicode:とらぶるめーかー
Artist:I MY ME MINE
ArtistUnicode:あいまいみーまいん
Creator:Kamisama-
Version:Salad
Source:ひめゴト
Tags:HIMEGOTO Leonita -[hotaru]- mina- yuri- kamisama kazuyo - magic bomb - kowaii_ne [T]wilight
BeatmapID:1092742
BeatmapSetID:498261

[Difficulty]
HPDrainRate:4
CircleSize:3
OverallDifficulty:7
ApproachRate:7
SliderMultiplier:1.4
SliderTickRate:1

[Events]
//Background and Video events
0,0,"bg.jpg",0,0
//Break Periods
//Storyboard Layer 0 (Background)
//Storyboard Layer 1 (Fail)
//Storyboard Layer 2 (Pass)
//Storyboard Layer 3 (Foreground)
//Storyboard Sound Samples

[TimingPoints]
333,322.58064516129,4,2,0,60,1,0
1623,-100,4,2,0,60,0,0
1703,-100,4,2,0,60,0,0
11945,-100,4,2,0,60,0,1
12026,-100,4,2,0,60,0,0
17107,-66.6666666666667,4,2,0,60,0,0
17349,-66.6666666666667,4,2,0,10,0,0
17429,-66.6666666666667,4,2,0,60,0,0
17671,-66.6666666666667,4,2,0,10,0,0
17752,-100,4,2,0,60,0,0
23478,-100,4,2,0,10,0,0
23558,-100,4,2,0,60,0,0
27994,-100,4,2,0,10,0,0
28074,-100,4,2,0,60,0,0

[HitObjects]
304,180,655,6,0,L|464:180,2,140
224,184,1623,1,0,0:0:0:0:
432,184,1945,2,0,L|336:300,1,140
72,176,2591,5,0,0:0:0:0:
303,184,2913,2,0,L|229:182,2,70
452,320,3397,6,0,L|224:320,1,210
46,144,4203,6,0,L|187:144,2,140
345,144,5171,5,0,0:0:0:0:
168,211,5332,2,0,L|107:169,2,70
448,211,5816,2,0,L|150:212,1,280
457,224,6784,2,0,L|377:225,2,70
294,221,7268,2,0,L|218:221,1,70
104,101,7752,5,0,0:0:0:0:
297,102,7913,2,0,L|221:102,3,70
406,98,8558,1,0,0:0:0:0:
253,188,8881,5,0,0:0:0:0:
71,110,9042,2,0,L|231:110,1,140
114,251,9687,5,0,0:0:0:0:
404,253,9849,1,0,0:0:0:0:
272,177,10171,6,0,L|352:177,3,70
69,180,10978,5,0,0:0:0:0:
262,183,11301,1,0,0:0:0:0:
166,183,11622,1,0,0:0:0:0:
360,180,11945,5,0,0:0:0:0:
50,188,12268,1,0,0:0:0:0:
254,190,12591,1,0,0:0:0:0:
459,187,12913,6,0,L|373:187,4,70
251,109,13720,1,0,0:0:0:0:
43,112,14042,1,0,0:0:0:0:
434,280,14526,5,0,0:0:0:0:
248,282,14849,1,0,0:0:0:0:
63,281,15171,1,0,0:0:0:0:
314,175,15494,6,0,L|402:175,3,70
194,191,16139,1,0,0:0:0:0:
113,190,16300,1,0,0:0:0:0:
33,191,16462,1,0,0:0:0:0:
401,107,16784,1,0,0:0:0:0:
262,313,17107,6,0,L|43:313,1,210.000008010865
396,317,17752,1,0,0:0:0:0:
123,254,18074,1,0,0:0:0:0:
246,253,18397,5,0,0:0:0:0:
365,256,18558,2,0,L|437:253,2,70
200,176,19042,6,0,L|57:176,2,140
316,185,20010,5,0,0:0:0:0:
445,186,20171,1,0,0:0:0:0:
197,106,20332,1,0,0:0:0:0:
49,321,20655,5,0,0:0:0:0:
232,323,20978,1,0,0:0:0:0:
409,322,21300,1,0,0:0:0:0:
344,128,21462,1,0,0:0:0:0:
224,272,21784,6,0,L|132:272,3,70
400,268,22429,2,0,B|300:268|200:228|168:172|204:124|184:72|124:72|60:72,1,420
259,192,23558,5,0,0:0:0:0:
357,318,23881,6,0,L|276:320,2,70
62,228,24526,5,0,0:0:0:0:
299,232,24849,6,0,L|374:233,2,70
113,134,25494,6,0,L|183:135,4,70
259,311,26462,5,0,0:0:0:0:
64,248,26784,1,0,0:0:0:0:
184,144,27107,1,0,0:0:0:0:
436,184,27429,5,0,0:0:0:0:
256,192,28074,5,0,0:0:0:0:
88,192,28720,5,0,0:0:0:0:
256,192,28881,12,0,30574,0:0:0:0:
