osu file format v14

[General]
AudioFilename: audio.mp3
AudioLeadIn: 0
PreviewTime: 58952
Countdown: 0
SampleSet: Soft
StackLeniency: 0.4
Mode: 0
LetterboxInBreaks: 0
WidescreenStoryboard: 1

[Editor]
Bookmarks: 590,10385,23447,36508,46304,59365,72426,88753,101814,111610,124671,137732,147528,160589,173651,186712,203729
DistanceSpacing: 1.3
BeatDivisor: 4
GridSize: 4
TimelineZoom: 1

[Metadata]
Title:PAINT
TitleUnicode:PAINT
Artist:I Don't Like Mondays.
ArtistUnicode:I Don't Like Mondays.
Creator:Andrea
Version:ANDREA & EX'S HARD
Source:ONE PIECE
Tags:osuplayer111 Sekai Sekaii Sekai-nyan - Ex - -_Ex_- Mrgglock Leomine LeomineXD toei animation japanese pop j-pop jpop rock j-rock jrock anime opening 24 op op24 male Vocalist vocal Monkey D Luffy モンキー D ルフィ Roronoa Zoro ロロノア ゾロ Nami ナミ Nico Robin ニコ ロビン Usopp ウソップ Sanji サンジ Tony Chopper トニーチョッパー Brook ブルック Franky フランキー Jinbe Jimbei ジンベエ Straw Hat Pirates 麦わらの一味 Mugiwara no Ichimi YU ユウ CHOJI KENJI SHUKI boy band
BeatmapID:3752836
BeatmapSetID:1828538

[Difficulty]
HPDrainRate:5
CircleSize:4
OverallDifficulty:6
ApproachRate:7
SliderMultiplier:1.4
SliderTickRate:1

[Events]
//Background and Video events
0,0,"op17.jpg",0,0
//Break Periods
2,160784,166215
//Storyboard Layer 0 (Background)
//Storyboard Layer 1 (Fail)
//Storyboard Layer 2 (Pass)
//Storyboard Layer 3 (Foreground)
//Storyboard Layer 4 (Overlay)
//Storyboard Sound Samples

[TimingPoints]
585,408.163265306122,4,2,1,55,1,0
585,-111.111111111111,4,2,1,55,0,0
10380,-100,4,2,1,80,0,0
23442,-111.111111111111,4,2,1,65,0,0
36503,-100,4,2,1,70,0,0
46299,-111.111111111111,4,2,1,70,0,0
46605,-111.111111111111,4,2,1,5,0,0
46707,-111.111111111111,4,2,1,70,0,0
57523,-125,4,2,1,70,0,0
59360,-90.9090909090908,4,2,1,85,0,1
59768,-90.9090909090908,4,2,1,85,0,1
61401,-90.9090909090908,4,2,1,85,0,1
62115,-90.9090909090908,4,2,1,5,0,1
62217,-90.9090909090908,4,2,1,85,0,1
63033,-90.9090909090908,4,2,1,85,0,1
64666,-90.9090909090908,4,2,1,85,0,1
65380,-90.9090909090908,4,2,1,5,0,1
65482,-90.9090909090908,4,2,1,85,0,1
66299,-90.9090909090908,4,2,1,85,0,1
69054,-90.9090909090908,4,2,1,5,0,1
69156,-90.9090909090908,4,2,1,85,0,1
75993,-90.9090909090908,4,2,1,5,0,1
76095,-90.9090909090908,4,2,1,85,0,1
82217,-100,4,2,1,80,0,0
88748,-111.111111111111,4,2,1,65,0,0
101809,-100,4,2,1,70,0,0
108748,-100,4,2,1,70,0,0
111605,-111.111111111111,4,2,1,78,0,0
111911,-111.111111111111,4,2,1,5,0,0
112013,-111.111111111111,4,2,1,78,0,0
118136,-111.111111111111,4,2,1,70,0,0
122829,-125,4,2,1,70,0,0
124666,-90.9090909090908,4,2,1,85,0,1
125074,-90.9090909090908,4,2,1,85,0,1
131503,-90.9090909090908,4,2,1,5,0,1
131605,-90.9090909090908,4,2,1,85,0,1
134360,-90.9090909090908,4,2,1,5,0,1
134462,-90.9090909090908,4,2,1,85,0,1
144666,-90.9090909090908,4,2,1,85,0,1
147523,-90.9090909090908,4,2,1,80,0,1
154666,-90.9090909090908,4,2,1,80,0,1
158952,-125,4,2,1,75,0,0
160584,-125,4,2,1,60,0,0
167115,-111.111111111111,4,2,1,70,0,0
170278,-111.111111111111,4,2,1,5,0,0
170380,-111.111111111111,4,2,1,70,0,0
171809,-111.111111111111,4,2,1,78,0,0
173646,-90.9090909090908,4,2,1,85,0,1
173952,-90.9090909090908,4,2,1,5,0,1
174054,-90.9090909090908,4,2,1,85,0,1
183442,-100,4,2,1,80,0,0
194870,402.684563758389,4,2,1,80,1,0
196883,-100,4,2,1,76,0,0
197286,-100,4,2,1,72,0,0
197688,-100,4,2,1,68,0,0
198091,-100,4,2,1,64,0,0
198494,-100,4,2,1,60,0,0
198896,-100,4,2,1,56,0,0
199299,-100,4,2,1,52,0,0
199702,-100,4,2,1,48,0,0
200104,-100,4,2,1,44,0,0
200507,-100,4,2,1,40,0,0
200910,-100,4,2,1,36,0,0
201312,-100,4,2,1,32,0,0
201715,-100,4,2,1,28,0,0
202118,-100,4,2,1,24,0,0
202521,-100,4,2,1,20,0,0
202923,-100,4,2,1,16,0,0
203326,-100,4,2,1,12,0,0
203729,-100,4,2,1,5,0,0

[Colours]
Combo1 : 213,170,170
Combo2 : 255,128,128
Combo3 : 255,255,128
Combo4 : 128,191,255

[HitObjects]
80,300,585,6,0,P|128:248|140:128,1,188.999994232178,4|2,2:2|2:2,0:0:0:0:
200,76,1401,2,0,L|392:52,1,188.999994232178,2|2,2:2|2:2,0:0:0:0:
456,96,2217,2,0,B|504:136|484:184|484:184|504:272,1,188.999994232178,2|2,2:2|2:2,0:0:0:0:
460,340,3033,1,2,2:2:0:0:
216,304,3646,5,2,2:2:0:0:
216,304,3850,2,0,P|296:256|328:168,1,188.999994232178,2|2,2:2|2:2,0:0:0:0:
320,88,4666,2,0,B|248:80|248:80|216:96|216:96|136:88,1,188.999994232178,2|2,2:2|2:2,0:0:0:0:
56,76,5482,1,2,2:2:0:0:
32,320,6095,1,2,2:2:0:0:
32,320,6299,1,2,2:2:0:0:
252,212,6911,5,2,2:2:0:0:
252,212,7115,2,0,P|304:252|368:256,1,125.999996154785,2|2,2:2|2:2,0:0:0:0:
440,236,7727,2,0,P|448:204|452:172,1,62.9999980773926,2|0,2:2|0:0,0:0:0:0:
384,128,8136,2,0,P|392:96|396:64,1,62.9999980773926,2|0,2:2|2:2,0:0:0:0:
328,20,8544,6,0,P|264:8|196:16,1,125.999996154785,2|2,2:2|2:2,0:0:0:0:
136,60,9156,1,2,2:2:0:0:
84,124,9360,2,0,P|72:188|80:256,1,125.999996154785,2|2,2:2|2:2,0:0:0:0:
104,328,9972,1,2,2:2:0:0:
192,256,10176,5,2,2:2:0:0:
192,256,10278,1,2,2:2:0:0:
192,256,10380,2,0,P|236:245|284:234,1,70,4|2,1:2|2:2,0:0:0:0:
328,179,10789,1,2,1:2:0:0:
387,266,10993,2,0,P|426:288|526:277,1,140,2|2,3:2|3:2,0:0:0:0:
505,179,11605,2,0,P|495:137|486:98,1,70,2|2,1:2|2:2,0:0:0:0:
408,67,12013,6,0,P|418:25|427:-14,1,70,0|2,1:0|2:2,0:0:0:0:
305,74,12421,1,2,1:2:0:0:
371,157,12625,2,0,P|389:187|367:288,1,140,2|2,3:2|3:2,0:0:0:0:
299,342,13238,2,0,P|254:352|209:362,1,70,8|2,3:2|2:2,0:0:0:0:
208,351,13544,1,2,2:2:0:0:
187,343,13646,6,0,P|153:337|107:332,1,70,0|2,1:1|2:2,0:0:0:0:
29,310,14054,1,2,1:2:0:0:
110,239,14258,2,0,P|118:175|128:93,1,140,2|2,3:2|3:2,0:0:0:0:
143,10,14870,2,0,P|201:29|227:37,1,70,2|2,1:2|2:2,0:0:0:0:
279,89,15278,6,0,P|312:78|345:67,1,70,0|2,1:0|2:2,0:0:0:0:
418,11,15687,1,2,1:2:0:0:
490,90,15891,2,0,P|484:138|465:239,1,140,2|2,3:2|3:2,0:0:0:0:
444,323,16503,2,0,P|404:329|356:335,1,70,8|2,3:2|2:2,0:0:0:0:
359,317,16809,1,2,2:2:0:0:
344,302,16911,6,0,P|304:296|189:281,1,140,4|2,1:2|1:2,0:0:0:0:
114,284,17523,2,0,P|103:332|96:367,1,70,2|0,3:2|1:0,0:0:0:0:
25,237,17931,1,2,3:2:0:0:
109,178,18136,2,0,P|165:186|197:189,1,70,2|2,1:2|2:2,0:0:0:0:
266,209,18544,6,0,P|321:201|417:189,1,140,0|2,1:0|1:2,0:0:0:0:
495,182,19156,2,0,P|510:141|521:104,2,70,2|0|2,3:2|1:0|3:2,0:0:0:0:
424,260,19768,1,8,3:2:0:0:
491,335,19972,5,2,2:2:0:0:
491,335,20074,1,2,2:2:0:0:
491,335,20176,2,0,P|451:358|351:352,1,140,0|2,1:1|1:2,0:0:0:0:
283,305,20789,2,0,P|273:346|265:378,1,70,2|0,3:2|1:0,0:0:0:0:
196,255,21197,1,2,3:2:0:0:
196,255,21401,1,2,1:2:0:0:
269,201,21605,6,0,P|285:152|263:62,1,140,2|2,2:2|2:2,0:0:0:0:
186,24,22217,2,0,P|129:13|95:8,1,70,2|2,1:2|3:2,0:0:0:0:
36,53,22625,1,0,1:0:0:0:
91,125,22829,2,0,P|99:182|103:219,1,70,2|10,3:2|3:2,0:0:0:0:
37,260,23238,1,2,2:2:0:0:
108,300,23442,6,0,P|132:320|164:332,1,62.9999980773926,4|2,1:2|2:2,0:0:0:0:
240,316,23850,1,2,1:2:0:0:
320,296,24054,2,0,P|328:240|296:164,1,125.999996154785,2|2,2:2|2:2,0:0:0:0:
264,104,24666,1,2,1:2:0:0:
316,40,24870,2,0,P|368:20|440:16,1,125.999996154785,2|2,2:2|2:2,0:0:0:0:
504,60,25482,1,2,1:2:0:0:
476,136,25687,6,0,P|496:188|500:260,1,125.999996154785,2|2,2:2|2:2,0:0:0:0:
452,324,26299,1,2,1:2:0:0:
452,324,26503,1,2,3:2:0:0:
380,288,26707,2,0,P|344:292|320:304,1,62.9999980773926,0|2,1:1|2:2,0:0:0:0:
260,360,27115,1,2,1:2:0:0:
192,316,27319,6,0,P|200:272|176:192,1,125.999996154785,2|2,2:2|2:2,0:0:0:0:
116,144,27931,1,2,1:2:0:0:
64,208,28136,2,0,P|56:252|80:332,1,125.999996154785,2|2,2:2|2:2,0:0:0:0:
144,380,28748,1,2,1:2:0:0:
192,316,28952,2,0,B|240:320|260:348|260:348|308:344,1,125.999996154785,2|2,3:2|3:2,0:0:0:0:
388,320,29564,1,10,2:2:0:0:
468,296,29768,6,0,B|500:264|500:264|492:176,1,125.999996154785,2|2,2:2|2:2,0:0:0:0:
436,124,30380,1,2,1:2:0:0:
376,68,30584,2,0,P|336:104|264:100,1,125.999996154785,2|2,2:2|2:2,0:0:0:0:
192,68,31197,1,2,1:2:0:0:
192,68,31401,1,2,2:2:0:0:
128,120,31605,2,0,P|152:144|160:176,1,62.9999980773926,0|2,1:0|2:2,0:0:0:0:
160,252,32013,1,2,1:2:0:0:
152,332,32217,6,0,B|216:324|216:356|280:336,1,125.999996154785,2|2,2:2|2:2,0:0:0:0:
348,300,32829,1,2,1:2:0:0:
348,300,33033,1,2,3:2:0:0:
412,248,33238,2,0,P|444:256|472:264,1,62.9999980773926,0|0,1:1|0:0,0:0:0:0:
496,184,33646,1,2,1:2:0:0:
432,132,33850,2,0,P|400:104|368:24,1,125.999996154785,2|2,2:2|2:2,0:0:0:0:
288,24,34462,2,0,L|272:88,1,62.9999980773926,0|2,1:1|3:2,0:0:0:0:
248,164,34870,6,0,B|200:152|200:152|168:164|168:164|124:152,1,125.999996154785,0|0,1:1|1:1,0:0:0:0:
48,128,35482,1,2,3:2:0:0:
64,208,35687,2,0,P|48:236|40:272,1,62.9999980773926,0|2,1:1|3:2,0:0:0:0:
96,324,36095,2,0,P|126:331|153:347,1,62.9999980773926,10|2,2:2|2:2,0:0:0:0:
244,328,36503,5,0,1:1:0:0:
244,328,36707,2,0,P|278:320|308:301,1,70,2|0,2:2|1:1,0:0:0:0:
387,257,37115,2,0,P|420:264|451:282,1,70,2|0,3:2|1:1,0:0:0:0:
333,177,37523,1,2,3:2:0:0:
417,144,37727,2,0,P|427:104|437:64,1,70,2|2,1:2|2:2,0:0:0:0:
356,12,38136,5,0,1:0:0:0:
356,12,38340,2,0,P|310:24|271:32,1,70,2|2,2:2|1:2,0:0:0:0:
198,10,38748,2,0,P|168:64|187:141,1,140,2|2,3:2|3:2,0:0:0:0:
248,202,39360,2,0,P|255:254|259:288,1,70,10|2,2:2|2:2,0:0:0:0:
193,336,39768,5,0,1:1:0:0:
193,336,39972,2,0,P|150:345|116:351,1,70,2|2,2:2|1:2,0:0:0:0:
39,315,40380,2,0,P|27:358|19:387,1,70,2|2,3:2|1:2,0:0:0:0:
121,262,40789,1,2,3:2:0:0:
121,262,40993,1,2,1:2:0:0:
35,193,41197,6,0,P|14:151|35:56,2,140,2|2|0,2:2|2:2|3:3,0:0:0:0:
121,262,42217,2,0,P|175:268|212:272,1,70,2|2,1:2|3:2,0:0:0:0:
274,233,42625,2,0,P|280:179|284:142,1,70,10|2,2:2|2:2,0:0:0:0:
299,74,43033,6,0,P|251:62|221:53,2,70,4|2|2,1:2|2:2|1:2,0:0:0:0:
386,101,43646,1,2,3:2:0:0:
386,101,43850,2,0,P|427:93|471:84,1,70,0|2,1:1|3:2,0:0:0:0:
512,176,44258,1,2,1:2:0:0:
418,228,44462,6,0,P|411:270|406:310,1,70,2|0,2:2|1:0,0:0:0:0:
342,361,44870,2,0,P|295:349|253:248,1,140,2|2,2:2|3:2,0:0:0:0:
275,187,45482,2,0,P|285:146|294:106,1,70,0|2,1:1|3:2,0:0:0:0:
203,61,45891,1,10,2:2:0:0:
203,61,46095,1,10,2:2:0:0:
116,100,46299,6,0,P|88:140|80:220,1,125.999996154785,4|2,1:2|2:2,0:0:0:0:
100,308,46911,1,2,1:2:0:0:
176,248,47115,2,0,L|232:280,1,62.9999980773926,8|2,2:2|2:2,0:0:0:0:
312,324,47523,1,2,2:2:0:0:
376,252,47727,2,0,P|428:272|508:264,2,125.999996154785,2|10|0,1:2|2:2|1:1,0:0:0:0:
448,188,48748,2,0,L|456:124,1,62.9999980773926,8|2,2:2|2:2,0:0:0:0:
416,40,49156,1,2,2:2:0:0:
344,100,49360,6,0,P|308:104|276:100,1,62.9999980773926,2|0,1:2|1:1,0:0:0:0:
196,60,49768,2,0,P|208:112|192:188,1,125.999996154785,2|2,2:2|1:2,0:0:0:0:
132,256,50380,1,8,2:2:0:0:
188,332,50584,2,0,P|232:328|312:360,1,125.999996154785,2|2,2:2|1:2,0:0:0:0:
396,320,51197,1,0,1:1:0:0:
480,364,51401,2,0,P|500:312|500:236,1,125.999996154785,10|2,2:2|1:2,0:0:0:0:
428,184,52013,1,8,2:2:0:0:
348,136,52217,5,2,2:2:0:0:
348,136,52319,1,2,0:0:0:0:
348,136,52421,2,0,P|316:152|296:176,1,62.9999980773926,2|2,2:2|1:2,0:0:0:0:
212,136,52829,2,0,P|244:84|300:52,1,125.999996154785,4|2,1:2|2:2,0:0:0:0:
388,20,53442,1,2,1:2:0:0:
468,68,53646,1,8,2:2:0:0:
412,144,53850,6,0,L|428:208,1,62.9999980773926,2|2,2:2|2:2,0:0:0:0:
388,292,54258,1,0,1:1:0:0:
388,292,54462,1,0,1:1:0:0:
296,268,54666,2,0,P|248:260|168:280,1,125.999996154785,8|0,2:2|1:1,0:0:0:0:
80,300,55278,1,8,2:2:0:0:
36,216,55482,6,0,L|56:152,1,62.9999980773926,2|2,2:2|2:2,0:0:0:0:
80,64,55891,1,2,1:2:0:0:
144,132,56095,2,0,P|184:136|248:84,1,125.999996154785,0|2,1:1|2:2,0:0:0:0:
320,24,56707,1,2,1:2:0:0:
320,24,56809,1,2,1:2:0:0:
320,24,56911,2,0,L|388:32,1,62.9999980773926,10|2,2:2|1:2,0:0:0:0:
476,40,57319,1,10,2:2:0:0:
500,132,57523,6,0,B|424:200|440:300|440:300|360:224|244:208,1,392,4|8,1:2|2:2,0:0:0:0:
120,104,59360,6,0,P|109:55|101:15,1,77.0000023498536,4|0,1:2|0:0,0:0:0:0:
226,130,59768,1,0,1:1:0:0:
297,39,59972,1,2,3:2:0:0:
297,39,60176,2,0,P|345:29|456:6,1,154.000004699707,2|0,1:2|1:1,0:0:0:0:
509,106,60789,1,2,2:2:0:0:
427,188,60993,6,0,P|416:237|390:349,1,154.000004699707,2|0,1:2|1:1,0:0:0:0:
304,208,61605,1,2,3:2:0:0:
215,282,61809,2,0,P|161:296|130:304,1,77.0000023498536,2|0,1:2|0:0,0:0:0:0:
84,188,62217,2,0,P|30:174|-1:166,1,77.0000023498536,8|2,3:2|2:2,0:0:0:0:
157,104,62625,6,0,P|211:90|242:82,1,77.0000023498536,2|0,1:2|0:0,0:0:0:0:
338,128,63033,1,0,1:1:0:0:
259,213,63238,1,2,3:2:0:0:
259,213,63442,2,0,P|251:267|315:351,1,154.000004699707,2|0,1:2|1:1,0:0:0:0:
417,368,64054,1,2,2:2:0:0:
484,274,64258,6,0,P|492:215|507:108,1,154.000004699707,2|0,1:2|1:1,0:0:0:0:
451,19,64870,1,2,3:2:0:0:
367,98,65074,2,0,P|312:109|266:115,1,77.0000023498536,2|0,1:2|0:0,0:0:0:0:
402,188,65482,2,0,P|457:199|503:205,1,77.0000023498536,8|2,3:2|2:2,0:0:0:0:
328,251,65891,6,0,P|316:305|309:342,1,77.0000023498536,2|0,1:2|0:0,0:0:0:0:
203,366,66299,1,2,1:2:0:0:
156,260,66503,2,0,P|144:206|137:169,1,77.0000023498536,2|0,3:2|1:0,0:0:0:0:
55,87,66911,2,0,P|84:40|105:9,1,77.0000023498536,2|2,2:2|1:2,0:0:0:0:
211,7,67319,6,0,P|264:20|296:122,1,154.000004699707,2|2,3:2|2:2,0:0:0:0:
229,196,67931,2,0,P|178:203|133:208,1,77.0000023498536,2|0,1:2|3:3,0:0:0:0:
43,243,68340,2,0,P|29:302|22:332,1,77.0000023498536,2|2,1:2|3:2,0:0:0:0:
41,334,68646,1,2,3:2:0:0:
57,350,68748,2,0,P|105:362|143:369,1,77.0000023498536,10|0,3:2|0:0,0:0:0:0:
221,293,69156,6,0,P|273:278|311:268,1,77.0000023498536,2|2,1:2|2:2,0:0:0:0:
383,203,69564,1,2,1:2:0:0:
367,325,69768,2,0,P|412:353|517:338,1,154.000004699707,2|2,3:2|2:2,0:0:0:0:
498,228,70380,2,0,P|487:179|480:140,1,77.0000023498536,2|2,1:2|3:2,0:0:0:0:
424,52,70789,6,0,P|465:36|502:23,1,77.0000023498536,0|8,1:1|2:2,0:0:0:0:
391,139,71197,2,0,P|350:123|313:110,1,77.0000023498536,8|2,2:2|3:2,0:0:0:0:
214,63,71605,1,10,2:2:0:0:
214,63,71809,1,2,3:2:0:0:
167,168,72013,2,0,P|177:217|184:253,1,77.0000023498536,14|10,2:2|2:2,0:0:0:0:
276,308,72421,6,0,P|344:316|424:280,1,154.000004699707,4|2,1:2|1:2,0:0:0:0:
504,200,73033,2,0,L|484:116,1,77.0000023498536,2|0,3:2|1:0,0:0:0:0:
412,36,73442,1,2,2:2:0:0:
412,36,73646,1,10,2:2:0:0:
352,132,73850,2,0,B|292:120|292:120|256:136|256:136|200:128,2,154.000004699707,2|2|10,3:2|2:2|3:2,0:0:0:0:
328,244,74870,6,0,P|332:288|324:328,1,77.0000023498536,2|2,1:2|3:2,0:0:0:0:
224,376,75278,1,10,2:2:0:0:
224,376,75482,1,2,2:2:0:0:
140,296,75687,2,0,P|72:288|20:216,1,154.000004699707,2|2,1:2|1:2,0:0:0:0:
48,112,76299,2,0,L|128:96,1,77.0000023498536,2|0,3:2|1:1,0:0:0:0:
204,16,76707,1,2,2:2:0:0:
204,16,76911,1,8,2:2:0:0:
256,120,77115,6,0,P|320:104|404:128,1,154.000004699707,2|2,3:2|2:2,0:0:0:0:
504,184,77727,1,2,1:2:0:0:
408,244,77931,2,0,P|408:312|352:372,1,154.000004699707,8|2,3:2|3:2,0:0:0:0:
256,308,78544,1,8,2:2:0:0:
161,372,78748,5,2,2:2:0:0:
161,372,78850,1,2,0:0:0:0:
161,372,78952,2,0,P|107:319|104:243,1,154.000004699707,4|2,1:2|1:2,0:0:0:0:
140,132,79564,2,0,L|60:112,1,77.0000023498536,2|0,3:2|1:1,0:0:0:0:
200,212,79972,2,0,L|280:232,1,77.0000023498536,2|8,2:2|2:2,0:0:0:0:
384,192,80380,6,0,P|432:140|440:52,1,154.000004699707,2|2,3:2|2:2,0:0:0:0:
336,16,80993,1,2,1:2:0:0:
336,16,81197,2,0,L|184:44,1,154.000004699707,10|2,3:2|3:2,0:0:0:0:
72,64,81809,1,10,2:2:0:0:
144,160,82013,5,2,2:2:0:0:
144,160,82115,1,2,2:2:0:0:
144,160,82217,2,0,P|160:196|160:232,1,70,4|2,1:2|2:2,0:0:0:0:
136,328,82625,1,2,1:2:0:0:
136,328,82829,2,0,L|280:356,1,140,2|2,3:2|3:2,0:0:0:0:
376,372,83442,1,2,1:2:0:0:
460,308,83646,6,0,L|480:228,1,70,2|0,2:2|1:0,0:0:0:0:
420,152,84054,1,2,2:2:0:0:
420,152,84258,1,2,1:2:0:0:
332,208,84462,2,0,P|272:216|196:176,1,140,2|2,3:2|3:2,0:0:0:0:
136,100,85074,1,8,3:2:0:0:
96,212,85278,5,2,2:2:0:0:
96,212,85380,1,2,2:2:0:0:
96,212,85482,2,0,L|24:196,1,70,0|2,1:1|2:2,0:0:0:0:
8,92,85891,1,2,1:2:0:0:
84,16,86095,2,0,L|224:40,1,140,2|2,3:2|3:2,0:0:0:0:
324,56,86707,1,2,1:2:0:0:
340,160,86911,6,0,P|324:196|324:232,1,70,2|0,2:2|1:1,0:0:0:0:
400,296,87319,1,2,2:2:0:0:
400,296,87523,1,2,1:2:0:0:
312,352,87727,2,0,P|260:328|168:340,1,140,2|2,3:2|3:2,0:0:0:0:
76,352,88340,2,0,L|56:284,1,70,8|2,3:2|2:2,0:0:0:0:
28,196,88748,6,0,L|48:128,1,62.9999980773926,4|2,1:2|2:2,0:0:0:0:
20,57,89156,1,2,2:2:0:0:
93,19,89360,2,0,P|136:14|209:70,1,125.999996154785,2|2,1:2|2:2,0:0:0:0:
250,123,89972,2,0,P|261:180|269:210,1,62.9999980773926,10|2,2:2|2:2,0:0:0:0:
213,282,90380,6,0,P|168:290|135:296,1,62.9999980773926,0|2,1:1|2:2,0:0:0:0:
260,355,90789,1,2,2:2:0:0:
260,355,90993,2,0,P|305:363|386:376,1,125.999996154785,2|2,1:2|2:2,0:0:0:0:
431,309,91605,2,0,P|474:304|516:300,1,62.9999980773926,10|2,2:2|1:2,0:0:0:0:
371,248,92013,6,0,P|359:194|354:172,1,62.9999980773926,0|2,1:1|2:2,0:0:0:0:
423,137,92421,1,2,2:2:0:0:
363,80,92625,2,0,P|328:57|237:67,1,125.999996154785,2|2,1:2|2:2,0:0:0:0:
187,118,93238,2,0,P|198:163|205:194,1,62.9999980773926,10|2,2:2|2:2,0:0:0:0:
270,250,93646,6,0,P|259:295|252:326,1,62.9999980773926,0|2,1:1|2:2,0:0:0:0:
202,373,94054,1,2,2:2:0:0:
141,318,94258,2,0,P|96:308|3:287,1,125.999996154785,2|2,1:2|1:2,0:0:0:0:
99,223,94870,2,0,P|91:177|86:145,1,62.9999980773926,10|2,2:2|2:2,0:0:0:0:
76,69,95278,6,0,P|29:59|-3:52,1,62.9999980773926,0|2,1:1|2:2,0:0:0:0:
130,7,95687,1,2,2:2:0:0:
187,64,95891,2,0,P|241:83|312:67,1,125.999996154785,2|2,1:2|2:2,0:0:0:0:
368,15,96503,2,0,P|423:7|455:2,1,62.9999980773926,10|2,2:2|2:2,0:0:0:0:
499,81,96911,5,0,1:1:0:0:
499,81,97115,2,0,P|488:124|481:153,1,62.9999980773926,2|2,2:2|2:2,0:0:0:0:
414,185,97523,2,0,P|426:240|444:320,1,125.999996154785,2|2,1:2|2:2,0:0:0:0:
359,320,98136,2,0,P|351:355|339:406,1,62.9999980773926,10|2,2:2|1:2,0:0:0:0:
248,284,98544,6,0,P|215:235|230:147,1,125.999996154785,0|2,1:1|2:2,0:0:0:0:
280,118,99156,2,0,P|226:123|137:134,1,125.999996154785,2|2,1:2|2:2,0:0:0:0:
74,115,99768,2,0,P|63:70|57:42,1,62.9999980773926,10|0,2:2|0:0,0:0:0:0:
23,187,100176,5,0,1:1:0:0:
23,186,100380,2,0,P|15:217|8:248,1,62.9999980773926,2|0,2:2|0:0,0:0:0:0:
5,330,100789,2,0,P|41:348|128:328,1,125.999996154785,2|2,1:2|1:2,0:0:0:0:
188,285,101401,2,0,P|235:292|268:297,1,62.9999980773926,10|2,2:2|2:2,0:0:0:0:
332,260,101809,6,0,P|379:267|416:272,1,70,0|2,1:1|2:2,0:0:0:0:
463,337,102217,1,2,2:2:0:0:
504,256,102421,2,0,P|500:180|456:116,1,140,2|2,1:2|2:2,0:0:0:0:
396,72,103033,1,10,2:2:0:0:
396,72,103238,1,2,3:2:0:0:
344,144,103442,6,0,L|272:128,1,70,0|2,1:1|2:2,0:0:0:0:
188,112,103850,1,2,2:2:0:0:
100,96,104054,2,0,P|64:128|40:228,1,140,2|2,1:2|2:2,0:0:0:0:
76,296,104666,2,0,L|152:328,1,70,10|2,2:2|1:2,0:0:0:0:
228,352,105074,1,0,1:1:0:0:
260,268,105278,6,0,B|332:248|332:292|400:268,1,140,2|2,2:2|1:2,0:0:0:0:
444,192,105891,2,0,L|416:128,1,70,2|2,2:2|2:2,0:0:0:0:
380,44,106299,1,10,2:2:0:0:
320,112,106503,2,0,P|264:120|184:84,2,140,2|2|0,3:2|2:2|1:1,0:0:0:0:
380,44,107523,2,0,L|448:56,1,70,2|0,2:2|1:1,0:0:0:0:
492,136,107931,1,10,2:2:0:0:
492,136,108136,1,2,2:2:0:0:
440,212,108340,6,0,L|372:200,1,70,2|2,1:2|0:0,0:0:0:0:
296,252,108748,2,0,P|304:296|300:324,1,70,2|2,2:2|1:2,0:0:0:0:
220,360,109156,1,2,2:2:0:0:
220,360,109360,1,2,2:2:0:0:
148,304,109564,2,0,P|104:312|76:308,1,70,10|2,2:2|3:2,0:0:0:0:
24,236,109972,1,0,1:1:0:0:
64,156,110176,6,0,L|200:120,1,140,2|0,2:2|1:1,0:0:0:0:
260,52,110789,2,0,L|308:108,1,70,8|2,2:2|1:2,0:0:0:0:
364,176,111197,1,10,2:2:0:0:
364,176,111401,1,2,2:2:0:0:
428,108,111605,5,4,1:2:0:0:
428,108,112013,2,0,P|481:119|519:127,1,62.9999980773926,2|2,1:2|3:2,0:0:0:0:
359,202,112421,2,0,P|306:213|268:221,1,62.9999980773926,0|2,1:1|3:2,0:0:0:0:
434,303,112829,2,0,P|445:264|455:222,1,62.9999980773926,2|2,1:2|2:2,0:0:0:0:
334,349,113238,5,0,1:1:0:0:
334,349,113646,2,0,P|323:310|313:268,1,62.9999980773926,2|0,1:2|3:3,0:0:0:0:
225,367,114054,2,0,P|186:356|144:346,1,62.9999980773926,0|2,1:1|3:2,0:0:0:0:
74,320,114462,5,10,3:2:0:0:
74,320,114666,2,0,P|63:360|58:385,1,62.9999980773926,2|0,2:2|1:1,0:0:0:0:
26,246,115074,2,0,P|15:206|10:181,1,62.9999980773926,2|0,2:2|1:1,0:0:0:0:
64,106,115482,2,0,P|20:91|-13:83,1,62.9999980773926,2|0,3:2|1:0,0:0:0:0:
106,183,115891,2,0,P|161:208|239:187,1,125.999996154785,2|2,3:2|2:2,0:0:0:0:
292,136,116503,5,0,1:1:0:0:
349,211,116707,2,0,P|362:260|383:350,1,125.999996154785,2|2,2:2|3:2,0:0:0:0:
448,224,117319,2,0,P|503:236|526:240,1,62.9999980773926,0|2,1:0|3:2,0:0:0:0:
416,134,117727,1,10,3:2:0:0:
416,134,117931,1,10,2:2:0:0:
325,193,118136,6,0,P|271:205|186:222,1,125.999996154785,4|2,1:2|2:2,0:0:0:0:
107,220,118748,2,0,P|103:266|99:299,1,62.9999980773926,2|8,1:2|2:2,0:0:0:0:
24,171,119156,1,2,2:2:0:0:
94,108,119360,2,0,P|98:62|102:29,1,62.9999980773926,2|0,2:2|1:1,0:0:0:0:
196,7,119768,5,0,1:1:0:0:
272,62,119972,2,0,P|310:80|410:57,1,125.999996154785,8|0,2:2|1:1,0:0:0:0:
475,26,120584,2,0,P|477:68|479:103,1,62.9999980773926,8|2,2:2|2:2,0:0:0:0:
437,174,120993,2,0,P|395:172|360:170,1,62.9999980773926,2|2,2:2|1:2,0:0:0:0:
475,260,121401,6,0,P|486:318|453:376,1,125.999996154785,0|2,1:1|2:2,0:0:0:0:
380,298,122013,1,2,1:2:0:0:
380,298,122115,1,2,1:2:0:0:
380,298,122217,2,0,P|338:292|295:286,1,62.9999980773926,10|2,2:2|1:2,0:0:0:0:
238,340,122625,1,10,2:2:0:0:
173,270,122829,6,0,B|112:215|102:134|144:74|220:61|220:61|252:137|192:183,1,392,4|8,1:2|2:2,0:0:0:0:
352,148,124666,6,0,P|424:132|500:168,1,154.000004699707,4|0,1:2|1:1,0:0:0:0:
448,268,125278,1,2,3:2:0:0:
400,372,125482,2,0,L|232:348,1,154.000004699707,2|0,1:2|1:1,0:0:0:0:
132,332,126095,1,2,2:2:0:0:
200,240,126299,6,0,P|216:204|216:160,1,77.0000023498536,2|0,1:2|0:0,0:0:0:0:
132,88,126707,1,0,1:1:0:0:
228,28,126911,1,2,3:2:0:0:
228,28,127115,2,0,P|264:44|308:44,1,77.0000023498536,2|0,1:2|3:3,0:0:0:0:
416,28,127523,1,8,3:2:0:0:
484,120,127727,1,2,2:2:0:0:
376,164,127931,6,0,P|328:228|320:308,1,154.000004699707,2|0,1:2|1:1,0:0:0:0:
224,368,128544,1,2,3:2:0:0:
156,276,128748,2,0,L|-4:252,1,154.000004699707,2|0,1:2|1:1,0:0:0:0:
16,140,129360,1,2,2:2:0:0:
16,140,129564,2,0,L|176:164,1,154.000004699707,2|0,1:2|1:1,0:0:0:0:
280,132,130176,1,2,3:2:0:0:
360,212,130380,2,0,L|380:292,1,77.0000023498536,2|0,1:2|3:3,0:0:0:0:
284,356,130789,2,0,L|209:374,1,77.0000023498536,8|2,3:2|2:2,0:0:0:0:
156,276,131197,6,0,B|136:216|136:216|148:184|148:184|132:128,1,154.000004699707,2|2,1:2|1:2,0:0:0:0:
200,36,131809,2,0,P|244:28|280:36,1,77.0000023498536,2|0,3:2|1:1,0:0:0:0:
340,132,132217,2,0,P|377:138|415:130,1,77.0000023498536,2|2,2:2|1:2,0:0:0:0:
492,216,132625,6,0,L|468:372,1,154.000004699707,2|2,3:2|2:2,0:0:0:0:
352,352,133238,1,2,1:2:0:0:
236,336,133442,1,0,3:3:0:0:
236,336,133544,1,0,3:3:0:0:
236,336,133646,2,0,P|200:352|160:352,1,77.0000023498536,2|2,1:2|3:2,0:0:0:0:
60,296,134054,2,0,P|80:260|84:216,1,77.0000023498536,10|0,3:2|0:0,0:0:0:0:
92,108,134462,6,0,L|168:116,1,77.0000023498536,2|2,1:2|2:2,0:0:0:0:
268,60,134870,1,2,1:2:0:0:
356,132,135074,1,2,3:2:0:0:
448,64,135278,2,0,B|488:100|488:100|472:204,1,154.000004699707,0|2,1:1|1:2,0:0:0:0:
448,312,135891,2,0,B|412:352|412:352|308:336,1,154.000004699707,2|8,3:2|2:2,0:0:0:0:
200,324,136503,1,8,2:2:0:0:
256,224,136707,6,0,L|332:236,1,77.0000023498536,2|10,3:2|2:2,0:0:0:0:
228,132,137115,1,2,3:2:0:0:
228,132,137217,1,2,3:2:0:0:
228,132,137319,2,0,L|152:120,1,77.0000023498536,14|10,2:2|2:2,0:0:0:0:
38,48,137727,6,0,P|17:99|53:206,1,154.000004699707,4|2,1:2|1:2,0:0:0:0:
126,269,138340,2,0,P|135:324|142:362,1,77.0000023498536,2|0,3:2|1:1,0:0:0:0:
220,210,138748,1,2,2:2:0:0:
220,210,138952,1,10,2:2:0:0:
303,289,139156,6,0,P|360:304|396:314,1,77.0000023498536,2|0,3:2|1:0,0:0:0:0:
476,250,139564,2,0,P|499:207|480:94,1,154.000004699707,2|10,2:2|3:2,0:0:0:0:
373,85,140176,2,0,P|361:27|355:-2,1,77.0000023498536,2|2,1:2|3:2,0:0:0:0:
277,148,140584,2,0,P|230:154|185:161,1,77.0000023498536,10|2,2:2|2:2,0:0:0:0:
349,223,140993,6,0,P|376:272|357:368,1,154.000004699707,2|2,1:2|1:2,0:0:0:0:
253,288,141605,2,0,P|198:276|159:269,1,77.0000023498536,2|0,3:2|1:1,0:0:0:0:
62,270,142013,2,0,P|54:313|47:359,1,77.0000023498536,2|8,2:2|2:2,0:0:0:0:
16,197,142421,6,0,P|9:125|61:62,1,154.000004699707,2|2,3:2|2:2,0:0:0:0:
157,7,143033,1,2,1:2:0:0:
257,65,143238,2,0,P|312:77|421:93,1,154.000004699707,8|2,3:2|3:2,0:0:0:0:
507,30,143850,1,8,2:2:0:0:
507,30,144054,1,10,2:2:0:0:
507,145,144258,6,0,P|493:195|483:233,1,77.0000023498536,4|0,1:2|0:0,0:0:0:0:
497,334,144666,1,2,1:2:0:0:
387,272,144870,2,0,P|330:262|229:245,1,154.000004699707,2|2,3:2|2:2,0:0:0:0:
120,229,145482,1,8,2:2:0:0:
226,149,145687,6,0,P|240:95|249:60,1,77.0000023498536,2|0,3:2|1:1,0:0:0:0:
121,75,146095,2,0,P|107:21|98:-14,1,77.0000023498536,2|2,2:2|1:2,0:0:0:0:
26,129,146503,2,0,P|0:177|29:272,1,154.000004699707,10|2,3:2|3:2,0:0:0:0:
99,356,147115,2,0,P|160:363|189:366,1,77.0000023498536,10|10,2:2|2:2,0:0:0:0:
312,296,147523,6,0,P|251:289|222:286,1,77.0000023498536,4|2,1:2|2:2,0:0:0:0:
152,208,147931,1,2,1:2:0:0:
240,136,148136,2,0,P|296:104|328:16,1,154.000004699707,8|2,2:2|1:2,0:0:0:0:
444,20,148748,2,0,L|428:104,1,77.0000023498536,10|2,2:2|3:2,0:0:0:0:
412,212,149156,6,0,P|452:220|484:244,1,77.0000023498536,0|2,1:1|2:2,0:0:0:0:
460,356,149564,1,2,1:2:0:0:
356,304,149768,2,0,L|208:344,1,154.000004699707,10|2,2:2|1:2,0:0:0:0:
124,264,150380,2,0,P|120:224|104:188,1,77.0000023498536,10|2,2:2|3:2,0:0:0:0:
20,112,150789,6,0,P|5:76|1:38,1,77.0000023498536,0|2,1:1|2:2,0:0:0:0:
116,24,151197,1,2,1:2:0:0:
232,12,151401,2,0,P|200:68|212:160,1,154.000004699707,10|2,2:2|1:2,0:0:0:0:
280,244,152013,1,10,2:2:0:0:
352,336,152217,5,2,3:2:0:0:
352,336,152319,1,2,3:2:0:0:
352,336,152421,2,0,L|432:320,1,77.0000023498536,0|2,1:1|2:2,0:0:0:0:
496,228,152829,1,2,1:2:0:0:
412,152,153033,2,0,P|364:96|360:16,1,154.000004699707,10|0,2:2|1:1,0:0:0:0:
256,76,153646,1,10,2:2:0:0:
256,76,153850,1,8,2:2:0:0:
152,18,154054,6,0,P|148:94|100:152,1,154.000004699707,4|2,1:2|0:0,0:0:0:0:
24,236,154666,1,2,1:2:0:0:
24,236,154870,2,0,L|60:312,1,77.0000023498536,8|2,2:2|3:2,0:0:0:0:
172,284,155278,2,0,L|208:360,1,77.0000023498536,2|2,2:2|1:2,0:0:0:0:
312,312,155687,5,0,1:1:0:0:
320,196,155891,2,0,P|280:160|256:56,1,154.000004699707,10|2,2:2|1:2,0:0:0:0:
360,20,156503,2,0,P|400:56|424:160,1,154.000004699707,8|2,2:2|2:2,0:0:0:0:
412,264,157115,1,0,1:1:0:0:
320,196,157319,6,0,L|168:152,1,154.000004699707,4|2,1:2|2:2,0:0:0:0:
60,120,157931,1,2,1:2:0:0:
60,120,158033,1,2,1:2:0:0:
60,120,158136,2,0,P|40:156|36:192,1,77.0000023498536,8|2,2:2|1:2,0:0:0:0:
100,288,158544,2,0,P|120:252|124:216,1,77.0000023498536,10|2,2:2|3:2,0:0:0:0:
148,76,158952,1,4,1:2:0:0:
256,192,159054,12,4,160584,1:2:0:0:
32,88,167115,6,0,P|92:78|160:66,1,125.999996154785,2|2,1:2|1:2,0:0:0:0:
229,115,167727,2,0,P|275:128|315:139,1,62.9999980773926,2|0,2:2|1:1,0:0:0:0:
354,71,168136,2,0,P|384:62|414:53,1,62.9999980773926,2|0,2:2|1:1,0:0:0:0:
499,76,168544,6,0,P|520:122|479:205,1,125.999996154785,2|2,2:2|0:0,0:0:0:0:
419,231,169156,2,0,P|406:267|394:305,1,62.9999980773926,2|2,1:2|0:0,0:0:0:0:
323,343,169564,2,0,P|313:313|302:283,1,62.9999980773926,2|2,1:2|2:2,0:0:0:0:
266,196,169972,2,0,P|275:166|286:136,1,62.9999980773926,2|0,1:2|0:0,0:0:0:0:
275,45,170380,6,0,P|321:10|395:21,2,125.999996154785,2|2|0,1:2|1:2|1:1,0:0:0:0:
214,109,171401,1,2,2:2:0:0:
214,109,171605,1,10,2:2:0:0:
121,21,171809,5,4,1:2:0:0:
121,21,172217,1,8,2:2:0:0:
61,99,172421,2,0,P|25:115|-9:132,1,62.9999980773926,8|2,2:2|1:2,0:0:0:0:
135,162,172829,2,0,P|171:178|205:195,1,62.9999980773926,10|2,2:2|1:2,0:0:0:0:
286,140,173238,1,14,2:2:0:0:
365,202,173442,1,10,2:2:0:0:
296,296,173646,6,0,P|216:296|148:340,1,154.000004699707,4|2,1:2|1:2,0:0:0:0:
56,272,174258,2,0,L|32:188,1,77.0000023498536,2|0,3:2|1:1,0:0:0:0:
4,88,174666,1,2,2:2:0:0:
4,88,174870,1,10,2:2:0:0:
112,128,175074,2,0,P|164:112|228:32,1,154.000004699707,2|2,3:2|2:2,0:0:0:0:
340,8,175687,1,0,1:0:0:0:
364,120,175891,6,0,L|444:132,1,77.0000023498536,10|2,3:2|1:2,0:0:0:0:
504,228,176299,1,2,3:2:0:0:
404,284,176503,2,0,P|408:324|392:368,1,77.0000023498536,10|2,2:2|2:2,0:0:0:0:
284,344,176911,2,0,P|280:304|296:260,1,77.0000023498536,0|2,1:1|2:2,0:0:0:0:
244,164,177319,1,2,1:2:0:0:
192,268,177523,6,0,B|118:243|118:287|38:263,1,154.000004699707,2|2,3:2|2:2,0:0:0:0:
8,152,178136,1,10,2:2:0:0:
40,40,178340,2,0,B|117:16|117:60|191:35,1,154.000004699707,2|2,3:2|2:2,0:0:0:0:
304,12,178952,1,2,1:2:0:0:
332,124,179156,2,0,P|404:112|472:156,1,154.000004699707,10|2,3:2|0:0,0:0:0:0:
492,268,179768,1,8,2:2:0:0:
384,340,179972,5,10,2:2:0:0:
384,340,180074,1,0,1:0:0:0:
384,340,180176,2,0,B|324:328|324:328|300:340|300:340|232:328,1,154.000004699707,2|2,1:2|1:2,0:0:0:0:
120,308,180789,2,0,P|148:272|156:240,1,77.0000023498536,2|0,3:2|1:0,0:0:0:0:
156,128,181197,2,0,P|120:100|88:92,1,77.0000023498536,2|8,2:2|2:2,0:0:0:0:
160,0,181605,6,0,P|200:32|300:44,1,154.000004699707,2|2,3:2|2:2,0:0:0:0:
412,28,182217,1,2,1:2:0:0:
412,28,182421,2,0,L|460:176,1,154.000004699707,10|2,3:2|3:2,0:0:0:0:
492,284,183033,1,10,2:2:0:0:
364,252,183238,5,2,2:2:0:0:
364,252,183340,1,2,2:2:0:0:
364,252,183442,2,0,L|341:175,1,70,4|2,1:2|2:2,0:0:0:0:
312,84,183850,1,2,1:2:0:0:
312,84,184054,2,0,P|272:116|184:112,1,140,2|2,3:2|3:2,0:0:0:0:
84,84,184666,1,2,1:2:0:0:
100,188,184870,6,0,P|72:220|56:316,1,140,2|2,2:2|2:2,0:0:0:0:
160,336,185482,1,2,1:2:0:0:
220,248,185687,2,0,L|288:268,1,70,2|0,3:2|1:1,0:0:0:0:
392,288,186095,2,0,P|420:256|428:224,1,70,2|8,3:2|3:2,0:0:0:0:
452,108,186503,5,2,2:2:0:0:
452,108,186605,1,2,2:2:0:0:
452,108,186707,2,0,P|440:51|434:17,1,70,0|2,1:1|2:2,0:0:0:0:
348,137,187115,1,2,1:2:0:0:
284,53,187319,2,0,P|225:22|129:38,1,140,2|2,3:2|3:2,0:0:0:0:
82,83,187931,2,0,P|44:92|2:102,1,70,2|2,1:2|2:2,0:0:0:0:
143,149,188340,6,0,P|155:196|163:228,1,70,0|2,1:0|2:2,0:0:0:0:
97,282,188748,1,2,1:2:0:0:
190,342,188952,2,0,P|251:353|339:366,1,140,2|2,3:2|3:2,0:0:0:0:
405,316,189564,2,0,P|411:267|417:229,1,70,8|2,3:2|2:2,0:0:0:0:
402,229,189870,1,2,2:2:0:0:
387,214,189972,6,0,P|381:165|375:127,1,70,4|2,1:2|2:2,0:0:0:0:
445,83,190380,1,2,1:2:0:0:
362,12,190584,2,0,P|301:22|262:90,1,140,2|2,3:2|3:2,0:0:0:0:
223,167,191197,2,0,P|241:224|250:252,1,70,2|2,1:2|2:2,0:0:0:0:
310,300,191605,6,0,P|292:357|283:385,1,70,0|2,1:1|2:2,0:0:0:0:
187,295,192013,1,2,1:2:0:0:
101,361,192217,2,0,P|55:337|26:243,1,140,2|2,3:2|3:2,0:0:0:0:
112,239,192829,2,0,P|118:199|124:151,1,70,8|2,3:2|2:2,0:0:0:0:
106,154,193135,1,2,2:2:0:0:
91,139,193237,6,0,P|85:99|70:-16,1,140,0|2,1:1|1:2,0:0:0:0:
168,51,193850,2,0,P|222:60|258:66,1,70,2|0,3:2|1:0,0:0:0:0:
317,19,194258,1,2,3:2:0:0:
370,92,194462,2,0,P|364:139|359:178,1,70,2|2,1:2|1:2,0:0:0:0:
338,266,194870,5,8,2:2:0:0:
256,192,195071,2,0,P|219:182|174:172,1,70,2|2,1:2|1:2,0:0:0:0:
84,145,195474,2,0,P|34:169|12:264,1,140,10|2,2:2|1:2,0:0:0:0:
63,341,196078,2,0,P|127:354|160:361,1,70,10|10,2:2|2:2,0:0:0:0:
227,290,196480,5,4,1:2:0:0:
256,192,196581,12,0,203729,0:0:0:0:
