osu file format v14

[General]
AudioFilename: audio.mp3
AudioLeadIn: 0
PreviewTime: 4457
Countdown: 0
SampleSet: Normal
StackLeniency: 0.9
Mode: 0
LetterboxInBreaks: 0
WidescreenStoryboard: 0

[Editor]
Bookmarks: 36899
DistanceSpacing: 0.5
BeatDivisor: 4
GridSize: 16
TimelineZoom: 1

[Metadata]
Title:Freely Tomorrow (short ver.)
TitleUnicode:Freely Tomorrow (short ver.)
Artist:Hyurno
ArtistUnicode:Hyurno
Creator:Cheezit
Version:Hard
Source:
Tags:Hyo Hyurno Freely Tomorrow
BeatmapID:1394136
BeatmapSetID:658191

[Difficulty]
HPDrainRate:7
CircleSize:4
OverallDifficulty:7
ApproachRate:9
SliderMultiplier:1.40000000596046
SliderTickRate:1

[Events]
//Background and Video events
0,0,"freelytomorrowimg.jpg",0,0
//Break Periods
2,20704,34555
//Storyboard Layer 0 (Background)
//Storyboard Layer 1 (Fail)
//Storyboard Layer 2 (Pass)
//Storyboard Layer 3 (Foreground)
//Storyboard Sound Samples

[TimingPoints]
5271.53412658903,465.116279069767,4,1,0,75,1,0

[HitObjects]
256,80,4457,5,0,0:0:0:0:
256,144,4922,2,0,L|256:288,2,140.000000596046
368,272,6201,2,0,P|416:160|400:128,1,140.000000596046
320,96,7015,5,0,0:0:0:0:
320,96,7131,1,0,0:0:0:0:
320,96,7248,1,0,0:0:0:0:
144,96,7480,1,0,0:0:0:0:
304,240,7713,1,0,0:0:0:0:
176,256,8062,2,0,P|128:176|144:128,1,140.000000596046
256,96,8876,6,0,P|336:144|320:192,1,140.000000596046
320,288,9573,2,0,P|256:320|192:288,1,140.000000596046
195,297,10271,1,0,0:0:0:0:
195,297,10504,1,0,0:0:0:0:
144,160,10736,1,0,0:0:0:0:
144,160,10853,1,0,0:0:0:0:
144,160,10969,1,0,0:0:0:0:
240,64,11201,1,0,0:0:0:0:
352,192,11434,1,0,0:0:0:0:
144,192,11667,1,0,0:0:0:0:
352,192,11899,1,0,0:0:0:0:
144,192,12132,1,0,0:0:0:0:
272,80,12597,6,0,B|336:128|272:176|240:176,1,140.000000596046
128,96,13294,1,0,0:0:0:0:
112,192,13643,2,0,B|160:240|240:272|304:240|352:192,1,245.00000104308
336,208,14690,1,0,0:0:0:0:
400,96,14922,1,0,0:0:0:0:
256,48,15155,1,0,0:0:0:0:
128,80,15504,6,0,B|96:128|112:208|155:230|256:224,1,245.00000104308
352,192,16550,1,0,0:0:0:0:
128,64,16783,1,0,0:0:0:0:
128,64,16899,1,0,0:0:0:0:
176,288,17248,1,0,0:0:0:0:
320,64,17480,1,0,0:0:0:0:
128,176,17713,1,0,0:0:0:0:
352,224,17945,1,0,0:0:0:0:
192,64,18178,1,0,0:0:0:0:
240,304,18411,1,0,0:0:0:0:
240,176,18643,1,0,0:0:0:0:
240,176,18760,1,0,0:0:0:0:
256,192,18992,12,0,20504,0:0:0:0:
160,112,35155,5,0,0:0:0:0:
272,192,35387,1,0,0:0:0:0:
272,192,35504,2,0,B|352:160|416:192|416:256|368:304|320:272,1,245.00000104308
323,274,36434,1,0,0:0:0:0:
323,274,36550,1,0,0:0:0:0:
176,272,36783,1,0,0:0:0:0:
288,160,37015,1,0,0:0:0:0:
160,96,37248,1,0,0:0:0:0:
160,96,37364,1,0,0:0:0:0:
224,256,37713,6,0,B|272:288|368:256|384:192|336:160|272:128|176:128,1,350.000001490115
80,112,39108,1,0,0:0:0:0:
80,112,39225,1,0,0:0:0:0:
224,256,40039,1,0,0:0:0:0:
224,256,40155,1,0,0:0:0:0:
224,256,40271,1,0,0:0:0:0:
400,144,40504,1,0,0:0:0:0:
176,112,40736,1,0,0:0:0:0:
304,272,40969,1,0,0:0:0:0:
304,272,41085,1,0,0:0:0:0:
160,272,41434,1,0,0:0:0:0:
368,80,42364,5,0,0:0:0:0:
144,176,42597,1,0,0:0:0:0:
368,272,42829,1,0,0:0:0:0:
224,64,43294,1,0,0:0:0:0:
160,288,43527,1,0,0:0:0:0:
352,160,43759,1,0,0:0:0:0:
144,192,44225,1,0,0:0:0:0:
224,112,44690,6,0,B|304:96|352:112|368:144,1,140.000000596046
416,176,45387,1,0,0:0:0:0:
416,176,45620,1,0,0:0:0:0:
384,288,46085,2,0,P|320:288|304:288,2,70.000000298023
432,192,46783,1,0,0:0:0:0:
320,96,47015,1,0,0:0:0:0:
176,96,47248,1,0,0:0:0:0:
176,96,47364,1,0,0:0:0:0:
96,160,47597,2,0,B|144:224|208:256|304:240|384:192,1,315.000001341103
256,96,48876,5,0,0:0:0:0:
352,240,49108,1,0,0:0:0:0:
352,240,49225,1,0,0:0:0:0:
176,240,49457,1,0,0:0:0:0:
288,288,50039,5,0,0:0:0:0:
352,192,50271,1,0,0:0:0:0:
352,192,50387,1,0,0:0:0:0:
128,112,51201,1,0,0:0:0:0:
128,112,51317,1,0,0:0:0:0:
128,112,51433,1,0,0:0:0:0:
144,256,51667,1,0,0:0:0:0:
256,128,51899,1,0,0:0:0:0:
384,96,52132,1,0,0:0:0:0:
384,96,52248,1,0,0:0:0:0:
432,208,52597,2,0,B|352:288|272:288|240:272,1,210.000000894069
160,96,53760,5,0,0:0:0:0:
176,288,53992,1,0,0:0:0:0:
176,288,54108,2,0,B|288:288|304:224|352:208,1,175.000000745057
416,144,54922,1,0,0:0:0:0:
320,80,55155,5,0,0:0:0:0:
176,112,55387,1,0,0:0:0:0:
112,240,55620,1,0,0:0:0:0:
256,256,55853,1,0,0:0:0:0:
256,256,55969,1,0,0:0:0:0:
352,144,56318,2,0,B|288:96|208:64|144:96,1,210.000000894069
112,208,57248,5,0,0:0:0:0:
224,288,57481,1,0,0:0:0:0:
192,144,57713,1,0,0:0:0:0:
384,160,58178,5,0,0:0:0:0:
256,80,58411,1,0,0:0:0:0:
272,272,58643,1,0,0:0:0:0:
128,144,59108,1,0,0:0:0:0:
304,64,59574,5,0,0:0:0:0:
400,176,59806,1,0,0:0:0:0:
272,240,60039,1,0,0:0:0:0:
160,144,60271,1,0,0:0:0:0:
128,304,60504,1,0,0:0:0:0:
352,80,60969,5,0,0:0:0:0:
224,80,61201,2,0,L|160:112,1,70.000000298023
176,224,61899,1,0,0:0:0:0:
288,256,62132,2,0,L|352:192,1,70.000000298023
368,80,62829,5,0,0:0:0:0:
208,80,63062,1,0,0:0:0:0:
128,192,63294,1,0,0:0:0:0:
208,288,63992,1,0,0:0:0:0:
304,224,64457,1,0,0:0:0:0:
352,128,64690,1,0,0:0:0:0:
224,96,66085,5,0,0:0:0:0:
128,208,66550,1,0,0:0:0:0:
176,256,66783,1,0,0:0:0:0:
224,304,67015,1,0,0:0:0:0:
368,256,67946,2,0,P|384:224|352:192,1,70.000000298023
288,96,68411,1,0,0:0:0:0:
128,96,68644,1,0,0:0:0:0:
224,208,68876,1,0,0:0:0:0:
128,304,69806,5,0,0:0:0:0:
144,112,70039,1,0,0:0:0:0:
304,256,70271,1,0,0:0:0:0:
288,96,70504,1,0,0:0:0:0:
400,144,70736,1,0,0:0:0:0:
224,176,71201,1,0,0:0:0:0:
352,304,71667,1,0,0:0:0:0:
160,320,72132,5,0,0:0:0:0:
112,176,72481,1,0,0:0:0:0:
208,112,72829,1,0,0:0:0:0:
320,160,73178,1,0,0:0:0:0:
352,304,73527,1,0,0:0:0:0:
400,208,73992,5,0,0:0:0:0:
160,96,74341,1,0,0:0:0:0:
192,320,74690,1,0,0:0:0:0:
320,80,75039,1,0,0:0:0:0:
336,304,75387,1,0,0:0:0:0:
192,160,75853,1,0,0:0:0:0:
240,64,76202,1,0,0:0:0:0:
256,192,76550,12,0,78411,0:0:0:0:
160,96,78876,5,0,0:0:0:0:
208,160,79341,1,0,0:0:0:0:
256,224,79806,1,0,0:0:0:0:
304,288,80271,1,0,0:0:0:0:
384,320,80620,2,0,P|416:224|340:105,1,245.00000104308
255,69,81667,1,0,0:0:0:0:
144,96,81899,1,0,0:0:0:0:
112,224,82132,1,0,0:0:0:0:
272,336,82481,2,0,P|352:288|352:240,1,140.000000596046
192,144,83294,5,0,0:0:0:0:
272,288,83527,1,0,0:0:0:0:
304,144,83760,1,0,0:0:0:0:
144,256,83992,1,0,0:0:0:0:
128,96,84341,1,0,0:0:0:0:
256,160,84690,5,0,0:0:0:0:
256,160,84806,1,0,0:0:0:0:
256,160,84922,1,0,0:0:0:0:
352,80,85155,1,0,0:0:0:0:
160,256,85387,1,0,0:0:0:0:
336,224,85620,1,0,0:0:0:0:
336,224,85736,1,0,0:0:0:0:
144,96,86085,1,0,0:0:0:0:
240,288,86318,1,0,0:0:0:0:
320,144,86550,1,0,0:0:0:0:
128,144,87015,5,0,0:0:0:0:
192,240,87248,1,0,0:0:0:0:
304,240,87481,1,0,0:0:0:0:
112,288,87713,1,0,0:0:0:0:
192,96,88062,2,0,P|304:80|336:112,1,140.000000596046
304,288,88876,5,0,0:0:0:0:
192,288,89108,1,0,0:0:0:0:
368,192,89341,1,0,0:0:0:0:
144,192,89574,1,0,0:0:0:0:
256,64,89922,2,0,L|256:256,1,175.000000745057
128,288,90736,5,0,0:0:0:0:
176,144,90969,1,0,0:0:0:0:
336,160,91201,1,0,0:0:0:0:
336,160,91318,1,0,0:0:0:0:
304,304,91667,1,0,0:0:0:0:
160,192,91899,1,0,0:0:0:0:
240,48,92131,1,0,0:0:0:0:
384,128,92364,1,0,0:0:0:0:
256,192,92596,1,0,0:0:0:0:
112,128,92829,1,0,0:0:0:0:
336,288,93062,1,0,0:0:0:0:
336,288,93178,1,0,0:0:0:0:
160,272,94225,6,0,P|144:192|176:160,1,105.000000447034
256,80,94922,1,0,0:0:0:0:
352,176,95155,1,0,0:0:0:0:
288,288,95504,2,0,P|208:304|160:272,1,140.000000596046
112,128,96318,5,0,0:0:0:0:
208,208,96550,1,0,0:0:0:0:
288,112,96783,1,0,0:0:0:0:
368,192,97015,1,0,0:0:0:0:
272,320,97364,1,0,0:0:0:0:
144,144,98178,6,0,P|160:112|192:96,1,70.000000298023
288,160,98643,1,0,0:0:0:0:
240,288,98876,1,0,0:0:0:0:
128,288,99225,1,0,0:0:0:0:
320,240,99574,1,0,0:0:0:0:
320,240,99690,1,0,0:0:0:0:
320,240,99806,1,0,0:0:0:0:
144,144,100039,1,0,0:0:0:0:
288,96,100271,1,0,0:0:0:0:
192,288,100504,1,0,0:0:0:0:
192,288,100620,1,0,0:0:0:0:
368,208,100969,1,0,0:0:0:0:
160,112,101201,1,0,0:0:0:0:
288,288,101434,1,0,0:0:0:0:
352,128,101899,5,0,0:0:0:0:
144,160,102132,1,0,0:0:0:0:
256,288,102364,1,0,0:0:0:0:
192,64,102597,2,0,L|224:80,1,35.0000001490115
272,128,102829,2,0,L|288:160,1,35.0000001490115
304,224,103178,2,0,L|304:272,1,35.0000001490115
144,272,103760,5,0,0:0:0:0:
144,144,103992,1,0,0:0:0:0:
288,128,104225,1,0,0:0:0:0:
336,240,104457,2,0,L|304:256,1,35.0000001490115
256,272,104689,2,0,L|224:256,1,35.0000001490115
176,224,105039,2,0,L|160:192,1,35.0000001490115
304,128,105620,5,0,0:0:0:0:
112,112,105853,1,0,0:0:0:0:
208,240,106085,1,0,0:0:0:0:
368,224,106318,1,0,0:0:0:0:
224,80,106783,1,0,0:0:0:0:
96,224,107248,1,0,0:0:0:0:
256,272,107713,1,0,0:0:0:0:
336,112,108178,2,0,L|288:96,1,35.0000001490115
144,112,108643,2,0,L|160:144,1,35.0000001490115
256,192,109108,12,0,111318,0:0:0:0:
