osu file format v14

[General]
AudioFilename: Waterfall.mp3
AudioLeadIn: 0
PreviewTime: 26399
Countdown: 0
SampleSet: Soft
StackLeniency: 0.2
Mode: 0
LetterboxInBreaks: 0
WidescreenStoryboard: 1

[Editor]
Bookmarks: 13365,26606,46055,65089,94882,109365
DistanceSpacing: 3.4
BeatDivisor: 4
GridSize: 16
TimelineZoom: 0.8

[Metadata]
Title:Waterfall
TitleUnicode:Waterfall
Artist:Hyuman
ArtistUnicode:Hyuman
Creator:Fukiyel
Version:Wish
Source:Undertale
Tags:Video Game Soundtrack OST Toby "Radiation" Fox River Person Undyne Spear of Justice Quiet Water Run! NGAHHH!! Battle Against a True Hero Hokusai
BeatmapID:1542635
BeatmapSetID:730936

[Difficulty]
HPDrainRate:4
CircleSize:7
OverallDifficulty:7
ApproachRate:6
SliderMultiplier:0.800000005960464
SliderTickRate:1

[Events]
//Background and Video events
0,0,"Hokusai.jpg",0,0
//Break Periods
//Storyboard Layer 0 (Background)
//Storyboard Layer 1 (Fail)
//Storyboard Layer 2 (Pass)
//Storyboard Layer 3 (Foreground)
//Storyboard Sound Samples

[TimingPoints]
124,413.793103448276,4,2,0,25,1,0
13365,-133.333333333333,4,2,0,25,0,0
26606,-100,4,2,0,25,0,0
67158,-66.6666666666667,4,2,0,25,0,0
68813,-100,4,2,0,25,0,0
71296,-200,4,2,0,25,0,0
72537,-66.6666666666667,4,2,0,25,0,0
73779,-200,4,2,0,25,0,0
75020,-100,4,2,0,25,0,0
77089,-66.6666666666667,4,2,0,25,0,0
78744,-100,4,2,0,25,0,0
81227,-133.333333333333,4,2,0,25,0,0
82468,-66.6666666666667,4,2,0,25,0,0
83710,-133.333333333333,4,2,0,25,0,0
84951,-100,4,2,0,25,0,0
87020,-66.6666666666667,4,2,0,25,0,0
88675,-100,4,2,0,25,0,0
91158,-133.333333333333,4,2,0,25,0,0
92399,-66.6666666666667,4,2,0,25,0,0
93641,-133.333333333333,4,2,0,25,0,0
94882,-100,4,2,0,25,0,0
96951,-66.6666666666667,4,2,0,25,0,0
98606,-100,4,2,0,25,0,0
101089,-133.333333333333,4,2,0,25,0,0
102240,-66.6666666666667,4,2,0,25,0,0
103572,-133.333333333333,4,2,0,25,0,0
104813,-100,4,2,0,25,0,0
106055,-200,4,2,0,25,0,0
112675,-133.333333333333,4,2,0,25,0,0

[Colours]
Combo1 : 128,64,64
Combo2 : 0,128,128
Combo3 : 64,128,128
Combo4 : 0,0,128
Combo5 : 0,0,160
Combo6 : 0,64,128
Combo7 : 128,0,0

[HitObjects]
128,320,124,5,0,0:0:0:0:
192,256,537,1,0,0:0:0:0:
320,128,951,1,0,0:0:0:0:
256,192,1365,1,0,0:0:0:0:
128,64,1779,1,0,0:0:0:0:
256,192,2192,1,0,0:0:0:0:
320,256,2606,1,0,0:0:0:0:
192,128,3020,1,0,0:0:0:0:
384,320,3434,1,0,0:0:0:0:
256,192,3848,5,0,0:0:0:0:
256,64,4261,1,0,0:0:0:0:
256,32,4675,1,0,0:0:0:0:
256,0,5089,1,0,0:0:0:0:
256,32,5503,1,0,0:0:0:0:
256,64,5917,1,0,0:0:0:0:
256,128,6330,1,0,0:0:0:0:
256,320,6744,85,0,0:0:0:0:
256,192,7157,1,0,0:0:0:0:
128,64,7571,1,0,0:0:0:0:
192,128,7985,1,0,0:0:0:0:
256,192,8399,1,0,0:0:0:0:
320,128,8812,1,0,0:0:0:0:
192,256,9226,1,0,0:0:0:0:
256,192,9640,1,0,0:0:0:0:
128,320,10054,1,0,0:0:0:0:
256,192,10468,5,0,0:0:0:0:
256,64,10881,1,0,0:0:0:0:
256,32,11295,1,0,0:0:0:0:
256,0,11709,1,0,0:0:0:0:
256,32,12123,1,0,0:0:0:0:
256,64,12537,1,0,0:0:0:0:
256,128,12950,1,0,0:0:0:0:
256,320,13365,86,0,L|288:256,1,60.0000027358533
368,96,14192,2,0,L|304:96,1,60.0000027358533
160,96,15020,1,0,0:0:0:0:
256,192,15434,1,0,0:0:0:0:
352,288,15848,2,0,L|416:288,2,60.0000027358533
256,192,17089,6,0,L|192:160,1,60.0000027358533
80,96,17916,2,0,L|144:64,1,60.0000027358533
256,32,18744,1,0,0:0:0:0:
256,64,19158,1,0,0:0:0:0:
256,128,19572,1,0,0:0:0:0:
256,320,19986,86,0,L|256:256,1,60.0000027358533
256,64,20813,1,0,0:0:0:0:
384,128,21227,2,0,L|320:96,1,60.0000027358533
256,192,22055,1,0,0:0:0:0:
176,288,22469,2,0,L|112:256,2,60.0000027358533
256,192,23710,6,0,L|320:160,1,60.0000027358533
432,96,24537,2,0,L|368:64,1,60.0000027358533
256,32,25365,1,0,0:0:0:0:
256,64,25779,1,0,0:0:0:0:
256,128,26193,1,0,0:0:0:0:
256,224,26606,6,0,P|296:232|336:224,1,80.0000005960464
512,192,27434,2,0,P|472:184|432:192,1,80.0000005960464
80,192,28261,2,0,P|40:184|0:192,1,80.0000005960464
256,224,29089,2,0,P|336:240|416:224,1,160.000001192093
320,128,30330,1,0,0:0:0:0:
256,0,30744,1,0,0:0:0:0:
160,192,31158,1,0,0:0:0:0:
64,128,31572,2,0,P|16:192|64:256,1,160.000001192093
256,192,32813,2,0,L|176:192,1,80.0000005960464
384,192,33641,1,0,0:0:0:0:
448,224,33847,1,0,0:0:0:0:
511,257,34055,2,0,P|482:288|442:295,1,80.0000005960464
256,192,34882,5,0,0:0:0:0:
128,320,35296,1,0,0:0:0:0:
0,192,35710,1,0,0:0:0:0:
128,64,36124,1,0,0:0:0:0:
256,192,36537,2,0,P|296:200|336:192,1,80.0000005960464
416,192,37365,2,0,P|376:200|336:192,1,80.0000005960464
256,192,38192,2,0,P|296:200|336:192,1,80.0000005960464
176,192,39020,2,0,P|216:200|256:192,1,80.0000005960464
96,192,39848,2,0,P|136:200|176:192,1,80.0000005960464
16,192,40675,2,0,P|56:200|96:192,1,80.0000005960464
16,192,41503,5,0,0:0:0:0:
112,288,41917,1,0,0:0:0:0:
208,192,42330,1,0,0:0:0:0:
112,192,42744,2,0,L|16:192,1,80.0000005960464
112,64,43572,1,0,0:0:0:0:
112,320,43986,1,0,0:0:0:0:
112,192,44399,2,0,L|192:192,1,80.0000005960464
256,192,45227,69,0,0:0:0:0:
112,192,45641,1,0,0:0:0:0:
256,352,46055,38,0,L|256:304,2,40.0000002980232
256,32,46882,5,0,0:0:0:0:
256,32,47088,1,0,0:0:0:0:
256,32,47295,1,0,0:0:0:0:
368,80,47710,85,0,0:0:0:0:
368,80,47916,1,0,0:0:0:0:
368,80,48123,1,0,0:0:0:0:
96,192,48537,1,0,0:0:0:0:
400,192,48951,1,0,0:0:0:0:
368,304,49365,5,0,0:0:0:0:
368,304,49572,1,0,0:0:0:0:
368,304,49779,1,0,0:0:0:0:
256,352,50192,85,0,0:0:0:0:
256,352,50399,1,0,0:0:0:0:
256,352,50606,1,0,0:0:0:0:
416,192,51020,1,0,0:0:0:0:
416,192,51226,1,0,0:0:0:0:
416,192,51433,1,0,0:0:0:0:
144,304,51847,5,0,0:0:0:0:
144,304,52055,1,0,0:0:0:0:
144,304,52260,1,0,0:0:0:0:
96,192,52675,85,0,0:0:0:0:
96,192,52881,1,0,0:0:0:0:
96,192,53088,1,0,0:0:0:0:
368,304,53502,1,0,0:0:0:0:
144,80,53916,1,0,0:0:0:0:
256,32,54330,5,0,0:0:0:0:
256,32,54537,1,0,0:0:0:0:
256,32,54744,1,0,0:0:0:0:
256,352,55157,85,0,0:0:0:0:
256,352,55364,1,0,0:0:0:0:
256,352,55571,1,0,0:0:0:0:
256,352,55779,1,0,0:0:0:0:
256,352,55986,1,0,0:0:0:0:
256,352,56193,1,0,0:0:0:0:
256,352,56399,1,0,0:0:0:0:
144,80,56813,5,0,0:0:0:0:
144,80,57020,1,0,0:0:0:0:
144,80,57227,1,0,0:0:0:0:
96,192,57640,85,0,0:0:0:0:
96,192,57847,1,0,0:0:0:0:
96,192,58054,1,0,0:0:0:0:
368,80,58468,1,0,0:0:0:0:
144,304,58881,1,0,0:0:0:0:
256,352,59295,5,0,0:0:0:0:
256,352,59503,1,0,0:0:0:0:
256,352,59710,1,0,0:0:0:0:
368,304,60123,85,0,0:0:0:0:
368,304,60329,1,0,0:0:0:0:
368,304,60536,1,0,0:0:0:0:
96,192,60951,6,0,L|112:192,2,13.3333334326744
144,304,61364,1,0,0:0:0:0:
416,192,61779,85,0,0:0:0:0:
416,192,61985,1,0,0:0:0:0:
416,192,62192,1,0,0:0:0:0:
368,80,62606,5,0,0:0:0:0:
368,80,62812,1,0,0:0:0:0:
368,80,63019,1,0,0:0:0:0:
256,192,63434,1,0,0:0:0:0:
256,32,63848,1,0,0:0:0:0:
144,80,64261,85,0,0:0:0:0:
144,80,64467,1,0,0:0:0:0:
144,80,64674,1,0,0:0:0:0:
256,192,65089,54,0,P|276:196|296:192,1,40.0000002980232
304,112,65503,2,0,P|324:108|344:112,1,40.0000002980232
256,272,65917,2,0,P|276:276|296:272,1,40.0000002980232
304,112,66330,1,0,0:0:0:0:
208,128,66744,37,0,0:0:0:0:
208,128,66951,1,0,0:0:0:0:
192,240,67158,70,0,P|320:336|464:320,1,300.000013679266
352,272,68399,2,0,P|320:272|288:240,1,60.0000027358533
384,192,68813,1,0,0:0:0:0:
352,272,69227,37,0,0:0:0:0:
352,272,69434,1,0,0:0:0:0:
288,208,69641,70,0,P|304:192|336:176,1,40.0000002980232
240,256,70055,2,0,L|208:288,1,40.0000002980232
384,160,70469,2,0,P|400:160|432:176,1,40.0000002980232
176,320,70882,2,0,L|144:352,1,40.0000002980232
352,272,71296,2,0,L|253:256,1,100.000000745058
253,256,72538,2,0,P|144:176|144:240,1,300.000013679266
142,238,73779,2,0,L|43:222,1,100.000000745058
142,238,75020,70,0,L|192:224,1,40.0000002980232
48,224,75434,2,0,L|0:240,1,40.0000002980232
192,224,75848,2,0,L|240:208,1,40.0000002980232
224,112,76261,1,0,0:0:0:0:
142,238,76675,37,0,0:0:0:0:
142,238,76882,1,0,0:0:0:0:
64,288,77089,70,0,B|208:368|208:208|352:288,1,300.000013679266
272,336,78330,2,0,P|240:320|224:288,1,60.0000027358533
240,224,78744,1,0,0:0:0:0:
272,336,79158,37,0,0:0:0:0:
272,336,79365,1,0,0:0:0:0:
144,240,79572,70,0,L|216:226,1,40.0000002980232
192,304,79986,2,0,L|152:311,1,40.0000002980232
240,224,80400,2,0,L|312:210,1,40.0000002980232
96,320,80813,2,0,L|56:327,1,40.0000002980232
146,244,81227,2,0,P|218:290|287:271,1,150.000006839633
276,278,82468,2,0,P|309:143|176:112,1,300.000013679266
181,108,83710,2,0,P|137:165|146:244,1,150.000006839633
143,239,84951,70,0,P|163:264|182:275,1,40.0000002980232
148,142,85365,2,0,P|135:171|134:193,1,40.0000002980232
214,289,85779,2,0,P|245:290|266:283,1,40.0000002980232
181,108,86192,1,0,0:0:0:0:
225,200,86606,37,0,0:0:0:0:
225,200,86813,1,0,0:0:0:0:
144,240,87020,54,0,L|432:96,1,300.000013679266
304,160,88261,2,0,L|357:133,1,60.0000027358533
240,192,88675,1,0,0:0:0:0:
144,240,89089,53,0,0:0:0:0:
144,240,89296,1,0,0:0:0:0:
144,144,89503,54,0,P|128:144|96:160,1,40.0000002980232
240,144,89917,2,0,P|256:144|288:128,1,40.0000002980232
96,160,90331,2,0,P|96:176|112:208,1,40.0000002980232
288,128,90744,2,0,P|288:112|272:80,1,40.0000002980232
16,160,91158,2,0,L|176:160,1,150.000006839633
165,157,92399,2,0,B|272:112|256:48|208:32|160:48|144:112|256:160,1,300.000013679266
256,160,93641,2,0,L|416:160,1,150.000006839633
272,80,94882,6,0,L|320:64,1,40.0000002980232
368,48,95296,2,0,L|352:0,1,40.0000002980232
288,144,95710,2,0,L|336:126,1,40.0000002980232
208,176,96123,1,0,0:0:0:0:
336,128,96537,5,0,0:0:0:0:
336,128,96744,1,0,0:0:0:0:
70,229,96951,54,0,P|208:176|352:240,1,300.000013679266
128,256,98192,2,0,P|160:240|192:240,1,60.0000027358533
288,256,98606,1,0,0:0:0:0:
128,256,99020,53,0,0:0:0:0:
128,256,99227,1,0,0:0:0:0:
160,144,99434,54,0,P|176:112|192:96,1,40.0000002980232
128,256,99848,2,0,P|112:288|96:304,1,40.0000002980232
208,176,100262,2,0,P|224:144|240:128,1,40.0000002980232
176,288,100675,2,0,P|160:320|144:336,1,40.0000002980232
48,320,101089,2,0,P|104:280|160:336,1,150.000006839633
160,320,102330,2,0,B|192:160|16:160|48:320,1,300.000013679266
48,320,103572,2,0,P|104:360|160:304,1,150.000006839633
240,208,104813,6,0,L|194:221,1,40.0000002980232
130,189,105227,2,0,L|146:237,1,40.0000002980232
130,301,105641,2,0,L|178:285,1,40.0000002980232
168,160,106055,2,0,P|80:192|168:224,1,240.000001788139
208,192,109365,37,0,0:0:0:0:
240,176,109779,1,0,0:0:0:0:
272,160,110192,1,0,0:0:0:0:
304,208,111020,1,0,0:0:0:0:
336,256,111848,1,0,0:0:0:0:
400,320,112675,6,0,L|352:272,1,60.0000027358533
144,64,113503,2,0,L|192:112,1,60.0000027358533
464,96,114330,2,0,L|432:160,1,60.0000027358533
368,288,115158,1,0,0:0:0:0:
256,192,115571,1,0,0:0:0:0:
144,288,115985,1,0,0:0:0:0:
256,192,116399,85,0,0:0:0:0:
256,64,116813,1,0,0:0:0:0:
256,32,117227,1,0,0:0:0:0:
256,0,117641,1,0,0:0:0:0:
256,32,118055,1,0,0:0:0:0:
256,64,118468,1,0,0:0:0:0:
256,128,118882,1,0,0:0:0:0:
