osu file format v14

[General]
AudioFilename: Waterfall.mp3
AudioLeadIn: 0
PreviewTime: 26399
Countdown: 0
SampleSet: Soft
StackLeniency: 0.2
Mode: 0
LetterboxInBreaks: 0
WidescreenStoryboard: 1

[Editor]
Bookmarks: 13365,26606,46055,65089,104813,109365
DistanceSpacing: 1.2
BeatDivisor: 2
GridSize: 8
TimelineZoom: 0.6999999

[Metadata]
Title:Waterfall
TitleUnicode:Waterfall
Artist:Hyuman
ArtistUnicode:Hyuman
Creator:Fukiyel
Version:Calm
Source:Undertale
Tags:Video Game Soundtrack OST Toby "Radiation" Fox River Person Undyne Spear of Justice Quiet Water Run! NGAHHH!! Battle Against a True Hero Hokusai
BeatmapID:1645542
BeatmapSetID:730936

[Difficulty]
HPDrainRate:2
CircleSize:6
OverallDifficulty:5
ApproachRate:2
SliderMultiplier:1.00000000596046
SliderTickRate:1

[Events]
//Background and Video events
0,0,"Hokusai.jpg",0,0
//Break Periods
//Storyboard Layer 0 (Background)
//Storyboard Layer 1 (Fail)
//Storyboard Layer 2 (Pass)
//Storyboard Layer 3 (Foreground)
//Storyboard Sound Samples

[TimingPoints]
124,413.793103448276,4,2,0,25,1,0
124,-166.666666666667,4,2,0,25,0,0
46055,-133.333333333333,4,2,0,25,0,0
67158,-100,4,2,0,25,0,0
68813,-133.333333333333,4,2,0,25,0,0
71296,-166.666666666667,4,2,0,25,0,0
72537,-100,4,2,0,25,0,0
73779,-166.666666666667,4,2,0,25,0,0
75020,-133.333333333333,4,2,0,25,0,0
77089,-100,4,2,0,25,0,0
78744,-133.333333333333,4,2,0,25,0,0
81227,-166.666666666667,4,2,0,25,0,0
82468,-100,4,2,0,25,0,0
83710,-166.666666666667,4,2,0,25,0,0
84951,-133.333333333333,4,2,0,25,0,0
87020,-100,4,2,0,25,0,0
88675,-133.333333333333,4,2,0,25,0,0
91158,-166.666666666667,4,2,0,25,0,0
92399,-100,4,2,0,25,0,0
93641,-166.666666666667,4,2,0,25,0,0
94882,-133.333333333333,4,2,0,25,0,0
96951,-100,4,2,0,25,0,0
98606,-133.333333333333,4,2,0,25,0,0
101089,-166.666666666667,4,2,0,25,0,0
102240,-100,4,2,0,25,0,0
103572,-166.666666666667,4,2,0,25,0,0
104813,-133.333333333333,4,2,0,25,0,0
106055,-250,4,2,0,25,0,0
112675,-166.666666666667,4,2,0,25,0,0

[Colours]
Combo1 : 128,64,64
Combo2 : 0,128,128
Combo3 : 64,128,128
Combo4 : 0,0,128
Combo5 : 0,0,160
Combo6 : 0,64,128
Combo7 : 128,0,0

[HitObjects]
56,195,124,5,0,0:0:0:0:
103,141,537,1,0,0:0:0:0:
150,85,951,1,0,0:0:0:0:
203,132,1365,1,0,0:0:0:0:
272,114,1779,1,0,0:0:0:0:
320,167,2192,2,0,L|372:219,1,59.9999985265732
414,259,3020,2,0,L|365:306,1,59.9999985265732
311,344,3848,5,0,0:0:0:0:
239,343,4261,1,0,0:0:0:0:
203,281,4675,1,0,0:0:0:0:
239,219,5089,1,0,0:0:0:0:
311,219,5503,1,0,0:0:0:0:
347,281,5917,1,0,0:0:0:0:
311,343,6330,1,0,0:0:0:0:
239,343,6744,85,0,0:0:0:0:
192,288,7157,1,0,0:0:0:0:
145,233,7571,1,0,0:0:0:0:
90,280,7985,1,0,0:0:0:0:
24,248,8399,1,0,0:0:0:0:
48,184,8813,2,0,L|97:233,1,59.9999985265732
160,232,9641,2,0,L|208:280,1,59.999998526573
256,320,10468,5,0,0:0:0:0:
328,320,10881,1,0,0:0:0:0:
364,258,11295,1,0,0:0:0:0:
328,195,11709,1,0,0:0:0:0:
256,195,12123,1,0,0:0:0:0:
220,258,12537,1,0,0:0:0:0:
256,320,12950,1,0,0:0:0:0:
328,320,13365,86,0,L|367:266,1,59.999998526573
336,208,14192,2,0,L|297:265,1,59.999998526573
248,312,15020,1,0,0:0:0:0:
176,312,15434,1,0,0:0:0:0:
104,312,15848,2,0,L|32:312,2,59.999998526573
176,312,17089,6,0,L|240:280,1,59.999998526573
296,256,17916,2,0,L|352:232,1,59.999998526573
368,160,18744,2,0,L|312:184,1,59.999998526573
248,208,19572,1,0,0:0:0:0:
184,240,19986,86,0,L|104:240,1,59.999998526573
56,240,20813,1,0,0:0:0:0:
88,176,21227,2,0,L|168:176,1,59.999998526573
216,176,22055,1,0,0:0:0:0:
256,240,22469,2,0,L|296:296,2,59.999998526573
216,176,23710,6,0,L|272:144,1,59.999998526573
328,104,24537,2,0,L|272:72,1,59.999998526573
216,40,25365,1,0,0:0:0:0:
200,112,25779,1,0,0:0:0:0:
192,184,26193,1,0,0:0:0:0:
256,224,26606,6,0,P|288:232|376:216,1,119.999997053146
288,96,28261,2,0,P|256:88|168:104,1,119.999997053146
256,224,29917,6,0,P|288:200|304:160,1,59.999998526573
232,152,30744,2,0,P|200:176|184:216,1,59.999998526573
256,224,31572,1,0,0:0:0:0:
448,136,32813,2,0,P|480:128|512:136,1,59.9999985265732
480,200,33641,2,0,L|480:232,2,29.9999992632865
480,56,34882,5,0,0:0:0:0:
408,40,35296,1,0,0:0:0:0:
336,24,35710,1,0,0:0:0:0:
264,8,36124,1,0,0:0:0:0:
208,56,36537,2,0,P|272:80|328:48,1,119.999997053146
208,152,38192,2,0,P|264:168|328:144,1,119.999997053146
208,240,39848,2,0,P|272:248|328:240,1,119.999997053146
200,312,41503,69,0,0:0:0:0:
272,328,41917,1,0,0:0:0:0:
344,344,42330,1,0,0:0:0:0:
416,360,42744,1,0,0:0:0:0:
496,240,43572,2,0,L|416:240,1,59.999998526573
216,240,45227,2,0,L|296:240,1,59.999998526573
368,240,46055,38,0,L|432:240,2,37.5000016540288
296,184,46882,2,0,L|248:184,2,37.5000016540288
232,120,47710,2,0,L|168:120,2,37.5000016540288
320,120,48537,2,0,L|408:120,1,75.0000033080576
328,184,49365,2,0,L|288:184,2,37.5000016540288
253,240,50192,2,0,L|213:240,2,37.5000016540288
328,184,51020,2,0,L|368:184,2,37.5000016540288
248,144,51848,6,0,L|184:144,2,37.5000016540288
312,80,52675,2,0,L|248:80,2,37.5000016540288
400,80,53503,2,0,L|488:80,1,75.0000033080576
408,136,54330,2,0,L|344:136,2,37.5000016540288
336,192,55158,2,0,B|304:208|304:208|256:192,3,75.0000033080576
184,168,56813,86,0,L|128:168,2,37.5000016540288
248,104,57641,2,0,L|192:104,2,37.5000016540288
336,104,58468,2,0,L|424:104,1,75.0000033080576
352,168,59296,2,0,L|296:168,2,37.5000016540288
424,224,60124,2,0,L|368:224,2,37.5000016540288
336,256,60951,2,0,L|336:272,2,12.5000005513429
336,192,61365,1,0,0:0:0:0:
256,160,61779,6,0,L|200:160,2,37.5000016540288
192,96,62606,2,0,L|144:96,2,37.5000016540288
280,96,63434,2,0,L|360:96,1,75.0000033080576
288,160,64261,2,0,L|240:160,2,37.5000016540288
360,88,65089,70,0,P|384:120|360:152,1,75.0000033080576
288,200,65917,2,0,P|264:168|288:136,1,75.0000033080576
432,144,67158,70,0,P|475:210|383:254,1,200.000001192092
344,136,68399,2,0,P|304:152|320:208,1,100.000000596046
504,160,69641,6,0,L|416:168,1,75.0000033080576
344,216,70468,2,0,L|424:224,1,75.0000033080576
472,280,71296,2,0,L|328:280,1,119.999997053146
224,280,72538,2,0,L|224:80,1,200.000001192092
160,128,73779,2,0,L|32:128,1,119.999997053146
24,224,75020,6,0,P|24:264|48:288,1,75.0000033080576
104,208,75848,2,0,P|136:168|176:160,1,75.0000033080576
200,240,77089,70,0,B|312:240|312:160|424:160,1,200.000001192092
312,272,78330,2,0,B|354:273|354:233|402:233,1,100.000000596046
248,352,79572,6,0,L|176:312,1,75.0000033080576
280,296,80400,2,0,L|200:256,1,75.0000033080576
200,184,81227,2,0,L|312:240,1,119.999997053146
424,296,82468,2,0,L|424:88,1,200.000001192092
352,120,83710,2,0,L|232:168,1,119.999997053146
152,208,84951,6,0,P|176:240|224:256,1,75.0000033080576
304,248,85779,2,0,P|336:224|352:176,1,75.0000033080576
344,48,87020,70,0,P|256:24|152:56,1,200.000001192092
200,176,88261,2,0,P|256:160|304:176,1,100.000000596046
488,208,89503,6,0,L|432:264,1,75.0000033080576
336,240,90331,2,0,L|392:296,1,75.0000033080576
440,352,91158,2,0,L|296:352,1,119.999997053146
440,296,92399,2,0,B|440:96,1,200.000001192092
496,40,93641,2,0,L|368:40,1,119.999997053146
280,40,94882,6,0,P|240:56|240:96,1,75.0000033080576
216,176,95710,2,0,P|256:160|256:120,1,75.0000033080576
0,112,96951,70,0,B|144:184|24:184|168:112,1,200.000001192092
36,73,98192,2,0,B|84:97|84:97|132:73,1,100.000000596046
320,104,99434,6,0,L|248:136,1,75.0000033080576
152,136,100262,2,0,L|80:112,1,75.0000033080576
72,192,101089,2,0,L|208:192,1,119.999997053146
248,312,102330,2,0,B|248:104,1,200.000001192092
192,160,103572,2,0,L|64:160,1,119.999997053146
72,64,104813,6,0,L|168:64,1,75.0000033080576
248,64,105641,1,0,0:0:0:0:
208,29,106055,2,0,P|120:61|208:93,1,240.000001788139
304,64,109365,37,0,0:0:0:0:
336,48,109779,1,0,0:0:0:0:
368,32,110192,1,0,0:0:0:0:
424,80,111020,1,0,0:0:0:0:
480,128,111848,1,0,0:0:0:0:
456,195,112675,5,0,0:0:0:0:
409,141,113088,1,0,0:0:0:0:
362,85,113502,1,0,0:0:0:0:
309,132,113916,1,0,0:0:0:0:
240,114,114330,1,0,0:0:0:0:
192,167,114743,2,0,L|140:219,1,59.9999985265732
98,259,115571,2,0,L|147:306,1,59.9999985265732
208,336,116399,85,0,0:0:0:0:
280,335,116812,1,0,0:0:0:0:
316,273,117226,1,0,0:0:0:0:
280,211,117640,1,0,0:0:0:0:
208,211,118054,1,0,0:0:0:0:
168,272,118468,1,0,0:0:0:0:
208,335,118881,1,0,0:0:0:0:
