osu file format v14

[General]
AudioFilename: audio.mp3
AudioLeadIn: 0
PreviewTime: 107441
Countdown: 0
SampleSet: Soft
StackLeniency: 0.7
Mode: 2
LetterboxInBreaks: 0
WidescreenStoryboard: 0

[Editor]
DistanceSpacing: 1.8
BeatDivisor: 4
GridSize: 32
TimelineZoom: 2

[Metadata]
Title:Mermaid girl (Tropical Remix)
TitleUnicode:Mermaid girl (Tropical Remix)
Artist:Hyuji feat. LIQU@.
ArtistUnicode:Hyuji feat. LIQU@。
Creator:Ascendance
Version:GRAVITY
Source:SOUND VOLTEX III GRAVITY WARS
Tags:sdvx 3 STARLiGHT Album Launch Ryu☆ Remix Contest アルバム「STARLiGHT」発売記念 Ryu☆リミックスコンテスト jennifer jennglebells -joni- rew0825 spectator brunoob english instrumental video game rhythm -joakh Ryu* 中原龍太郎 Ryutaro Nakahara cream puff hhh haika yuya fujimoto utaite ft.
BeatmapID:2592808
BeatmapSetID:1244353

[Difficulty]
HPDrainRate:7
CircleSize:4.2
OverallDifficulty:9.4
ApproachRate:9.4
SliderMultiplier:2.5
SliderTickRate:2

[Events]
//Background and Video events
0,0,"mermaid-anime-girl-white-hair-aqua-eyes-cute-water-bubbles-anime.jpeg",0,0
//Break Periods
2,17838,23498
//Storyboard Layer 0 (Background)
//Storyboard Layer 1 (Fail)
//Storyboard Layer 2 (Pass)
//Storyboard Layer 3 (Foreground)
//Storyboard Layer 4 (Overlay)
//Storyboard Sound Samples

[TimingPoints]
4438,400,4,2,1,40,1,0
4838,400,4,2,1,40,1,0
17638,-100,4,2,2,40,0,0
28838,-100,4,2,1,40,0,0
30038,-33.3333333333333,4,2,1,40,0,0
30338,-100,4,2,1,40,0,0
40838,-100,4,2,2,40,0,0
40938,-100,4,2,1,40,0,0
56038,-100,4,2,2,40,0,0
56138,-100,4,2,1,40,0,0
59238,-100,4,2,2,40,0,0
59338,-100,4,2,1,40,0,0
70038,600,4,2,1,40,1,0
70638,600,4,2,1,40,1,0
73038,588.235294117647,4,2,1,40,1,0
75390,576.923076923077,4,2,1,40,1,0
76543,566.037735849057,4,2,1,40,1,0
77675,555.555555555556,4,2,1,40,1,0
78786,545.454545454546,4,2,1,40,1,0
79876,535.714285714286,4,2,1,40,1,0
80411,521.739130434783,4,2,1,40,1,0
80932,508.474576271186,4,2,1,40,1,0
81440,495.867768595041,4,2,1,40,1,0
81935,483.870967741935,4,2,1,40,1,0
82418,472.44094488189,4,2,1,40,1,0
82890,461.538461538462,4,2,1,40,1,0
83351,451.127819548872,4,2,1,40,1,0
83802,441.176470588235,4,2,2,40,1,0
83912,-100,4,2,1,40,0,0
84243,431.654676258993,4,2,1,40,1,0
84674,422.535211267606,4,2,1,40,1,0
85096,410.958904109589,4,2,1,40,1,0
85506,400,4,2,1,40,1,0
88506,-100,4,2,2,40,0,0
88706,-100,4,2,1,40,0,0
90106,-100,4,2,2,40,0,0
90306,-100,4,2,1,40,0,0
90906,-100,4,2,2,40,0,0
91106,-100,4,2,1,40,0,0
93106,-33.3333333333333,4,2,1,40,0,0
93406,-100,4,2,1,40,0,0
107906,-90.9090909090909,4,2,1,60,0,1
120306,-90.9090909090909,4,2,1,30,0,0
121906,-100,4,2,1,20,0,0
123106,-100,4,2,1,10,0,0

[Colours]
Combo1 : 198,167,250
Combo2 : 152,228,239
Combo3 : 115,155,249
Combo4 : 108,197,230

[HitObjects]
170,187,4438,6,0,L|32:164,1,125
386,73,4838,5,6,0:0:0:0:
261,135,5038,2,0,L|193:126,1,62.5
364,250,5338,2,0,L|291:239,1,62.5
464,362,5638,2,0,L|322:341,2,125
407,333,6138,1,0,0:0:0:0:
255,362,6338,1,0,0:0:0:0:
451,234,6438,6,0,L|309:219,1,125
153,79,6838,2,0,L|291:92,1,125
91,192,7238,2,0,L|248:207,2,125
28,184,7738,1,0,0:0:0:0:
229,155,7938,1,0,0:0:0:0:
62,286,8038,5,0,0:0:0:0:
226,211,8238,2,0,L|159:200,1,62.5
336,125,8538,2,0,L|261:111,1,62.5
459,54,8838,2,0,L|322:28,2,125
397,66,9338,1,0,0:0:0:0:
221,162,9438,2,0,L|287:151,1,62.5
495,271,9638,6,0,L|345:248,1,125
200,338,10038,2,0,L|264:329,1,62.5
341,360,10238,1,0,0:0:0:0:
146,268,10438,1,0,0:0:0:0:
433,341,10638,1,0,0:0:0:0:
291,261,10838,2,0,L|466:246,1,125
106,160,11238,5,6,0:0:0:0:
271,107,11438,2,0,L|208:92,1,62.5
131,122,11638,1,0,0:0:0:0:
298,103,11838,1,0,0:0:0:0:
121,93,12038,2,0,L|251:104,1,125
55,186,12438,2,0,L|48:336,1,125
348,319,12838,6,0,L|177:299,1,125,6|0,0:0|0:0,0:0:0:0:
415,218,13238,2,0,L|283:198,1,125
475,120,13638,2,0,L|335:96,1,125
171,117,14038,2,0,L|28:98,1,125
426,31,14438,5,6,0:0:0:0:
285,137,14638,2,0,L|352:128,1,62.5
213,261,14938,2,0,L|291:247,1,62.5
17,369,15238,2,0,L|22:222,1,125,6|0,0:0|0:0,0:0:0:0:
242,210,15638,2,0,L|95:187,1,125
406,308,16038,6,0,L|419:236,1,62.5,6|0,0:0|0:0,0:0:0:0:
246,187,16238,1,0,0:0:0:0:
445,237,16338,2,0,L|464:155,1,62.5,0|2,0:0|0:0,0:0:0:0:
275,168,16538,1,0,0:0:0:0:
101,123,16638,2,0,L|12:133,1,62.5
293,271,16838,6,0,L|366:284,1,62.5,2|0,0:0|0:0,0:0:0:0:
177,142,17038,2,0,L|97:153,1,62.5,2|0,0:0|0:0,0:0:0:0:
398,28,17238,2,0,L|398:159,1,125,2|2,0:0|0:0,0:0:0:0:
329,156,17538,1,2,0:0:0:0:
86,160,17638,5,4,0:0:0:0:
256,192,24038,12,0,28638,0:0:0:0:
38,73,28838,6,0,L|228:46,1,187.5,6|2,0:0|0:0,0:0:0:0:
424,255,29238,2,0,L|251:216,1,125,2|2,0:0|0:0,0:0:0:0:
125,293,29538,1,0,0:0:0:0:
300,203,29638,2,0,L|447:184,1,125,2|2,0:0|0:0,0:0:0:0:
67,53,30038,2,0,L|548:88,1,375.000014305115,4|2,0:0|0:0,0:0:0:0:
373,94,30338,1,2,0:0:0:0:
166,154,30438,6,0,L|22:138,1,125,4|0,0:0|1:0,0:0:0:0:
227,307,30738,2,0,L|363:285,1,125,0|0,1:0|1:0,0:0:0:0:
140,217,31038,2,0,L|52:204,1,62.5,0|0,1:0|1:0,0:0:0:0:
335,156,31238,1,2,0:0:0:0:
171,127,31438,1,0,1:0:0:0:
307,132,31638,1,8,0:0:0:0:
201,134,31738,1,0,1:0:0:0:
307,132,31838,1,0,1:0:0:0:
202,135,31938,1,0,1:0:0:0:
415,192,32038,6,0,L|496:213,1,62.5,2|0,0:0|1:0,0:0:0:0:
292,100,32238,2,0,L|229:110,1,62.5,0|0,1:0|1:0,0:0:0:0:
408,68,32438,1,8,0:0:0:0:
216,19,32538,2,0,L|383:42,1,125,0|0,1:0|1:0,0:0:0:0:
105,108,32838,5,4,0:0:0:0:
258,156,33038,1,2,0:0:0:0:
92,190,33138,1,4,0:0:0:0:
258,172,33338,1,2,0:0:0:0:
90,204,33438,1,4,0:0:0:0:
354,195,33638,6,0,L|488:211,1,125,2|0,0:0|1:0,0:0:0:0:
274,99,33938,2,0,L|199:106,1,62.5,0|8,1:0|0:0,0:0:0:0:
37,58,34138,1,2,0:0:0:0:
216,121,34238,2,0,L|285:111,1,62.5,0|0,1:0|1:0,0:0:0:0:
73,307,34438,6,0,L|66:181,1,125,2|0,0:0|1:0,0:0:0:0:
349,324,34838,2,0,L|211:308,1,125,8|0,0:0|1:0,0:0:0:0:
155,302,35138,1,0,0:0:0:0:
453,268,35238,6,0,P|496:197|453:166,1,125,6|0,0:0|0:0,0:0:0:0:
290,93,35538,2,0,L|424:71,1,125,6|0,0:0|0:0,0:0:0:0:
246,232,35838,2,0,L|180:222,1,62.5,10|0,0:0|0:0,0:0:0:0:
363,313,36038,6,0,L|497:299,1,125,2|2,0:0|0:0,0:0:0:0:
421,277,36338,1,2,0:0:0:0:
207,202,36438,2,0,L|341:188,1,125,12|2,0:0|0:0,0:0:0:0:
265,166,36738,1,2,0:0:0:0:
64,99,36838,6,0,L|202:82,1,125,2|0,0:0|1:0,0:0:0:0:
354,247,37138,2,0,L|212:227,1,125,0|0,1:0|1:0,0:0:0:0:
33,328,37438,2,0,L|111:317,1,62.5,0|0,1:0|1:0,0:0:0:0:
338,332,37638,5,2,0:0:0:0:
185,298,37838,1,0,1:0:0:0:
317,301,38038,1,8,0:0:0:0:
206,314,38138,1,0,1:0:0:0:
317,301,38238,1,0,1:0:0:0:
206,314,38338,1,0,1:0:0:0:
440,244,38438,6,0,L|375:227,1,62.5,2|0,0:0|1:0,0:0:0:0:
208,149,38638,2,0,L|271:138,1,62.5,0|0,1:0|0:0,0:0:0:0:
95,70,38838,1,2,0:0:0:0:
277,248,38938,2,0,L|141:228,1,125,0|2,1:0|0:0,0:0:0:0:
407,132,39238,5,4,0:0:0:0:
240,147,39438,1,2,0:0:0:0:
418,126,39538,1,4,0:0:0:0:
251,133,39738,1,2,0:0:0:0:
429,122,39838,1,4,0:0:0:0:
169,70,40038,6,0,L|26:51,1,125,2|0,0:0|1:0,0:0:0:0:
211,256,40338,2,0,L|343:243,1,125,0|0,1:0|1:0,0:0:0:0:
90,189,40638,2,0,L|83:254,1,62.5,0|0,1:0|1:0,0:0:0:0:
263,100,40838,6,0,L|114:83,1,125,6|0,0:0|1:0,0:0:0:0:
413,185,41238,2,0,L|414:319,1,125,8|0,0:0|1:0,0:0:0:0:
345,316,41538,1,0,1:0:0:0:
82,316,41638,5,4,0:0:0:0:
239,313,41838,1,2,0:0:0:0:
61,315,41938,1,4,0:0:0:0:
228,313,42138,1,2,0:0:0:0:
38,314,42238,1,4,0:0:0:0:
321,314,42438,6,0,L|455:314,1,125,2|2,0:0|0:0,0:0:0:0:
248,230,42838,1,2,0:0:0:0:
192,204,42938,1,2,0:0:0:0:
167,149,43038,1,2,0:0:0:0:
185,90,43138,1,2,0:0:0:0:
238,61,43238,6,0,L|371:54,1,125,2|0,0:0|0:0,0:0:0:0:
202,193,43638,2,0,L|72:186,1,125,2|0,0:0|0:0,0:0:0:0:
389,208,44038,2,0,L|389:343,1,125,2|0,0:0|0:0,0:0:0:0:
256,187,44438,1,2,0:0:0:0:
404,177,44638,1,0,0:0:0:0:
225,177,44838,6,0,L|88:166,1,125,2|0,0:0|0:0,0:0:0:0:
167,147,45138,1,2,0:0:0:0:
235,138,45238,1,2,0:0:0:0:
91,70,45438,1,2,0:0:0:0:
267,133,45638,2,0,L|266:260,1,125,2|2,0:0|0:0,0:0:0:0:
117,326,46038,1,2,0:0:0:0:
60,305,46138,1,2,0:0:0:0:
42,248,46238,1,2,0:0:0:0:
78,200,46338,1,2,0:0:0:0:
241,182,46438,6,0,L|375:182,1,125,2|0,0:0|0:0,0:0:0:0:
185,248,46838,2,0,L|174:378,1,125,2|0,0:0|0:0,0:0:0:0:
324,300,47238,2,0,L|477:297,1,125,2|0,0:0|0:0,0:0:0:0:
284,216,47638,1,2,0:0:0:0:
440,209,47838,1,0,0:0:0:0:
171,147,48038,5,2,0:0:0:0:
108,147,48138,1,2,0:0:0:0:
46,147,48238,1,10,0:0:0:0:
223,243,48438,1,2,0:0:0:0:
160,243,48538,1,2,0:0:0:0:
98,243,48638,1,10,0:0:0:0:
300,327,48838,1,10,0:0:0:0:
106,321,49138,2,0,L|182:321,1,62.5,2|2,0:0|0:0,0:0:0:0:
351,319,49438,1,10,0:0:0:0:
71,336,49638,6,0,L|72:197,1,125,6|0,0:0|0:0,0:0:0:0:
264,251,50038,2,0,L|399:251,1,125,2|0,0:0|0:0,0:0:0:0:
191,163,50438,2,0,L|62:163,1,125,2|0,0:0|0:0,0:0:0:0:
291,172,50838,2,0,P|330:118|273:78,1,125,2|0,0:0|0:0,0:0:0:0:
20,72,51238,5,2,0:0:0:0:
492,77,51638,1,4,0:0:0:0:
20,72,52038,1,2,0:0:0:0:
264,75,52438,2,0,L|91:74,1,125,8|2,0:0|0:0,0:0:0:0:
20,72,52838,5,0,0:0:0:0:
482,71,53238,1,4,0:0:0:0:
482,71,53638,1,0,0:0:0:0:
24,69,54038,2,0,L|25:201,1,125,4|0,0:0|0:0,0:0:0:0:
324,110,54438,6,0,L|465:111,1,125,2|8,0:0|0:0,0:0:0:0:
165,233,54838,2,0,L|31:232,1,125,2|8,0:0|0:0,0:0:0:0:
327,313,55238,1,2,0:0:0:0:
199,315,55438,1,8,0:0:0:0:
316,312,55638,1,2,0:0:0:0:
216,314,55738,1,8,0:0:0:0:
335,310,55938,1,2,0:0:0:0:
82,357,56038,6,0,L|78:218,1,125,4|0,0:0|1:0,0:0:0:0:
146,222,56338,1,0,1:0:0:0:
347,247,56438,2,0,L|474:243,1,125,8|0,0:0|0:0,0:0:0:0:
208,153,56838,2,0,L|137:151,1,62.5,2|0,0:0|0:0,0:0:0:0:
208,153,57038,2,0,L|275:152,1,62.5,2|0,0:0|0:0,0:0:0:0:
72,296,57238,2,0,L|66:169,1,125,8|8,0:0|0:0,0:0:0:0:
305,87,57838,5,0,0:0:0:0:
242,80,57938,1,0,0:0:0:0:
68,63,58038,1,4,0:0:0:0:
206,22,58238,2,0,L|54:41,1,125,0|2,0:0|0:0,0:0:0:0:
70,105,58538,1,0,0:0:0:0:
162,123,58638,2,0,L|170:200,1,62.5,2|0,0:0|0:0,0:0:0:0:
73,289,58838,1,8,0:0:0:0:
19,261,58938,1,0,0:0:0:0:
11,201,59038,1,2,0:0:0:0:
55,160,59138,1,0,0:0:0:0:
226,155,59238,6,0,L|376:154,1,125,6|0,0:0|0:0,0:0:0:0:
285,132,59538,1,2,0:0:0:0:
28,68,59638,2,0,L|26:240,1,125,8|0,0:0|0:0,0:0:0:0:
95,196,59938,1,2,0:0:0:0:
401,230,60038,2,0,L|220:230,1,125,4|0,0:0|0:0,0:0:0:0:
207,230,60338,1,2,0:0:0:0:
23,233,60438,1,8,0:0:0:0:
314,232,60638,1,2,0:0:0:0:
23,233,60838,6,0,L|22:368,1,125,2|2,0:0|0:0,0:0:0:0:
314,232,61238,1,2,0:0:0:0:
117,199,61338,1,8,0:0:0:0:
393,108,61538,2,0,L|238:128,1,125,2|0,0:0|0:0,0:0:0:0:
187,98,61838,1,2,0:0:0:0:
343,184,62038,1,2,0:0:0:0:
187,98,62238,1,2,0:0:0:0:
483,162,62438,6,0,L|489:303,1,125,6|0,0:0|1:0,0:0:0:0:
418,286,62738,1,0,1:0:0:0:
222,229,62838,2,0,L|84:229,1,125,8|0,0:0|1:0,0:0:0:0:
164,214,63138,1,0,1:0:0:0:
375,311,63238,2,0,L|372:249,1,62.5,2|0,0:0|0:0,0:0:0:0:
286,254,63438,2,0,L|283:184,1,62.5,0|0,1:0|0:0,0:0:0:0:
462,171,63638,2,0,L|466:42,1,125,8|0,0:0|0:0,0:0:0:0:
398,31,63938,1,0,0:0:0:0:
196,117,64038,6,0,L|56:102,1,125,6|0,0:0|0:0,0:0:0:0:
407,185,64438,2,0,L|411:332,1,125,8|0,0:0|0:0,0:0:0:0:
145,180,64838,1,8,0:0:0:0:
409,166,65038,1,8,0:0:0:0:
145,180,65238,2,0,L|292:167,1,125,8|2,0:0|0:0,0:0:0:0:
338,162,65538,1,2,0:0:0:0:
55,56,65638,6,0,L|44:137,2,62.5,2|0|0,0:0|0:0|0:0,0:0:0:0:
331,143,66038,1,8,0:0:0:0:
171,139,66238,1,0,0:0:0:0:
457,56,66438,2,0,L|468:137,2,62.5,2|0|0,0:0|0:0|0:0,0:0:0:0:
181,143,66838,1,8,0:0:0:0:
354,146,67038,1,0,0:0:0:0:
88,192,67238,6,0,L|19:192,1,62.5,2|0,0:0|0:0,0:0:0:0:
243,260,67438,2,0,L|340:260,1,62.5
97,305,67638,1,6,0:0:0:0:
377,304,67838,1,0,0:0:0:0:
80,304,68038,2,0,L|12:304,1,62.5,2|0,0:0|0:0,0:0:0:0:
200,264,68238,2,0,L|319:263,1,62.5
449,259,68438,2,0,L|361:258,1,62.5,6|0,0:0|0:0,0:0:0:0:
200,237,68638,2,0,L|126:237,1,62.5
425,350,68838,5,0,0:0:0:0:
427,287,68938,1,0,0:0:0:0:
409,228,69038,1,0,0:0:0:0:
372,177,69138,1,0,0:0:0:0:
322,141,69238,1,0,0:0:0:0:
262,123,69338,1,0,0:0:0:0:
202,121,69438,1,0,0:0:0:0:
140,133,69538,1,0,0:0:0:0:
91,166,69638,1,0,0:0:0:0:
59,215,69771,1,0,0:0:0:0:
56,272,69904,1,0,0:0:0:0:
62,331,70038,6,0,L|81:197,1,125,0|0,1:0|1:0,0:0:0:0:
471,349,70638,5,4,0:0:0:0:
322,238,70938,2,0,L|387:230,1,62.5,0|0,1:0|0:0,0:0:0:0:
452,226,71238,1,2,0:0:0:0:
281,153,71538,1,0,1:0:0:0:
429,187,71838,1,2,0:0:0:0:
196,275,72138,1,0,1:0:0:0:
431,197,72438,2,0,L|436:339,1,125,2|0,0:0|0:0,0:0:0:0:
226,163,73038,6,0,P|150:139|80:143,1,125,2|0,0:0|0:0,0:0:0:0:
315,313,73626,2,0,P|377:310|435:288,1,125,2|0,0:0|0:0,0:0:0:0:
158,237,74214,2,0,L|155:372,1,125,2|0,0:0|0:0,0:0:0:0:
387,72,74802,2,0,L|387:205,1,125
111,47,75390,5,2,0:0:0:0:
263,148,75678,2,0,L|336:140,1,62.5,0|0,1:0|1:0,0:0:0:0:
175,303,76111,2,0,L|90:294,1,62.5,0|0,1:0|1:0,0:0:0:0:
321,255,76543,1,2,0:0:0:0:
84,337,76826,1,0,1:0:0:0:
328,251,77109,2,0,L|480:273,1,125,2|0,0:0|0:0,0:0:0:0:
187,154,77675,6,0,L|106:168,1,62.5,2|0,0:0|1:0,0:0:0:0:
310,244,78091,1,0,1:0:0:0:
122,196,78369,1,0,1:0:0:0:
324,248,78647,1,0,1:0:0:0:
217,257,78786,6,0,L|206:332,1,62.5,2|0,0:0|0:0,0:0:0:0:
305,240,79058,1,0,0:0:0:0:
148,155,79195,1,0,0:0:0:0:
227,119,79331,2,0,L|314:137,1,62.5,2|0,0:0|0:0,0:0:0:0:
94,35,79604,2,0,L|19:46,1,62.5
300,93,79876,5,6,0:0:0:0:
99,48,80143,2,0,L|172:38,1,62.5,0|0,1:0|1:0,0:0:0:0:
328,200,80541,2,0,L|219:184,1,62.5,0|0,1:0|1:0,0:0:0:0:
116,246,80932,1,2,0:0:0:0:
452,331,81186,1,0,1:0:0:0:
257,255,81440,2,0,L|121:265,1,125,2|0,0:0|0:0,0:0:0:0:
443,129,81935,6,0,L|441:261,1,125,6|0,0:0|1:0,0:0:0:0:
280,93,82418,1,2,0:0:0:0:
440,96,82654,1,0,1:0:0:0:
248,120,82890,2,0,L|96:121,1,125,2|0,0:0|1:0,0:0:0:0:
336,217,83351,2,0,L|481:219,1,125,2|0,0:0|1:0,0:0:0:0:
77,321,83802,5,6,0:0:0:0:
240,251,84022,2,0,L|156:239,1,62.5,0|0,1:0|1:0,0:0:0:0:
371,176,84350,2,0,L|270:161,1,62.5,0|0,1:0|1:0,0:0:0:0:
31,96,84674,2,0,L|167:79,1,125,2|2,0:0|0:0,0:0:0:0:
335,263,85096,2,0,L|272:251,1,62.5,2|2,0:0|0:0,0:0:0:0:
107,262,85301,2,0,L|35:253,1,62.5,2|2,0:0|0:0,0:0:0:0:
257,343,85506,6,0,L|269:273,1,62.5,6|2,0:0|0:0,0:0:0:0:
94,180,85706,1,2,0:0:0:0:
279,238,85806,2,0,L|290:158,1,62.5,0|6,0:0|0:0,0:0:0:0:
67,177,86006,1,2,0:0:0:0:
273,152,86106,2,0,L|262:84,1,62.5,2|0,0:0|0:0,0:0:0:0:
23,127,86306,1,6,0:0:0:0:
180,126,86406,1,2,0:0:0:0:
337,126,86506,1,2,0:0:0:0:
494,129,86606,1,2,0:0:0:0:
241,137,86706,2,0,L|179:132,1,62.5,6|0,0:0|0:0,0:0:0:0:
420,141,86906,2,0,L|483:137,1,62.5,2|0,0:0|0:0,0:0:0:0:
196,213,87106,6,0,L|193:343,1,125,2|0,0:0|0:0,0:0:0:0:
339,193,87506,1,0,0:0:0:0:
186,182,87706,1,0,0:0:0:0:
323,167,87806,1,0,0:0:0:0:
177,165,88006,2,0,L|41:151,1,125
200,85,88306,1,0,0:0:0:0:
489,86,88506,1,6,0:0:0:0:
192,84,88706,6,0,L|34:84,1,125,6|0,0:0|0:0,0:0:0:0:
239,162,89106,1,0,0:0:0:0:
86,165,89306,1,0,0:0:0:0:
207,162,89406,1,0,0:0:0:0:
400,161,89606,2,0,L|261:161,1,125
161,162,89906,1,0,0:0:0:0:
484,161,90106,1,6,0:0:0:0:
224,149,90306,6,0,L|359:149,1,125,6|0,0:0|0:0,0:0:0:0:
171,220,90706,1,0,0:0:0:0:
483,224,90906,1,2,0:0:0:0:
289,207,91006,1,0,0:0:0:0:
483,224,91106,2,0,L|351:215,1,125,6|0,0:0|0:0,0:0:0:0:
295,212,91406,1,0,0:0:0:0:
39,129,91506,2,0,L|171:120,1,125,0|6,0:0|0:0,0:0:0:0:
227,117,91806,1,0,0:0:0:0:
465,162,91906,6,0,L|476:103,1,41.6666666666667,6|0,0:0|0:0,0:0:0:0:
294,339,92039,2,0,L|284:283,1,41.6666666666667,2|0,0:0|0:0,0:0:0:0:
88,179,92172,2,0,L|100:121,1,41.6666666666667,2|0,0:0|0:0,0:0:0:0:
465,162,92306,6,0,L|476:103,1,41.6666666666667,2|0,0:0|0:0,0:0:0:0:
294,339,92439,2,0,L|284:283,1,41.6666666666667,2|0,0:0|0:0,0:0:0:0:
88,179,92572,2,0,L|100:121,1,41.6666666666667,2|0,0:0|0:0,0:0:0:0:
314,60,92706,2,0,L|102:45,1,187.5,10|0,0:0|0:0,0:0:0:0:
449,191,93106,2,0,L|45:167,1,375.000014305115
144,165,93406,1,0,0:0:0:0:
442,55,93506,6,0,L|315:42,1,125,2|0,0:0|1:0,0:0:0:0:
108,277,93806,2,0,L|248:260,1,125,0|0,1:0|1:0,0:0:0:0:
407,314,94106,2,0,L|319:301,1,62.5,0|0,1:0|1:0,0:0:0:0:
174,179,94306,1,2,0:0:0:0:
337,124,94506,1,0,1:0:0:0:
202,157,94706,1,8,0:0:0:0:
304,164,94806,1,0,1:0:0:0:
202,157,94906,1,0,1:0:0:0:
303,165,95006,1,0,1:0:0:0:
145,68,95106,6,0,L|75:80,1,62.5,2|0,0:0|1:0,0:0:0:0:
295,211,95306,2,0,L|360:226,1,62.5,0|0,1:0|1:0,0:0:0:0:
155,273,95506,1,8,0:0:0:0:
337,171,95606,2,0,L|152:189,1,125,0|0,1:0|1:0,0:0:0:0:
388,157,95906,5,4,0:0:0:0:
235,205,96106,1,2,0:0:0:0:
401,239,96206,1,4,0:0:0:0:
235,221,96406,1,2,0:0:0:0:
403,253,96506,1,4,0:0:0:0:
28,333,96706,6,0,L|192:308,1,125,2|0,0:0|1:0,0:0:0:0:
324,336,97006,2,0,L|401:329,1,62.5,0|8,1:0|0:0,0:0:0:0:
212,254,97206,1,0,1:0:0:0:
386,308,97306,2,0,L|313:315,1,62.5,0|0,1:0|1:0,0:0:0:0:
74,191,97506,2,0,L|74:317,1,125,2|0,0:0|1:0,0:0:0:0:
462,93,97906,2,0,L|462:223,1,125,8|0,0:0|1:0,0:0:0:0:
393,222,98206,1,0,1:0:0:0:
156,209,98306,6,0,L|21:208,1,125,6|0,0:0|0:0,0:0:0:0:
245,292,98606,2,0,L|373:293,1,125,6|0,0:0|0:0,0:0:0:0:
150,130,98906,2,0,L|149:199,1,62.5,10|0,0:0|0:0,0:0:0:0:
363,313,99106,6,0,L|497:299,1,125,8|2,0:0|0:0,0:0:0:0:
421,277,99406,1,2,0:0:0:0:
207,202,99506,2,0,L|341:188,1,125,12|2,0:0|0:0,0:0:0:0:
265,166,99806,1,2,0:0:0:0:
64,99,99906,6,0,L|202:82,1,125,2|0,0:0|1:0,0:0:0:0:
366,274,100206,2,0,L|211:257,1,125,0|0,1:0|1:0,0:0:0:0:
432,167,100506,2,0,L|496:173,1,62.5,0|0,1:0|1:0,0:0:0:0:
205,107,100706,5,2,0:0:0:0:
354,82,100906,1,0,1:0:0:0:
228,85,101106,1,8,0:0:0:0:
326,103,101206,1,0,1:0:0:0:
228,85,101306,1,0,1:0:0:0:
326,103,101406,1,0,1:0:0:0:
138,44,101506,6,0,L|75:52,1,62.5,2|0,0:0|1:0,0:0:0:0:
299,189,101706,2,0,L|366:205,1,62.5,0|0,1:0|0:0,0:0:0:0:
154,251,101906,1,8,0:0:0:0:
311,139,102006,2,0,L|152:159,1,125,0|0,1:0|1:0,0:0:0:0:
407,232,102306,5,4,0:0:0:0:
260,189,102506,1,2,0:0:0:0:
417,224,102606,1,4,0:0:0:0:
270,191,102806,1,2,0:0:0:0:
428,221,102906,1,4,0:0:0:0:
164,87,103106,6,0,L|32:94,1,125,2|0,0:0|1:0,0:0:0:0:
324,200,103406,2,0,L|460:199,1,125,0|0,1:0|1:0,0:0:0:0:
211,296,103706,2,0,L|289:294,1,62.5,0|0,1:0|1:0,0:0:0:0:
56,180,103906,2,0,L|55:308,1,125,6|0,0:0|1:0,0:0:0:0:
332,191,104306,2,0,L|400:189,1,62.5,8|0,0:0|1:0,0:0:0:0:
158,118,104506,2,0,L|62:117,1,62.5,0|0,1:0|1:0,0:0:0:0:
368,52,104706,5,4,0:0:0:0:
228,75,104906,1,2,0:0:0:0:
385,56,105006,1,4,0:0:0:0:
237,73,105206,1,2,0:0:0:0:
394,54,105306,1,4,0:0:0:0:
90,47,105506,2,0,L|89:198,1,125,2|0,0:0|0:0,0:0:0:0:
443,169,105906,2,0,L|443:303,1,125,8|0,0:0|0:0,0:0:0:0:
164,203,106306,5,2,0:0:0:0:
294,194,106439,1,2,0:0:0:0:
164,203,106572,1,2,0:0:0:0:
361,197,106706,2,0,L|369:373,1,166.666666666667,2|2,0:0|0:0,0:0:0:0:
65,212,107106,2,0,L|62:17,1,187.5,2|0,0:0|0:0,0:0:0:0:
292,290,107506,5,0,0:0:0:0:
322,282,107556,1,0,0:0:0:0:
346,262,107606,1,0,0:0:0:0:
359,234,107656,1,0,0:0:0:0:
359,203,107706,1,0,0:0:0:0:
346,175,107756,1,0,0:0:0:0:
323,155,107806,1,0,0:0:0:0:
293,147,107856,1,0,0:0:0:0:
39,79,107906,6,0,L|193:56,1,137.500004196167,6|0,0:0|1:0,0:0:0:0:
374,236,108206,2,0,L|226:222,1,137.500004196167,0|0,1:0|1:0,0:0:0:0:
463,87,108506,2,0,L|469:171,1,68.7500020980836,0|0,1:0|1:0,0:0:0:0:
156,63,108706,1,2,0:0:0:0:
448,37,108906,1,0,1:0:0:0:
123,57,109106,1,8,0:0:0:0:
65,89,109206,1,0,1:0:0:0:
63,155,109306,1,0,1:0:0:0:
118,192,109406,1,0,1:0:0:0:
321,202,109506,6,0,L|469:203,1,137.500004196167,2|0,0:0|1:0,0:0:0:0:
385,181,109806,1,0,0:0:0:0:
162,289,109906,2,0,L|14:290,1,137.500004196167,8|0,0:0|1:0,0:0:0:0:
98,268,110206,1,0,0:0:0:0:
349,263,110306,1,2,0:0:0:0:
202,262,110506,1,0,1:0:0:0:
471,180,110706,2,0,L|476:325,1,137.500004196167,8|0,0:0|0:0,0:0:0:0:
154,121,111106,5,2,0:0:0:0:
304,155,111306,1,2,0:0:0:0:
144,118,111406,1,8,0:0:0:0:
296,153,111606,1,2,0:0:0:0:
136,116,111706,1,8,0:0:0:0:
397,232,111906,1,10,0:0:0:0:
101,288,112106,1,10,0:0:0:0:
413,238,112306,2,0,L|433:380,1,137.500004196167,8|2,0:0|0:0,0:0:0:0:
359,350,112606,1,2,0:0:0:0:
77,275,112706,6,0,L|148:260,1,68.7500020980836,2|2,0:0|0:0,0:0:0:0:
362,321,112906,1,10,0:0:0:0:
67,296,113106,2,0,L|142:278,1,68.7500020980836,2|2,0:0|0:0,0:0:0:0:
370,306,113306,1,10,0:0:0:0:
51,147,113506,2,0,L|49:292,1,137.500004196167,2|0,0:0|1:0,0:0:0:0:
124,288,113806,1,0,1:0:0:0:
348,295,113906,2,0,L|431:295,1,68.7500020980836,8|8,0:0|0:0,0:0:0:0:
161,175,114106,2,0,L|82:175,1,68.7500020980836,2|2,0:0|0:0,0:0:0:0:
336,213,114306,6,0,L|351:138,1,68.7500020980836,2|0,0:0|0:0,0:0:0:0:
263,94,114506,1,0,1:0:0:0:
45,77,114606,2,0,L|137:59,2,68.7500020980836,0|8|0,1:0|0:0|1:0,0:0:0:0:
247,102,114906,2,0,L|336:87,1,68.7500020980836,0|0,1:0|1:0,0:0:0:0:
74,155,115106,6,0,L|62:227,1,68.7500020980836,2|0,0:0|1:0,0:0:0:0:
256,237,115306,2,0,L|256:305,1,68.7500020980836,0|0,1:0|1:0,0:0:0:0:
438,155,115506,2,0,L|450:227,1,68.7500020980836,8|0,0:0|1:0,0:0:0:0:
339,153,115706,2,0,L|326:74,1,68.7500020980836,0|0,1:0|1:0,0:0:0:0:
116,215,115906,6,0,L|124:137,1,68.7500020980836,6|0,0:0|1:0,0:0:0:0:
216,155,116106,2,0,L|226:76,1,68.7500020980836,0|0,1:0|1:0,0:0:0:0:
25,241,116306,2,0,L|100:220,1,68.7500020980836,8|0,0:0|1:0,0:0:0:0:
178,330,116506,2,0,L|99:321,1,68.7500020980836,0|0,1:0|1:0,0:0:0:0:
438,155,116706,6,0,L|450:227,1,68.7500020980836,2|0,0:0|1:0,0:0:0:0:
256,237,116906,2,0,L|256:305,1,68.7500020980836,0|0,1:0|1:0,0:0:0:0:
74,155,117106,2,0,L|62:227,1,68.7500020980836,8|0,0:0|1:0,0:0:0:0:
171,173,117306,2,0,L|186:78,1,68.7500020980836,0|0,1:0|1:0,0:0:0:0:
406,70,117506,5,2,0:0:0:0:
136,71,117706,1,2,0:0:0:0:
350,40,117806,1,10,0:0:0:0:
34,165,118006,1,2,0:0:0:0:
229,135,118106,1,10,0:0:0:0:
499,183,118306,1,10,0:0:0:0:
155,157,118506,1,10,0:0:0:0:
453,113,118706,2,0,L|460:261,1,137.500004196167,8|2,0:0|0:0,0:0:0:0:
386,227,119006,1,2,0:0:0:0:
37,295,119106,5,2,0:0:0:0:
319,339,119306,1,2,0:0:0:0:
52,290,119406,1,10,0:0:0:0:
386,261,119606,1,2,0:0:0:0:
66,295,119706,1,10,0:0:0:0:
461,320,119906,5,10,0:0:0:0:
45,196,120106,5,10,0:0:0:0:
454,184,120306,5,14,0:0:0:0:
256,192,120506,12,0,123906,0:0:0:0:
