osu file format v14

[General]
AudioFilename: Hyuji feat. LIQU@ - Mermaid girl (Tropical Remix).mp3
AudioLeadIn: 0
PreviewTime: 106816
Countdown: 0
SampleSet: Soft
StackLeniency: 0.7
Mode: 3
LetterboxInBreaks: 0
SpecialStyle: 0
WidescreenStoryboard: 0

[Editor]
DistanceSpacing: 1
BeatDivisor: 3
GridSize: 4
TimelineZoom: 2

[Metadata]
Title:Mermaid girl (Tropical Remix)
TitleUnicode:Mermaid girl (Tropical Remix)
Artist:Hyuji feat. LIQU@
ArtistUnicode:Hyuji feat. LIQU@
Creator:Applequestria
Version:Applequestria
Source:SOUND VOLTEX III GRAVITY WARS
Tags:cream puff hyuji halka beatmania IIDX
BeatmapID:1420956
BeatmapSetID:672173

[Difficulty]
HPDrainRate:8
CircleSize:4
OverallDifficulty:8
ApproachRate:8
SliderMultiplier:1.4
SliderTickRate:1

[Events]
//Background and Video events
0,0,"Hyuji feat. LIQU@ - Mermaid girl (Tropical Remix).png",0,0
//Break Periods
//Storyboard Layer 0 (Background)
//Storyboard Layer 1 (Fail)
//Storyboard Layer 2 (Pass)
//Storyboard Layer 3 (Foreground)
//Storyboard Layer 4 (Overlay)
//Storyboard Sound Samples

[TimingPoints]
2130,400,4,2,0,10,1,0
68932,600,4,2,0,10,1,0
68932,-66.6666666666667,4,2,0,10,0,0
69538,600,4,2,0,10,1,0
69538,-66.6666666666667,4,2,0,10,0,0
71940,585.365853658537,4,2,0,10,1,0
71940,-68.4931506849315,4,2,0,10,0,0
74288,571.428571428571,4,2,0,10,1,0
74288,-69.9300699300699,4,2,0,10,0,0
76576,550.45871559633,4,2,0,10,1,0
76576,-72.463768115942,4,2,0,10,0,0
78778,517.241379310345,4,2,0,10,1,0
78778,-77.5193798449612,4,2,0,10,0,0
80848,465.116279069767,4,2,0,10,1,0
80848,-86.2068965517241,4,2,0,10,0,0
82712,425.531914893617,4,2,0,10,1,0
82712,-94.3396226415094,4,2,0,10,0,0
84416,400,4,2,0,10,1,0
106816,400,4,2,0,10,1,1
119616,400,4,2,0,10,1,0

[HitObjects]
192,192,3330,5,0,0:0:0:0:
64,192,3330,1,0,0:0:0:0:
192,192,3530,1,0,0:0:0:0:
320,192,3530,1,0,0:0:0:0:
64,192,3730,5,0,0:0:0:0:
320,192,3730,1,0,0:0:0:0:
448,192,3730,1,0,0:0:0:0:
192,192,3930,1,0,0:0:0:0:
320,192,4030,1,0,0:0:0:0:
448,192,4030,1,0,0:0:0:0:
64,192,4330,1,0,0:0:0:0:
192,192,4330,1,0,0:0:0:0:
192,192,4530,1,0,0:0:0:0:
448,192,4530,1,0,0:0:0:0:
320,192,4630,1,0,0:0:0:0:
64,192,4730,1,0,0:0:0:0:
192,192,4730,1,0,0:0:0:0:
448,192,4930,1,0,0:0:0:0:
192,192,4930,1,0,0:0:0:0:
320,192,5030,1,0,0:0:0:0:
64,192,5130,1,0,0:0:0:0:
192,192,5230,1,0,0:0:0:0:
320,192,5330,1,0,0:0:0:0:
448,192,5330,1,0,0:0:0:0:
64,192,5530,1,0,0:0:0:0:
320,192,5530,1,0,0:0:0:0:
192,192,5630,1,0,0:0:0:0:
320,192,5730,1,0,0:0:0:0:
448,192,5730,1,0,0:0:0:0:
64,192,5930,1,0,0:0:0:0:
320,192,5930,1,0,0:0:0:0:
64,192,6130,1,0,0:0:0:0:
192,192,6130,1,0,0:0:0:0:
192,192,6330,1,0,0:0:0:0:
448,192,6330,1,0,0:0:0:0:
64,192,6530,1,0,0:0:0:0:
448,192,6530,1,0,0:0:0:0:
320,192,6630,1,0,0:0:0:0:
192,192,6730,1,0,0:0:0:0:
320,192,6830,1,0,0:0:0:0:
64,192,6930,1,0,0:0:0:0:
448,192,6930,1,0,0:0:0:0:
320,192,7130,1,0,0:0:0:0:
64,192,7130,1,0,0:0:0:0:
192,192,7230,1,0,0:0:0:0:
64,192,7230,1,0,0:0:0:0:
192,192,7430,1,0,0:0:0:0:
320,192,7530,1,0,0:0:0:0:
448,192,7530,1,0,0:0:0:0:
64,192,7730,1,0,0:0:0:0:
320,192,7730,1,0,0:0:0:0:
192,192,7930,1,0,0:0:0:0:
448,192,7930,1,0,0:0:0:0:
320,192,8130,1,0,0:0:0:0:
64,192,8130,1,0,0:0:0:0:
192,192,8230,1,0,0:0:0:0:
448,192,8330,1,0,0:0:0:0:
320,192,8430,1,0,0:0:0:0:
192,192,8530,1,0,0:0:0:0:
64,192,8530,1,0,0:0:0:0:
64,192,8730,1,0,0:0:0:0:
448,192,8730,1,0,0:0:0:0:
320,192,8830,1,0,0:0:0:0:
64,192,8930,1,0,0:0:0:0:
192,192,8930,1,0,0:0:0:0:
448,192,9030,1,0,0:0:0:0:
64,192,9130,1,0,0:0:0:0:
320,192,9130,1,0,0:0:0:0:
64,192,9330,1,0,0:0:0:0:
192,192,9330,1,0,0:0:0:0:
448,192,9530,1,0,0:0:0:0:
64,192,9730,1,0,0:0:0:0:
192,192,9730,1,0,0:0:0:0:
320,192,9830,1,0,0:0:0:0:
448,192,9930,1,0,0:0:0:0:
64,192,9930,1,0,0:0:0:0:
192,192,10030,1,0,0:0:0:0:
320,192,10130,1,0,0:0:0:0:
64,192,10130,1,0,0:0:0:0:
448,192,10130,1,0,0:0:0:0:
192,192,10330,1,0,0:0:0:0:
448,192,10330,1,0,0:0:0:0:
448,192,10430,1,0,0:0:0:0:
320,192,10430,1,0,0:0:0:0:
64,192,10530,1,0,0:0:0:0:
64,192,10730,1,0,0:0:0:0:
192,192,10730,1,0,0:0:0:0:
192,192,10930,1,0,0:0:0:0:
448,192,10930,1,0,0:0:0:0:
320,192,11030,1,0,0:0:0:0:
192,192,11130,1,0,0:0:0:0:
64,192,11130,1,0,0:0:0:0:
192,192,11330,1,0,0:0:0:0:
448,192,11330,1,0,0:0:0:0:
320,192,11430,1,0,0:0:0:0:
64,192,11530,1,0,0:0:0:0:
192,192,11630,1,0,0:0:0:0:
320,192,11730,1,0,0:0:0:0:
64,192,11730,1,0,0:0:0:0:
448,192,11730,1,0,0:0:0:0:
64,192,11930,1,0,0:0:0:0:
320,192,11930,1,0,0:0:0:0:
192,192,12030,1,0,0:0:0:0:
320,192,12130,1,0,0:0:0:0:
448,192,12130,1,0,0:0:0:0:
64,192,12330,1,0,0:0:0:0:
320,192,12330,1,0,0:0:0:0:
64,192,12530,1,0,0:0:0:0:
192,192,12530,1,0,0:0:0:0:
192,192,12730,1,0,0:0:0:0:
448,192,12730,1,0,0:0:0:0:
64,192,12930,1,0,0:0:0:0:
320,192,12930,1,0,0:0:0:0:
448,192,13030,1,0,0:0:0:0:
192,192,13130,1,0,0:0:0:0:
320,192,13230,1,0,0:0:0:0:
192,192,13330,1,0,0:0:0:0:
64,192,13330,1,0,0:0:0:0:
448,192,13330,1,0,0:0:0:0:
320,192,13530,1,0,0:0:0:0:
448,192,13530,1,0,0:0:0:0:
192,192,13630,1,0,0:0:0:0:
448,192,13630,1,0,0:0:0:0:
320,192,13730,1,0,0:0:0:0:
64,192,13830,1,0,0:0:0:0:
192,192,13830,1,0,0:0:0:0:
64,192,13930,1,0,0:0:0:0:
320,192,13930,1,0,0:0:0:0:
192,192,14130,1,0,0:0:0:0:
64,192,14130,1,0,0:0:0:0:
448,192,14130,1,0,0:0:0:0:
320,192,14330,1,0,0:0:0:0:
448,192,14330,1,0,0:0:0:0:
320,192,14530,1,0,0:0:0:0:
64,192,14530,1,0,0:0:0:0:
192,192,14630,1,0,0:0:0:0:
448,192,14730,1,0,0:0:0:0:
320,192,14830,1,0,0:0:0:0:
64,192,14930,1,0,0:0:0:0:
448,192,14930,1,0,0:0:0:0:
192,192,14930,1,0,0:0:0:0:
320,192,14980,1,0,0:0:0:0:
192,192,15030,1,0,0:0:0:0:
64,192,15080,1,0,0:0:0:0:
320,192,15130,1,0,0:0:0:0:
448,192,15130,1,0,0:0:0:0:
192,192,15180,1,0,0:0:0:0:
448,192,15230,1,0,0:0:0:0:
64,192,15230,1,0,0:0:0:0:
320,192,15280,1,0,0:0:0:0:
64,192,15330,1,0,0:0:0:0:
192,192,15330,1,0,0:0:0:0:
448,192,15380,1,0,0:0:0:0:
320,192,15430,1,0,0:0:0:0:
192,192,15430,1,0,0:0:0:0:
64,192,15480,1,0,0:0:0:0:
448,192,15530,1,0,0:0:0:0:
320,192,15530,1,0,0:0:0:0:
192,192,15580,1,0,0:0:0:0:
64,192,15630,1,0,0:0:0:0:
320,192,15680,1,0,0:0:0:0:
64,192,15730,1,0,0:0:0:0:
448,192,15730,1,0,0:0:0:0:
192,192,15730,1,0,0:0:0:0:
192,192,15930,1,0,0:0:0:0:
64,192,15930,1,0,0:0:0:0:
448,192,16130,1,0,0:0:0:0:
320,192,16130,1,0,0:0:0:0:
320,192,16330,1,0,0:0:0:0:
320,192,16430,1,0,0:0:0:0:
64,192,16530,1,0,0:0:0:0:
448,192,16530,1,0,0:0:0:0:
320,192,16830,1,0,0:0:0:0:
64,192,16930,1,0,0:0:0:0:
192,192,17130,1,0,0:0:0:0:
448,192,17330,1,0,0:0:0:0:
64,192,17330,1,0,0:0:0:0:
64,192,17530,1,0,0:0:0:0:
320,192,17630,1,0,0:0:0:0:
64,192,17730,1,0,0:0:0:0:
192,192,17930,1,0,0:0:0:0:
64,192,18130,1,0,0:0:0:0:
192,192,18230,1,0,0:0:0:0:
320,192,18430,1,0,0:0:0:0:
192,192,18530,1,0,0:0:0:0:
64,192,18530,1,0,0:0:0:0:
320,192,18630,1,0,0:0:0:0:
192,192,18730,1,0,0:0:0:0:
448,192,18930,1,0,0:0:0:0:
64,192,18930,1,0,0:0:0:0:
64,192,19130,1,0,0:0:0:0:
192,192,19230,1,0,0:0:0:0:
64,192,19330,1,0,0:0:0:0:
320,192,19530,1,0,0:0:0:0:
448,192,19730,1,0,0:0:0:0:
64,192,19730,1,0,0:0:0:0:
320,192,20030,1,0,0:0:0:0:
64,192,20130,1,0,0:0:0:0:
192,192,20330,1,0,0:0:0:0:
448,192,20530,1,0,0:0:0:0:
64,192,20530,1,0,0:0:0:0:
64,192,20730,1,0,0:0:0:0:
192,192,20830,1,0,0:0:0:0:
64,192,20930,1,0,0:0:0:0:
320,192,21130,1,0,0:0:0:0:
64,192,21330,1,0,0:0:0:0:
448,192,21430,1,0,0:0:0:0:
448,192,21630,1,0,0:0:0:0:
192,192,21730,1,0,0:0:0:0:
64,192,21730,1,0,0:0:0:0:
448,192,21830,1,0,0:0:0:0:
192,192,21930,1,0,0:0:0:0:
448,192,22130,1,0,0:0:0:0:
64,192,22130,1,0,0:0:0:0:
64,192,22330,1,0,0:0:0:0:
320,192,22430,1,0,0:0:0:0:
64,192,22530,1,0,0:0:0:0:
192,192,22730,1,0,0:0:0:0:
448,192,22930,1,0,0:0:0:0:
64,192,22930,1,0,0:0:0:0:
320,192,23230,1,0,0:0:0:0:
64,192,23230,1,0,0:0:0:0:
320,192,23330,1,0,0:0:0:0:
192,192,23530,1,0,0:0:0:0:
64,192,23530,1,0,0:0:0:0:
64,192,23630,1,0,0:0:0:0:
448,192,23730,1,0,0:0:0:0:
192,192,23730,1,0,0:0:0:0:
64,192,23930,1,0,0:0:0:0:
320,192,24030,1,0,0:0:0:0:
64,192,24130,1,0,0:0:0:0:
192,192,24330,1,0,0:0:0:0:
64,192,24330,1,0,0:0:0:0:
448,192,24530,1,0,0:0:0:0:
64,192,24530,1,0,0:0:0:0:
320,192,24830,1,0,0:0:0:0:
64,192,24830,1,0,0:0:0:0:
320,192,24930,1,0,0:0:0:0:
192,192,25130,1,0,0:0:0:0:
64,192,25130,1,0,0:0:0:0:
64,192,25230,1,0,0:0:0:0:
448,192,25330,1,0,0:0:0:0:
192,192,25330,1,0,0:0:0:0:
64,192,25530,1,0,0:0:0:0:
320,192,25630,1,0,0:0:0:0:
64,192,25730,1,0,0:0:0:0:
192,192,25930,1,0,0:0:0:0:
64,192,25930,1,0,0:0:0:0:
448,192,26130,1,0,0:0:0:0:
64,192,26130,1,0,0:0:0:0:
320,192,26430,1,0,0:0:0:0:
64,192,26430,1,0,0:0:0:0:
320,192,26530,1,0,0:0:0:0:
192,192,26730,1,0,0:0:0:0:
64,192,26730,1,0,0:0:0:0:
64,192,26830,1,0,0:0:0:0:
448,192,26930,1,0,0:0:0:0:
192,192,26930,1,0,0:0:0:0:
64,192,27130,1,0,0:0:0:0:
320,192,27230,1,0,0:0:0:0:
64,192,27330,1,0,0:0:0:0:
192,192,27530,1,0,0:0:0:0:
64,192,27530,1,0,0:0:0:0:
320,192,27630,1,0,0:0:0:0:
448,192,27730,1,0,0:0:0:0:
64,192,27730,1,0,0:0:0:0:
192,192,27730,1,0,0:0:0:0:
320,192,27830,1,0,0:0:0:0:
192,192,27930,1,0,0:0:0:0:
448,192,28030,1,0,0:0:0:0:
320,192,28030,1,0,0:0:0:0:
64,192,28130,1,0,0:0:0:0:
192,192,28130,1,0,0:0:0:0:
448,192,28130,1,0,0:0:0:0:
320,192,28230,1,0,0:0:0:0:
64,192,28330,1,0,0:0:0:0:
192,192,28330,1,0,0:0:0:0:
192,192,28430,1,0,0:0:0:0:
448,192,28530,1,0,0:0:0:0:
320,192,28530,1,0,0:0:0:0:
64,192,28530,1,0,0:0:0:0:
64,192,28730,1,0,0:0:0:0:
192,192,28930,1,0,0:0:0:0:
320,192,28930,1,0,0:0:0:0:
448,192,28930,128,0,29230:0:0:0:0:
64,192,29130,1,0,0:0:0:0:
64,192,29230,1,0,0:0:0:0:
192,192,29330,1,0,0:0:0:0:
320,192,29330,1,0,0:0:0:0:
448,192,29330,1,0,0:0:0:0:
64,192,29430,1,0,0:0:0:0:
320,192,29530,1,0,0:0:0:0:
448,192,29530,1,0,0:0:0:0:
192,192,29630,1,0,0:0:0:0:
448,192,29630,1,0,0:0:0:0:
64,192,29730,1,0,0:0:0:0:
320,192,29730,1,0,0:0:0:0:
64,192,29830,1,0,0:0:0:0:
192,192,29830,1,0,0:0:0:0:
448,192,29930,1,0,0:0:0:0:
320,192,29930,1,0,0:0:0:0:
192,192,30030,1,0,0:0:0:0:
64,192,30030,1,0,0:0:0:0:
320,192,30130,1,0,0:0:0:0:
448,192,30130,1,0,0:0:0:0:
192,192,30130,1,0,0:0:0:0:
64,192,30230,1,0,0:0:0:0:
320,192,30330,1,0,0:0:0:0:
448,192,30330,1,0,0:0:0:0:
192,192,30430,1,0,0:0:0:0:
320,192,30530,1,0,0:0:0:0:
64,192,30530,1,0,0:0:0:0:
448,192,30530,1,0,0:0:0:0:
448,192,30630,1,0,0:0:0:0:
192,192,30630,1,0,0:0:0:0:
320,192,30730,1,0,0:0:0:0:
64,192,30730,1,0,0:0:0:0:
448,192,30830,1,0,0:0:0:0:
192,192,30830,1,0,0:0:0:0:
448,192,30930,1,0,0:0:0:0:
320,192,30930,1,0,0:0:0:0:
64,192,30930,1,0,0:0:0:0:
64,192,31030,1,0,0:0:0:0:
192,192,31030,1,0,0:0:0:0:
448,192,31130,1,0,0:0:0:0:
320,192,31130,1,0,0:0:0:0:
64,192,31230,1,0,0:0:0:0:
320,192,31330,1,0,0:0:0:0:
192,192,31330,1,0,0:0:0:0:
448,192,31330,1,0,0:0:0:0:
64,192,31430,1,0,0:0:0:0:
320,192,31430,1,0,0:0:0:0:
448,192,31530,1,0,0:0:0:0:
192,192,31630,1,0,0:0:0:0:
64,192,31630,1,0,0:0:0:0:
320,192,31730,1,0,0:0:0:0:
64,192,31730,1,0,0:0:0:0:
448,192,31730,1,0,0:0:0:0:
192,192,31830,1,0,0:0:0:0:
320,192,31930,1,0,0:0:0:0:
192,192,32030,1,0,0:0:0:0:
64,192,32030,1,0,0:0:0:0:
448,192,32030,1,0,0:0:0:0:
320,192,32130,1,0,0:0:0:0:
192,192,32230,1,0,0:0:0:0:
320,192,32330,1,0,0:0:0:0:
64,192,32330,1,0,0:0:0:0:
448,192,32330,1,0,0:0:0:0:
448,192,32430,1,0,0:0:0:0:
64,192,32530,1,0,0:0:0:0:
192,192,32530,1,0,0:0:0:0:
320,192,32530,1,0,0:0:0:0:
448,192,32630,1,0,0:0:0:0:
64,192,32730,1,0,0:0:0:0:
320,192,32730,1,0,0:0:0:0:
192,192,32830,1,0,0:0:0:0:
64,192,32830,1,0,0:0:0:0:
448,192,32930,1,0,0:0:0:0:
320,192,32930,1,0,0:0:0:0:
64,192,33030,1,0,0:0:0:0:
320,192,33030,1,0,0:0:0:0:
192,192,33130,1,0,0:0:0:0:
448,192,33130,1,0,0:0:0:0:
64,192,33230,1,0,0:0:0:0:
320,192,33230,1,0,0:0:0:0:
192,192,33330,1,0,0:0:0:0:
448,192,33330,1,0,0:0:0:0:
64,192,33330,1,0,0:0:0:0:
320,192,33430,1,0,0:0:0:0:
64,192,33530,1,0,0:0:0:0:
448,192,33530,1,0,0:0:0:0:
192,192,33630,1,0,0:0:0:0:
320,192,33730,1,0,0:0:0:0:
64,192,33730,1,0,0:0:0:0:
448,192,33730,1,0,0:0:0:0:
192,192,33830,1,0,0:0:0:0:
64,192,33930,1,0,0:0:0:0:
448,192,33930,1,0,0:0:0:0:
320,192,34030,1,0,0:0:0:0:
192,192,34130,1,0,0:0:0:0:
64,192,34130,1,0,0:0:0:0:
448,192,34130,1,0,0:0:0:0:
320,192,34230,1,0,0:0:0:0:
192,192,34330,1,0,0:0:0:0:
320,192,34430,1,0,0:0:0:0:
64,192,34430,1,0,0:0:0:0:
448,192,34430,1,0,0:0:0:0:
192,192,34530,1,0,0:0:0:0:
320,192,34630,1,0,0:0:0:0:
192,192,34730,1,0,0:0:0:0:
64,192,34730,1,0,0:0:0:0:
448,192,34730,1,0,0:0:0:0:
192,192,34830,1,0,0:0:0:0:
320,192,34930,1,0,0:0:0:0:
64,192,34930,1,0,0:0:0:0:
448,192,34930,1,0,0:0:0:0:
192,192,35030,1,0,0:0:0:0:
320,192,35130,1,0,0:0:0:0:
448,192,35130,1,0,0:0:0:0:
64,192,35230,1,0,0:0:0:0:
192,192,35230,1,0,0:0:0:0:
320,192,35330,1,0,0:0:0:0:
64,192,35330,1,0,0:0:0:0:
448,192,35330,1,0,0:0:0:0:
192,192,35430,1,0,0:0:0:0:
64,192,35530,1,0,0:0:0:0:
448,192,35530,1,0,0:0:0:0:
192,192,35630,1,0,0:0:0:0:
320,192,35630,1,0,0:0:0:0:
192,192,35730,1,0,0:0:0:0:
64,192,35730,1,0,0:0:0:0:
448,192,35730,1,0,0:0:0:0:
320,192,35830,1,0,0:0:0:0:
64,192,35930,1,0,0:0:0:0:
192,192,35930,1,0,0:0:0:0:
192,192,36030,1,0,0:0:0:0:
448,192,36030,1,0,0:0:0:0:
64,192,36130,1,0,0:0:0:0:
320,192,36130,1,0,0:0:0:0:
320,192,36230,1,0,0:0:0:0:
448,192,36230,1,0,0:0:0:0:
64,192,36330,1,0,0:0:0:0:
192,192,36330,1,0,0:0:0:0:
320,192,36430,1,0,0:0:0:0:
448,192,36430,1,0,0:0:0:0:
64,192,36530,1,0,0:0:0:0:
448,192,36530,1,0,0:0:0:0:
192,192,36530,1,0,0:0:0:0:
320,192,36630,1,0,0:0:0:0:
64,192,36730,1,0,0:0:0:0:
192,192,36730,1,0,0:0:0:0:
320,192,36830,1,0,0:0:0:0:
192,192,36930,1,0,0:0:0:0:
64,192,36930,1,0,0:0:0:0:
448,192,36930,1,0,0:0:0:0:
192,192,37030,1,0,0:0:0:0:
320,192,37030,1,0,0:0:0:0:
64,192,37130,1,0,0:0:0:0:
448,192,37130,1,0,0:0:0:0:
192,192,37230,1,0,0:0:0:0:
320,192,37230,1,0,0:0:0:0:
192,192,37330,1,0,0:0:0:0:
64,192,37330,1,0,0:0:0:0:
448,192,37330,1,0,0:0:0:0:
448,192,37430,1,0,0:0:0:0:
320,192,37430,1,0,0:0:0:0:
64,192,37530,1,0,0:0:0:0:
192,192,37530,1,0,0:0:0:0:
320,192,37630,1,0,0:0:0:0:
192,192,37730,1,0,0:0:0:0:
64,192,37730,1,0,0:0:0:0:
448,192,37730,1,0,0:0:0:0:
64,192,37830,1,0,0:0:0:0:
320,192,37830,1,0,0:0:0:0:
448,192,37930,1,0,0:0:0:0:
64,192,38030,1,0,0:0:0:0:
192,192,38030,1,0,0:0:0:0:
320,192,38130,1,0,0:0:0:0:
64,192,38130,1,0,0:0:0:0:
448,192,38130,1,0,0:0:0:0:
192,192,38230,1,0,0:0:0:0:
320,192,38330,1,0,0:0:0:0:
448,192,38330,1,0,0:0:0:0:
192,192,38430,1,0,0:0:0:0:
64,192,38430,1,0,0:0:0:0:
448,192,38430,1,0,0:0:0:0:
320,192,38530,1,0,0:0:0:0:
192,192,38630,1,0,0:0:0:0:
320,192,38730,1,0,0:0:0:0:
64,192,38730,1,0,0:0:0:0:
448,192,38730,1,0,0:0:0:0:
448,192,38830,1,0,0:0:0:0:
320,192,38930,1,0,0:0:0:0:
192,192,38930,1,0,0:0:0:0:
64,192,38930,1,0,0:0:0:0:
448,192,39030,1,0,0:0:0:0:
64,192,39130,1,0,0:0:0:0:
320,192,39130,1,0,0:0:0:0:
320,192,39230,1,0,0:0:0:0:
448,192,39230,1,0,0:0:0:0:
64,192,39330,1,0,0:0:0:0:
192,192,39330,1,0,0:0:0:0:
192,192,39430,1,0,0:0:0:0:
448,192,39430,1,0,0:0:0:0:
64,192,39530,1,0,0:0:0:0:
320,192,39530,1,0,0:0:0:0:
192,192,39630,1,0,0:0:0:0:
448,192,39630,1,0,0:0:0:0:
320,192,39730,1,0,0:0:0:0:
64,192,39730,1,0,0:0:0:0:
448,192,39730,1,0,0:0:0:0:
192,192,39830,1,0,0:0:0:0:
320,192,39930,1,0,0:0:0:0:
448,192,39930,1,0,0:0:0:0:
64,192,40030,1,0,0:0:0:0:
320,192,40130,1,0,0:0:0:0:
192,192,40130,1,0,0:0:0:0:
448,192,40130,1,0,0:0:0:0:
64,192,40230,1,0,0:0:0:0:
320,192,40330,1,0,0:0:0:0:
448,192,40330,1,0,0:0:0:0:
192,192,40430,1,0,0:0:0:0:
320,192,40530,1,0,0:0:0:0:
64,192,40530,1,0,0:0:0:0:
448,192,40530,1,0,0:0:0:0:
192,192,40630,1,0,0:0:0:0:
320,192,40730,1,0,0:0:0:0:
192,192,40830,1,0,0:0:0:0:
64,192,40830,1,0,0:0:0:0:
448,192,40830,1,0,0:0:0:0:
320,192,40930,1,0,0:0:0:0:
192,192,41030,1,0,0:0:0:0:
320,192,41130,1,0,0:0:0:0:
64,192,41130,1,0,0:0:0:0:
448,192,41130,1,0,0:0:0:0:
64,192,41230,1,0,0:0:0:0:
192,192,41330,1,0,0:0:0:0:
320,192,41330,1,0,0:0:0:0:
448,192,41330,1,0,0:0:0:0:
64,192,41430,1,0,0:0:0:0:
192,192,41530,1,0,0:0:0:0:
448,192,41530,1,0,0:0:0:0:
320,192,41630,1,0,0:0:0:0:
64,192,41730,1,0,0:0:0:0:
448,192,41730,1,0,0:0:0:0:
192,192,41730,1,0,0:0:0:0:
192,192,41830,1,0,0:0:0:0:
320,192,41830,1,0,0:0:0:0:
64,192,41930,1,0,0:0:0:0:
448,192,41930,1,0,0:0:0:0:
320,192,41930,1,0,0:0:0:0:
192,192,42030,1,0,0:0:0:0:
448,192,42030,1,0,0:0:0:0:
64,192,42130,1,0,0:0:0:0:
192,192,42130,1,0,0:0:0:0:
320,192,42130,1,0,0:0:0:0:
448,192,42230,1,0,0:0:0:0:
320,192,42330,1,0,0:0:0:0:
192,192,42430,1,0,0:0:0:0:
320,192,42530,1,0,0:0:0:0:
64,192,42530,1,0,0:0:0:0:
448,192,42530,1,0,0:0:0:0:
192,192,42630,1,0,0:0:0:0:
320,192,42730,1,0,0:0:0:0:
448,192,42830,1,0,0:0:0:0:
64,192,42930,1,0,0:0:0:0:
320,192,42930,1,0,0:0:0:0:
192,192,42930,1,0,0:0:0:0:
448,192,43030,1,0,0:0:0:0:
320,192,43130,1,0,0:0:0:0:
192,192,43230,1,0,0:0:0:0:
320,192,43330,1,0,0:0:0:0:
64,192,43330,1,0,0:0:0:0:
448,192,43330,1,0,0:0:0:0:
192,192,43430,1,0,0:0:0:0:
64,192,43530,1,0,0:0:0:0:
448,192,43530,1,0,0:0:0:0:
320,192,43630,1,0,0:0:0:0:
192,192,43730,1,0,0:0:0:0:
448,192,43730,1,0,0:0:0:0:
64,192,43730,1,0,0:0:0:0:
320,192,43830,1,0,0:0:0:0:
64,192,43930,1,0,0:0:0:0:
192,192,43930,1,0,0:0:0:0:
320,192,44030,1,0,0:0:0:0:
448,192,44030,1,0,0:0:0:0:
192,192,44130,1,0,0:0:0:0:
64,192,44130,1,0,0:0:0:0:
448,192,44130,1,0,0:0:0:0:
192,192,44230,1,0,0:0:0:0:
448,192,44330,1,0,0:0:0:0:
64,192,44330,1,0,0:0:0:0:
320,192,44330,1,0,0:0:0:0:
192,192,44430,1,0,0:0:0:0:
448,192,44530,1,0,0:0:0:0:
320,192,44530,1,0,0:0:0:0:
192,192,44630,1,0,0:0:0:0:
64,192,44730,1,0,0:0:0:0:
448,192,44730,1,0,0:0:0:0:
320,192,44830,1,0,0:0:0:0:
192,192,44930,1,0,0:0:0:0:
64,192,44930,1,0,0:0:0:0:
448,192,44930,1,0,0:0:0:0:
320,192,45030,1,0,0:0:0:0:
64,192,45030,1,0,0:0:0:0:
192,192,45130,1,0,0:0:0:0:
448,192,45130,1,0,0:0:0:0:
320,192,45130,1,0,0:0:0:0:
64,192,45230,1,0,0:0:0:0:
192,192,45230,1,0,0:0:0:0:
320,192,45330,1,0,0:0:0:0:
64,192,45330,1,0,0:0:0:0:
448,192,45330,1,0,0:0:0:0:
192,192,45430,1,0,0:0:0:0:
320,192,45530,1,0,0:0:0:0:
448,192,45630,1,0,0:0:0:0:
192,192,45730,1,0,0:0:0:0:
64,192,45730,1,0,0:0:0:0:
320,192,45730,1,0,0:0:0:0:
448,192,45830,1,0,0:0:0:0:
320,192,45930,1,0,0:0:0:0:
192,192,46030,1,0,0:0:0:0:
320,192,46130,1,0,0:0:0:0:
64,192,46130,1,0,0:0:0:0:
448,192,46130,1,0,0:0:0:0:
192,192,46230,1,0,0:0:0:0:
320,192,46330,1,0,0:0:0:0:
448,192,46430,1,0,0:0:0:0:
192,192,46530,1,0,0:0:0:0:
64,192,46530,1,0,0:0:0:0:
320,192,46530,1,0,0:0:0:0:
448,192,46630,1,0,0:0:0:0:
64,192,46730,1,0,0:0:0:0:
320,192,46730,1,0,0:0:0:0:
192,192,46830,1,0,0:0:0:0:
320,192,46930,1,0,0:0:0:0:
64,192,46930,1,0,0:0:0:0:
448,192,46930,1,0,0:0:0:0:
192,192,47030,1,0,0:0:0:0:
320,192,47030,1,0,0:0:0:0:
192,192,47130,1,0,0:0:0:0:
64,192,47130,1,0,0:0:0:0:
448,192,47130,1,0,0:0:0:0:
320,192,47230,1,0,0:0:0:0:
192,192,47330,1,0,0:0:0:0:
64,192,47330,1,0,0:0:0:0:
448,192,47330,1,0,0:0:0:0:
192,192,47430,1,0,0:0:0:0:
320,192,47430,1,0,0:0:0:0:
320,192,47530,1,0,0:0:0:0:
64,192,47530,1,0,0:0:0:0:
448,192,47530,1,0,0:0:0:0:
192,192,47630,1,0,0:0:0:0:
320,192,47730,1,0,0:0:0:0:
448,192,47730,1,0,0:0:0:0:
64,192,47830,1,0,0:0:0:0:
192,192,47930,1,0,0:0:0:0:
320,192,48030,1,0,0:0:0:0:
448,192,48030,1,0,0:0:0:0:
192,192,48130,1,0,0:0:0:0:
64,192,48130,1,0,0:0:0:0:
448,192,48130,1,0,0:0:0:0:
192,192,48230,1,0,0:0:0:0:
320,192,48330,1,0,0:0:0:0:
64,192,48330,1,0,0:0:0:0:
448,192,48330,1,0,0:0:0:0:
320,192,48430,1,0,0:0:0:0:
192,192,48530,1,0,0:0:0:0:
64,192,48530,1,0,0:0:0:0:
448,192,48530,1,0,0:0:0:0:
320,192,48630,1,0,0:0:0:0:
192,192,48730,1,0,0:0:0:0:
64,192,48830,1,0,0:0:0:0:
320,192,48930,1,0,0:0:0:0:
192,192,48930,1,0,0:0:0:0:
448,192,48930,1,0,0:0:0:0:
64,192,49030,1,0,0:0:0:0:
192,192,49130,1,0,0:0:0:0:
320,192,49230,1,0,0:0:0:0:
192,192,49330,1,0,0:0:0:0:
64,192,49330,1,0,0:0:0:0:
448,192,49330,1,0,0:0:0:0:
320,192,49430,1,0,0:0:0:0:
192,192,49530,1,0,0:0:0:0:
64,192,49630,1,0,0:0:0:0:
320,192,49730,1,0,0:0:0:0:
192,192,49730,1,0,0:0:0:0:
448,192,49730,1,0,0:0:0:0:
64,192,49830,1,0,0:0:0:0:
192,192,49930,1,0,0:0:0:0:
448,192,50030,1,0,0:0:0:0:
192,192,50130,1,0,0:0:0:0:
64,192,50130,1,0,0:0:0:0:
448,192,50130,1,0,0:0:0:0:
320,192,50230,1,0,0:0:0:0:
64,192,50330,1,0,0:0:0:0:
192,192,50430,1,0,0:0:0:0:
64,192,50530,1,0,0:0:0:0:
320,192,50530,1,0,0:0:0:0:
192,192,50530,1,0,0:0:0:0:
448,192,50630,1,0,0:0:0:0:
192,192,50730,1,0,0:0:0:0:
320,192,50830,1,0,0:0:0:0:
448,192,50930,1,0,0:0:0:0:
320,192,50930,1,0,0:0:0:0:
64,192,50930,1,0,0:0:0:0:
192,192,51030,1,0,0:0:0:0:
448,192,51130,1,0,0:0:0:0:
320,192,51230,1,0,0:0:0:0:
448,192,51330,1,0,0:0:0:0:
64,192,51330,1,0,0:0:0:0:
192,192,51330,1,0,0:0:0:0:
192,192,51430,1,0,0:0:0:0:
320,192,51530,1,0,0:0:0:0:
64,192,51530,1,0,0:0:0:0:
448,192,51530,1,0,0:0:0:0:
320,192,51630,1,0,0:0:0:0:
192,192,51730,1,0,0:0:0:0:
192,192,52130,1,0,0:0:0:0:
64,192,52130,1,0,0:0:0:0:
448,192,52130,1,0,0:0:0:0:
320,192,52230,1,0,0:0:0:0:
192,192,52330,1,0,0:0:0:0:
192,192,52430,1,0,0:0:0:0:
320,192,52530,1,0,0:0:0:0:
192,192,52930,1,0,0:0:0:0:
64,192,52930,1,0,0:0:0:0:
448,192,52930,1,0,0:0:0:0:
320,192,53030,1,0,0:0:0:0:
64,192,53130,1,0,0:0:0:0:
448,192,53130,1,0,0:0:0:0:
192,192,53230,1,0,0:0:0:0:
320,192,53330,1,0,0:0:0:0:
64,192,53330,1,0,0:0:0:0:
448,192,53330,1,0,0:0:0:0:
448,192,53430,1,0,0:0:0:0:
192,192,53530,1,0,0:0:0:0:
64,192,53530,1,0,0:0:0:0:
320,192,53530,1,0,0:0:0:0:
192,192,53630,1,0,0:0:0:0:
320,192,53730,1,0,0:0:0:0:
64,192,53730,1,0,0:0:0:0:
448,192,53730,1,0,0:0:0:0:
320,192,53830,1,0,0:0:0:0:
192,192,53930,1,0,0:0:0:0:
64,192,53930,1,0,0:0:0:0:
448,192,53930,1,0,0:0:0:0:
320,192,54030,1,0,0:0:0:0:
64,192,54130,1,0,0:0:0:0:
192,192,54130,1,0,0:0:0:0:
448,192,54230,1,0,0:0:0:0:
64,192,54330,1,0,0:0:0:0:
192,192,54330,1,0,0:0:0:0:
320,192,54430,1,0,0:0:0:0:
64,192,54530,1,0,0:0:0:0:
192,192,54530,1,0,0:0:0:0:
64,192,54630,1,0,0:0:0:0:
320,192,54630,1,0,0:0:0:0:
192,192,54730,1,0,0:0:0:0:
320,192,54830,1,0,0:0:0:0:
448,192,54830,1,0,0:0:0:0:
192,192,54930,1,0,0:0:0:0:
448,192,54930,1,0,0:0:0:0:
64,192,55030,1,0,0:0:0:0:
320,192,55130,1,0,0:0:0:0:
448,192,55130,1,0,0:0:0:0:
192,192,55230,1,0,0:0:0:0:
448,192,55330,1,0,0:0:0:0:
64,192,55330,1,0,0:0:0:0:
320,192,55330,1,0,0:0:0:0:
192,192,55430,1,0,0:0:0:0:
64,192,55530,1,0,0:0:0:0:
448,192,55530,1,0,0:0:0:0:
320,192,55630,1,0,0:0:0:0:
64,192,55730,1,0,0:0:0:0:
192,192,55730,1,0,0:0:0:0:
448,192,55730,1,0,0:0:0:0:
192,192,55830,1,0,0:0:0:0:
64,192,55930,1,0,0:0:0:0:
448,192,55930,1,0,0:0:0:0:
320,192,55930,1,0,0:0:0:0:
320,192,56030,1,0,0:0:0:0:
192,192,56130,1,0,0:0:0:0:
448,192,56130,1,0,0:0:0:0:
64,192,56130,1,0,0:0:0:0:
320,192,56230,1,0,0:0:0:0:
448,192,56330,1,0,0:0:0:0:
192,192,56330,1,0,0:0:0:0:
64,192,56430,1,0,0:0:0:0:
320,192,56730,1,0,0:0:0:0:
448,192,56730,1,0,0:0:0:0:
192,192,56830,1,0,0:0:0:0:
320,192,56930,1,0,0:0:0:0:
64,192,56930,1,0,0:0:0:0:
448,192,56930,1,0,0:0:0:0:
192,192,57030,1,0,0:0:0:0:
64,192,57130,1,0,0:0:0:0:
448,192,57130,1,0,0:0:0:0:
320,192,57230,1,0,0:0:0:0:
64,192,57330,1,0,0:0:0:0:
192,192,57330,1,0,0:0:0:0:
320,192,57430,1,0,0:0:0:0:
64,192,57530,1,0,0:0:0:0:
192,192,57530,1,0,0:0:0:0:
448,192,57630,1,0,0:0:0:0:
64,192,57730,1,0,0:0:0:0:
192,192,57730,1,0,0:0:0:0:
320,192,57830,1,0,0:0:0:0:
192,192,57930,1,0,0:0:0:0:
64,192,57930,1,0,0:0:0:0:
448,192,57930,1,0,0:0:0:0:
192,192,58030,1,0,0:0:0:0:
320,192,58130,1,0,0:0:0:0:
64,192,58130,1,0,0:0:0:0:
448,192,58130,1,0,0:0:0:0:
192,192,58230,1,0,0:0:0:0:
320,192,58330,1,0,0:0:0:0:
192,192,58430,1,0,0:0:0:0:
64,192,58430,1,0,0:0:0:0:
320,192,58530,1,0,0:0:0:0:
64,192,58530,1,0,0:0:0:0:
448,192,58530,1,0,0:0:0:0:
192,192,58630,1,0,0:0:0:0:
320,192,58730,1,0,0:0:0:0:
64,192,58830,1,0,0:0:0:0:
192,192,58830,1,0,0:0:0:0:
320,192,58930,1,0,0:0:0:0:
64,192,58930,1,0,0:0:0:0:
448,192,58930,1,0,0:0:0:0:
192,192,59030,1,0,0:0:0:0:
320,192,59130,1,0,0:0:0:0:
64,192,59230,1,0,0:0:0:0:
192,192,59230,1,0,0:0:0:0:
320,192,59330,1,0,0:0:0:0:
64,192,59330,1,0,0:0:0:0:
448,192,59330,1,0,0:0:0:0:
320,192,59430,1,0,0:0:0:0:
192,192,59530,1,0,0:0:0:0:
64,192,59530,1,0,0:0:0:0:
448,192,59530,1,0,0:0:0:0:
192,192,59630,1,0,0:0:0:0:
320,192,59730,1,0,0:0:0:0:
64,192,59730,1,0,0:0:0:0:
448,192,59730,1,0,0:0:0:0:
192,192,59830,1,0,0:0:0:0:
320,192,59930,1,0,0:0:0:0:
448,192,59930,1,0,0:0:0:0:
192,192,60030,1,0,0:0:0:0:
64,192,60130,1,0,0:0:0:0:
320,192,60130,1,0,0:0:0:0:
320,192,60230,1,0,0:0:0:0:
448,192,60230,1,0,0:0:0:0:
192,192,60330,1,0,0:0:0:0:
320,192,60430,1,0,0:0:0:0:
448,192,60430,1,0,0:0:0:0:
192,192,60530,1,0,0:0:0:0:
320,192,60630,1,0,0:0:0:0:
64,192,60730,1,0,0:0:0:0:
192,192,60730,1,0,0:0:0:0:
320,192,60830,1,0,0:0:0:0:
64,192,60930,1,0,0:0:0:0:
192,192,60930,1,0,0:0:0:0:
448,192,61030,1,0,0:0:0:0:
64,192,61130,1,0,0:0:0:0:
192,192,61130,1,0,0:0:0:0:
320,192,61230,1,0,0:0:0:0:
64,192,61330,1,0,0:0:0:0:
192,192,61330,1,0,0:0:0:0:
320,192,61430,1,0,0:0:0:0:
64,192,61530,1,0,0:0:0:0:
448,192,61530,1,0,0:0:0:0:
192,192,61630,1,0,0:0:0:0:
320,192,61730,1,0,0:0:0:0:
64,192,61730,1,0,0:0:0:0:
448,192,61730,1,0,0:0:0:0:
192,192,61830,1,0,0:0:0:0:
64,192,61930,1,0,0:0:0:0:
448,192,61930,1,0,0:0:0:0:
320,192,62030,1,0,0:0:0:0:
192,192,62130,1,0,0:0:0:0:
64,192,62130,1,0,0:0:0:0:
448,192,62130,1,0,0:0:0:0:
320,192,62230,1,0,0:0:0:0:
192,192,62330,1,0,0:0:0:0:
448,192,62330,1,0,0:0:0:0:
64,192,62430,1,0,0:0:0:0:
320,192,62530,1,0,0:0:0:0:
192,192,62530,1,0,0:0:0:0:
448,192,62530,1,0,0:0:0:0:
64,192,62630,1,0,0:0:0:0:
320,192,62730,1,0,0:0:0:0:
448,192,62730,1,0,0:0:0:0:
192,192,62830,1,0,0:0:0:0:
64,192,62930,1,0,0:0:0:0:
448,192,62930,1,0,0:0:0:0:
320,192,62930,1,0,0:0:0:0:
192,192,63030,1,0,0:0:0:0:
64,192,63130,1,0,0:0:0:0:
320,192,63230,1,0,0:0:0:0:
448,192,63330,1,0,0:0:0:0:
64,192,63330,1,0,0:0:0:0:
192,192,63330,1,0,0:0:0:0:
320,192,63430,1,0,0:0:0:0:
448,192,63530,1,0,0:0:0:0:
64,192,63530,1,0,0:0:0:0:
192,192,63630,1,0,0:0:0:0:
320,192,63730,1,0,0:0:0:0:
64,192,63730,1,0,0:0:0:0:
448,192,63730,1,0,0:0:0:0:
192,192,63830,1,0,0:0:0:0:
320,192,63930,1,0,0:0:0:0:
448,192,63930,1,0,0:0:0:0:
64,192,64030,1,0,0:0:0:0:
320,192,64130,1,0,0:0:0:0:
448,192,64130,1,0,0:0:0:0:
192,192,64230,1,0,0:0:0:0:
320,192,64330,1,0,0:0:0:0:
64,192,64330,1,0,0:0:0:0:
448,192,64330,1,0,0:0:0:0:
192,192,64430,1,0,0:0:0:0:
320,192,64430,1,0,0:0:0:0:
192,192,64530,1,0,0:0:0:0:
64,192,64530,1,0,0:0:0:0:
448,192,64530,1,0,0:0:0:0:
320,192,64630,1,0,0:0:0:0:
64,192,64730,1,0,0:0:0:0:
192,192,64830,1,0,0:0:0:0:
64,192,64930,1,0,0:0:0:0:
320,192,64930,1,0,0:0:0:0:
448,192,64930,1,0,0:0:0:0:
192,192,65030,1,0,0:0:0:0:
448,192,65130,1,0,0:0:0:0:
320,192,65230,1,0,0:0:0:0:
64,192,65330,1,0,0:0:0:0:
192,192,65330,1,0,0:0:0:0:
448,192,65330,1,0,0:0:0:0:
320,192,65430,1,0,0:0:0:0:
64,192,65530,1,0,0:0:0:0:
192,192,65630,1,0,0:0:0:0:
320,192,65730,1,0,0:0:0:0:
448,192,65730,1,0,0:0:0:0:
64,192,65730,1,0,0:0:0:0:
192,192,65830,1,0,0:0:0:0:
448,192,65930,1,0,0:0:0:0:
320,192,66030,1,0,0:0:0:0:
64,192,66130,1,0,0:0:0:0:
192,192,66130,1,0,0:0:0:0:
448,192,66130,1,0,0:0:0:0:
320,192,66230,1,0,0:0:0:0:
64,192,66330,1,0,0:0:0:0:
192,192,66430,1,0,0:0:0:0:
320,192,66530,1,0,0:0:0:0:
448,192,66530,1,0,0:0:0:0:
192,192,66630,1,0,0:0:0:0:
64,192,66730,1,0,0:0:0:0:
320,192,66830,1,0,0:0:0:0:
448,192,66930,1,0,0:0:0:0:
192,192,66930,1,0,0:0:0:0:
64,192,67030,1,0,0:0:0:0:
320,192,67130,1,0,0:0:0:0:
192,192,67230,1,0,0:0:0:0:
448,192,67330,1,0,0:0:0:0:
64,192,67330,1,0,0:0:0:0:
320,192,67430,1,0,0:0:0:0:
192,192,67530,1,0,0:0:0:0:
320,192,67630,1,0,0:0:0:0:
448,192,67730,1,0,0:0:0:0:
64,192,67730,1,0,0:0:0:0:
320,192,67830,1,0,0:0:0:0:
192,192,67930,1,0,0:0:0:0:
64,192,68030,1,0,0:0:0:0:
448,192,68130,1,0,0:0:0:0:
320,192,68230,1,0,0:0:0:0:
192,192,68330,1,0,0:0:0:0:
64,192,68430,1,0,0:0:0:0:
320,192,68530,1,0,0:0:0:0:
192,192,68663,1,0,0:0:0:0:
320,192,68796,1,0,0:0:0:0:
64,192,68932,1,0,0:0:0:0:
192,192,68932,1,0,0:0:0:0:
320,192,69132,1,0,0:0:0:0:
448,192,69232,1,0,0:0:0:0:
192,192,69332,1,0,0:0:0:0:
320,192,69538,1,0,0:0:0:0:
192,192,69538,1,0,0:0:0:0:
64,192,69538,1,0,0:0:0:0:
448,192,69538,1,0,0:0:0:0:
320,192,69838,1,0,0:0:0:0:
192,192,69988,1,0,0:0:0:0:
448,192,69988,1,0,0:0:0:0:
64,192,70138,1,0,0:0:0:0:
320,192,70438,1,0,0:0:0:0:
448,192,70438,1,0,0:0:0:0:
192,192,70738,1,0,0:0:0:0:
64,192,70738,1,0,0:0:0:0:
448,192,70738,1,0,0:0:0:0:
320,192,71038,1,0,0:0:0:0:
448,192,71038,1,0,0:0:0:0:
192,192,71188,1,0,0:0:0:0:
320,192,71338,1,0,0:0:0:0:
64,192,71338,1,0,0:0:0:0:
448,192,71338,1,0,0:0:0:0:
192,192,71488,1,0,0:0:0:0:
448,192,71638,1,0,0:0:0:0:
320,192,71788,1,0,0:0:0:0:
192,192,71938,1,0,0:0:0:0:
64,192,71938,1,0,0:0:0:0:
448,192,71940,1,0,0:0:0:0:
320,192,72232,1,0,0:0:0:0:
192,192,72379,1,0,0:0:0:0:
320,192,72525,1,0,0:0:0:0:
64,192,72525,1,0,0:0:0:0:
448,192,72525,1,0,0:0:0:0:
320,192,72818,1,0,0:0:0:0:
192,192,73110,1,0,0:0:0:0:
64,192,73110,1,0,0:0:0:0:
448,192,73110,1,0,0:0:0:0:
320,192,73257,1,0,0:0:0:0:
64,192,73403,1,0,0:0:0:0:
192,192,73549,1,0,0:0:0:0:
64,192,73696,1,0,0:0:0:0:
320,192,73696,1,0,0:0:0:0:
448,192,73696,1,0,0:0:0:0:
192,192,73842,1,0,0:0:0:0:
320,192,73988,1,0,0:0:0:0:
448,192,73988,1,0,0:0:0:0:
64,192,74135,1,0,0:0:0:0:
448,192,74288,1,0,0:0:0:0:
192,192,74288,1,0,0:0:0:0:
320,192,74288,1,0,0:0:0:0:
192,192,74573,1,0,0:0:0:0:
320,192,74716,1,0,0:0:0:0:
64,192,74716,1,0,0:0:0:0:
448,192,74859,1,0,0:0:0:0:
192,192,75002,1,0,0:0:0:0:
320,192,75145,1,0,0:0:0:0:
64,192,75145,1,0,0:0:0:0:
192,192,75430,1,0,0:0:0:0:
64,192,75430,1,0,0:0:0:0:
448,192,75430,1,0,0:0:0:0:
320,192,75716,1,0,0:0:0:0:
448,192,75716,1,0,0:0:0:0:
192,192,75859,1,0,0:0:0:0:
320,192,76002,1,0,0:0:0:0:
64,192,76002,1,0,0:0:0:0:
448,192,76002,1,0,0:0:0:0:
192,192,76145,1,0,0:0:0:0:
448,192,76288,1,0,0:0:0:0:
320,192,76430,1,0,0:0:0:0:
192,192,76576,1,0,0:0:0:0:
64,192,76576,1,0,0:0:0:0:
448,192,76576,1,0,0:0:0:0:
320,192,76713,1,0,0:0:0:0:
192,192,76988,1,0,0:0:0:0:
448,192,76988,1,0,0:0:0:0:
64,192,77126,1,0,0:0:0:0:
320,192,77264,1,0,0:0:0:0:
448,192,77401,1,0,0:0:0:0:
192,192,77539,1,0,0:0:0:0:
320,192,77676,1,0,0:0:0:0:
64,192,77676,1,0,0:0:0:0:
448,192,77676,1,0,0:0:0:0:
192,192,77814,1,0,0:0:0:0:
64,192,77814,1,0,0:0:0:0:
320,192,77952,1,0,0:0:0:0:
192,192,78089,1,0,0:0:0:0:
448,192,78089,1,0,0:0:0:0:
320,192,78227,1,0,0:0:0:0:
64,192,78227,1,0,0:0:0:0:
448,192,78227,1,0,0:0:0:0:
64,192,78364,1,0,0:0:0:0:
192,192,78364,1,0,0:0:0:0:
320,192,78502,1,0,0:0:0:0:
448,192,78502,1,0,0:0:0:0:
64,192,78640,1,0,0:0:0:0:
192,192,78640,1,0,0:0:0:0:
64,192,78778,1,0,0:0:0:0:
448,192,78778,1,0,0:0:0:0:
320,192,78778,1,0,0:0:0:0:
320,192,79036,1,0,0:0:0:0:
192,192,79165,1,0,0:0:0:0:
448,192,79165,1,0,0:0:0:0:
64,192,79295,1,0,0:0:0:0:
320,192,79553,1,0,0:0:0:0:
448,192,79553,1,0,0:0:0:0:
192,192,79812,1,0,0:0:0:0:
64,192,79812,1,0,0:0:0:0:
448,192,79812,1,0,0:0:0:0:
320,192,80071,1,0,0:0:0:0:
448,192,80071,1,0,0:0:0:0:
192,192,80200,1,0,0:0:0:0:
320,192,80329,1,0,0:0:0:0:
64,192,80329,1,0,0:0:0:0:
448,192,80329,1,0,0:0:0:0:
192,192,80459,1,0,0:0:0:0:
448,192,80588,1,0,0:0:0:0:
320,192,80717,1,0,0:0:0:0:
192,192,80848,1,0,0:0:0:0:
64,192,80848,1,0,0:0:0:0:
448,192,80848,1,0,0:0:0:0:
320,192,81080,1,0,0:0:0:0:
192,192,81196,1,0,0:0:0:0:
448,192,81313,1,0,0:0:0:0:
64,192,81313,1,0,0:0:0:0:
192,192,81545,1,0,0:0:0:0:
320,192,81545,1,0,0:0:0:0:
192,192,81778,1,0,0:0:0:0:
64,192,81778,1,0,0:0:0:0:
448,192,81778,1,0,0:0:0:0:
320,192,82010,1,0,0:0:0:0:
448,192,82010,1,0,0:0:0:0:
192,192,82127,1,0,0:0:0:0:
448,192,82243,1,0,0:0:0:0:
64,192,82243,1,0,0:0:0:0:
320,192,82243,1,0,0:0:0:0:
192,192,82359,1,0,0:0:0:0:
448,192,82475,1,0,0:0:0:0:
320,192,82592,1,0,0:0:0:0:
448,192,82712,1,0,0:0:0:0:
64,192,82712,1,0,0:0:0:0:
192,192,82712,1,0,0:0:0:0:
320,192,82924,1,0,0:0:0:0:
64,192,82924,1,0,0:0:0:0:
192,192,83031,1,0,0:0:0:0:
448,192,83031,1,0,0:0:0:0:
64,192,83137,1,0,0:0:0:0:
320,192,83243,1,0,0:0:0:0:
192,192,83350,1,0,0:0:0:0:
64,192,83350,1,0,0:0:0:0:
448,192,83350,1,0,0:0:0:0:
320,192,83563,1,0,0:0:0:0:
64,192,83563,1,0,0:0:0:0:
448,192,83563,1,0,0:0:0:0:
192,192,83775,1,0,0:0:0:0:
64,192,83775,1,0,0:0:0:0:
448,192,83775,1,0,0:0:0:0:
192,192,83882,1,0,0:0:0:0:
320,192,83988,1,0,0:0:0:0:
64,192,83988,1,0,0:0:0:0:
448,192,83988,1,0,0:0:0:0:
64,192,84094,1,0,0:0:0:0:
192,192,84094,1,0,0:0:0:0:
320,192,84201,1,0,0:0:0:0:
448,192,84201,1,0,0:0:0:0:
64,192,84307,1,0,0:0:0:0:
192,192,84307,1,0,0:0:0:0:
64,192,84414,1,0,0:0:0:0:
320,192,84416,1,0,0:0:0:0:
448,192,84416,1,0,0:0:0:0:
192,192,84516,1,0,0:0:0:0:
320,192,84616,1,0,0:0:0:0:
448,192,84616,1,0,0:0:0:0:
192,192,84716,1,0,0:0:0:0:
448,192,84716,1,0,0:0:0:0:
320,192,84816,1,0,0:0:0:0:
192,192,84916,1,0,0:0:0:0:
64,192,84916,1,0,0:0:0:0:
320,192,85016,1,0,0:0:0:0:
64,192,85016,1,0,0:0:0:0:
448,192,85016,1,0,0:0:0:0:
192,192,85216,1,0,0:0:0:0:
64,192,85216,1,0,0:0:0:0:
448,192,85216,1,0,0:0:0:0:
192,192,85316,1,0,0:0:0:0:
320,192,85416,1,0,0:0:0:0:
64,192,85416,1,0,0:0:0:0:
448,192,85416,1,0,0:0:0:0:
320,192,85516,1,0,0:0:0:0:
192,192,85616,1,0,0:0:0:0:
64,192,85616,1,0,0:0:0:0:
448,192,85616,1,0,0:0:0:0:
192,192,85816,1,0,0:0:0:0:
320,192,85816,1,0,0:0:0:0:
64,192,86016,1,0,0:0:0:0:
448,192,86016,1,0,0:0:0:0:
320,192,86016,1,0,0:0:0:0:
448,192,86216,1,0,0:0:0:0:
64,192,86416,1,0,0:0:0:0:
320,192,86416,1,0,0:0:0:0:
64,192,86616,1,0,0:0:0:0:
320,192,86616,1,0,0:0:0:0:
448,192,86716,1,0,0:0:0:0:
192,192,86816,1,0,0:0:0:0:
448,192,86916,1,0,0:0:0:0:
448,192,87116,1,0,0:0:0:0:
64,192,87216,1,0,0:0:0:0:
320,192,87216,1,0,0:0:0:0:
64,192,87416,1,0,0:0:0:0:
448,192,87416,1,0,0:0:0:0:
192,192,87416,1,0,0:0:0:0:
64,192,87616,1,0,0:0:0:0:
448,192,87616,1,0,0:0:0:0:
320,192,87616,1,0,0:0:0:0:
448,192,87816,1,0,0:0:0:0:
64,192,88016,1,0,0:0:0:0:
320,192,88016,1,0,0:0:0:0:
64,192,88216,1,0,0:0:0:0:
320,192,88216,1,0,0:0:0:0:
448,192,88316,1,0,0:0:0:0:
192,192,88416,1,0,0:0:0:0:
448,192,88516,1,0,0:0:0:0:
448,192,88716,1,0,0:0:0:0:
64,192,88816,1,0,0:0:0:0:
320,192,88816,1,0,0:0:0:0:
192,192,89016,1,0,0:0:0:0:
320,192,89016,1,0,0:0:0:0:
448,192,89016,1,0,0:0:0:0:
192,192,89216,1,0,0:0:0:0:
64,192,89216,1,0,0:0:0:0:
320,192,89216,1,0,0:0:0:0:
448,192,89416,1,0,0:0:0:0:
64,192,89616,1,0,0:0:0:0:
320,192,89616,1,0,0:0:0:0:
192,192,89816,1,0,0:0:0:0:
64,192,89816,1,0,0:0:0:0:
320,192,89816,1,0,0:0:0:0:
448,192,89916,1,0,0:0:0:0:
64,192,90016,1,0,0:0:0:0:
192,192,90016,1,0,0:0:0:0:
448,192,90116,1,0,0:0:0:0:
448,192,90316,1,0,0:0:0:0:
64,192,90416,1,0,0:0:0:0:
320,192,90416,1,0,0:0:0:0:
192,192,90616,1,0,0:0:0:0:
64,192,90616,1,0,0:0:0:0:
448,192,90616,1,0,0:0:0:0:
320,192,90816,1,0,0:0:0:0:
64,192,90816,1,0,0:0:0:0:
448,192,90816,1,0,0:0:0:0:
192,192,90949,1,0,0:0:0:0:
448,192,90949,1,0,0:0:0:0:
192,192,91082,1,0,0:0:0:0:
448,192,91082,1,0,0:0:0:0:
320,192,91216,1,0,0:0:0:0:
64,192,91216,1,0,0:0:0:0:
448,192,91216,1,0,0:0:0:0:
64,192,91349,1,0,0:0:0:0:
320,192,91349,1,0,0:0:0:0:
64,192,91482,1,0,0:0:0:0:
320,192,91482,1,0,0:0:0:0:
320,192,91616,1,0,0:0:0:0:
192,192,91616,1,0,0:0:0:0:
448,192,91616,128,0,92316:0:0:0:0:
192,192,92016,1,0,0:0:0:0:
64,192,92016,128,0,92316:0:0:0:0:
192,192,92416,1,0,0:0:0:0:
64,192,92416,1,0,0:0:0:0:
448,192,92416,1,0,0:0:0:0:
320,192,92516,1,0,0:0:0:0:
192,192,92616,1,0,0:0:0:0:
448,192,92616,1,0,0:0:0:0:
64,192,92716,1,0,0:0:0:0:
192,192,92716,1,0,0:0:0:0:
320,192,92816,1,0,0:0:0:0:
448,192,92816,1,0,0:0:0:0:
64,192,92916,1,0,0:0:0:0:
320,192,92916,1,0,0:0:0:0:
192,192,93016,1,0,0:0:0:0:
448,192,93016,1,0,0:0:0:0:
64,192,93116,1,0,0:0:0:0:
320,192,93116,1,0,0:0:0:0:
192,192,93216,1,0,0:0:0:0:
64,192,93216,1,0,0:0:0:0:
448,192,93216,1,0,0:0:0:0:
320,192,93316,1,0,0:0:0:0:
192,192,93416,1,0,0:0:0:0:
64,192,93416,1,0,0:0:0:0:
448,192,93516,1,0,0:0:0:0:
192,192,93616,1,0,0:0:0:0:
64,192,93616,1,0,0:0:0:0:
320,192,93616,1,0,0:0:0:0:
320,192,93716,1,0,0:0:0:0:
448,192,93716,1,0,0:0:0:0:
64,192,93816,1,0,0:0:0:0:
192,192,93816,1,0,0:0:0:0:
320,192,93916,1,0,0:0:0:0:
448,192,93916,1,0,0:0:0:0:
192,192,94016,1,0,0:0:0:0:
64,192,94016,1,0,0:0:0:0:
448,192,94016,1,0,0:0:0:0:
64,192,94116,1,0,0:0:0:0:
320,192,94116,1,0,0:0:0:0:
192,192,94216,1,0,0:0:0:0:
448,192,94216,1,0,0:0:0:0:
320,192,94316,1,0,0:0:0:0:
192,192,94416,1,0,0:0:0:0:
64,192,94416,1,0,0:0:0:0:
448,192,94416,1,0,0:0:0:0:
192,192,94516,1,0,0:0:0:0:
320,192,94516,1,0,0:0:0:0:
448,192,94616,1,0,0:0:0:0:
64,192,94716,1,0,0:0:0:0:
192,192,94716,1,0,0:0:0:0:
320,192,94816,1,0,0:0:0:0:
64,192,94816,1,0,0:0:0:0:
448,192,94816,1,0,0:0:0:0:
192,192,94916,1,0,0:0:0:0:
320,192,95016,1,0,0:0:0:0:
192,192,95116,1,0,0:0:0:0:
64,192,95116,1,0,0:0:0:0:
448,192,95116,1,0,0:0:0:0:
320,192,95216,1,0,0:0:0:0:
192,192,95316,1,0,0:0:0:0:
320,192,95416,1,0,0:0:0:0:
64,192,95416,1,0,0:0:0:0:
448,192,95416,1,0,0:0:0:0:
64,192,95516,1,0,0:0:0:0:
192,192,95616,1,0,0:0:0:0:
448,192,95616,1,0,0:0:0:0:
320,192,95616,1,0,0:0:0:0:
64,192,95716,1,0,0:0:0:0:
320,192,95816,1,0,0:0:0:0:
448,192,95816,1,0,0:0:0:0:
64,192,95916,1,0,0:0:0:0:
320,192,95916,1,0,0:0:0:0:
192,192,96016,1,0,0:0:0:0:
448,192,96016,1,0,0:0:0:0:
192,192,96116,1,0,0:0:0:0:
320,192,96116,1,0,0:0:0:0:
448,192,96216,1,0,0:0:0:0:
64,192,96216,1,0,0:0:0:0:
192,192,96316,1,0,0:0:0:0:
320,192,96316,1,0,0:0:0:0:
320,192,96416,1,0,0:0:0:0:
64,192,96416,1,0,0:0:0:0:
448,192,96416,1,0,0:0:0:0:
192,192,96516,1,0,0:0:0:0:
64,192,96616,1,0,0:0:0:0:
448,192,96616,1,0,0:0:0:0:
320,192,96716,1,0,0:0:0:0:
192,192,96816,1,0,0:0:0:0:
64,192,96816,1,0,0:0:0:0:
448,192,96816,1,0,0:0:0:0:
320,192,96916,1,0,0:0:0:0:
64,192,97016,1,0,0:0:0:0:
448,192,97016,1,0,0:0:0:0:
192,192,97116,1,0,0:0:0:0:
320,192,97216,1,0,0:0:0:0:
64,192,97216,1,0,0:0:0:0:
448,192,97216,1,0,0:0:0:0:
192,192,97316,1,0,0:0:0:0:
320,192,97416,1,0,0:0:0:0:
192,192,97516,1,0,0:0:0:0:
64,192,97516,1,0,0:0:0:0:
448,192,97516,1,0,0:0:0:0:
320,192,97616,1,0,0:0:0:0:
192,192,97716,1,0,0:0:0:0:
320,192,97816,1,0,0:0:0:0:
64,192,97816,1,0,0:0:0:0:
448,192,97816,1,0,0:0:0:0:
320,192,97916,1,0,0:0:0:0:
192,192,98016,1,0,0:0:0:0:
64,192,98016,1,0,0:0:0:0:
448,192,98016,1,0,0:0:0:0:
320,192,98116,1,0,0:0:0:0:
64,192,98216,1,0,0:0:0:0:
192,192,98216,1,0,0:0:0:0:
320,192,98316,1,0,0:0:0:0:
448,192,98316,1,0,0:0:0:0:
192,192,98416,1,0,0:0:0:0:
64,192,98416,1,0,0:0:0:0:
448,192,98416,1,0,0:0:0:0:
320,192,98516,1,0,0:0:0:0:
64,192,98616,1,0,0:0:0:0:
448,192,98616,1,0,0:0:0:0:
192,192,98716,1,0,0:0:0:0:
320,192,98716,1,0,0:0:0:0:
192,192,98816,1,0,0:0:0:0:
64,192,98816,1,0,0:0:0:0:
448,192,98816,1,0,0:0:0:0:
320,192,98916,1,0,0:0:0:0:
64,192,99016,1,0,0:0:0:0:
192,192,99016,1,0,0:0:0:0:
192,192,99116,1,0,0:0:0:0:
448,192,99116,1,0,0:0:0:0:
64,192,99216,1,0,0:0:0:0:
320,192,99216,1,0,0:0:0:0:
320,192,99316,1,0,0:0:0:0:
448,192,99316,1,0,0:0:0:0:
192,192,99416,1,0,0:0:0:0:
64,192,99416,1,0,0:0:0:0:
320,192,99516,1,0,0:0:0:0:
448,192,99516,1,0,0:0:0:0:
192,192,99616,1,0,0:0:0:0:
64,192,99616,1,0,0:0:0:0:
448,192,99616,1,0,0:0:0:0:
320,192,99716,1,0,0:0:0:0:
64,192,99816,1,0,0:0:0:0:
192,192,99816,1,0,0:0:0:0:
448,192,99916,1,0,0:0:0:0:
192,192,100016,1,0,0:0:0:0:
64,192,100016,1,0,0:0:0:0:
320,192,100016,1,0,0:0:0:0:
192,192,100116,1,0,0:0:0:0:
448,192,100116,1,0,0:0:0:0:
64,192,100216,1,0,0:0:0:0:
320,192,100216,1,0,0:0:0:0:
192,192,100316,1,0,0:0:0:0:
448,192,100316,1,0,0:0:0:0:
192,192,100416,1,0,0:0:0:0:
64,192,100416,1,0,0:0:0:0:
320,192,100416,1,0,0:0:0:0:
64,192,100516,1,0,0:0:0:0:
448,192,100516,1,0,0:0:0:0:
192,192,100616,1,0,0:0:0:0:
320,192,100616,1,0,0:0:0:0:
64,192,100716,1,0,0:0:0:0:
192,192,100816,1,0,0:0:0:0:
448,192,100816,1,0,0:0:0:0:
320,192,100816,1,0,0:0:0:0:
64,192,100916,1,0,0:0:0:0:
192,192,100916,1,0,0:0:0:0:
448,192,101016,1,0,0:0:0:0:
64,192,101116,1,0,0:0:0:0:
320,192,101116,1,0,0:0:0:0:
192,192,101216,1,0,0:0:0:0:
64,192,101216,1,0,0:0:0:0:
448,192,101216,1,0,0:0:0:0:
320,192,101316,1,0,0:0:0:0:
192,192,101416,1,0,0:0:0:0:
320,192,101516,1,0,0:0:0:0:
64,192,101516,1,0,0:0:0:0:
448,192,101516,1,0,0:0:0:0:
192,192,101616,1,0,0:0:0:0:
320,192,101716,1,0,0:0:0:0:
192,192,101816,1,0,0:0:0:0:
64,192,101816,1,0,0:0:0:0:
448,192,101816,1,0,0:0:0:0:
448,192,101916,1,0,0:0:0:0:
192,192,102016,1,0,0:0:0:0:
64,192,102016,1,0,0:0:0:0:
320,192,102016,1,0,0:0:0:0:
448,192,102116,1,0,0:0:0:0:
64,192,102216,1,0,0:0:0:0:
320,192,102216,1,0,0:0:0:0:
192,192,102316,1,0,0:0:0:0:
320,192,102316,1,0,0:0:0:0:
64,192,102416,1,0,0:0:0:0:
448,192,102416,1,0,0:0:0:0:
320,192,102516,1,0,0:0:0:0:
448,192,102516,1,0,0:0:0:0:
64,192,102616,1,0,0:0:0:0:
192,192,102616,1,0,0:0:0:0:
320,192,102716,1,0,0:0:0:0:
448,192,102716,1,0,0:0:0:0:
192,192,102816,1,0,0:0:0:0:
64,192,102816,1,0,0:0:0:0:
448,192,102816,1,0,0:0:0:0:
320,192,102916,1,0,0:0:0:0:
192,192,103016,1,0,0:0:0:0:
64,192,103016,1,0,0:0:0:0:
320,192,103116,1,0,0:0:0:0:
64,192,103216,1,0,0:0:0:0:
192,192,103216,1,0,0:0:0:0:
448,192,103216,1,0,0:0:0:0:
320,192,103316,1,0,0:0:0:0:
64,192,103416,1,0,0:0:0:0:
448,192,103416,1,0,0:0:0:0:
192,192,103516,1,0,0:0:0:0:
320,192,103616,1,0,0:0:0:0:
64,192,103616,1,0,0:0:0:0:
448,192,103616,1,0,0:0:0:0:
192,192,103716,1,0,0:0:0:0:
320,192,103816,1,0,0:0:0:0:
192,192,103916,1,0,0:0:0:0:
64,192,103916,1,0,0:0:0:0:
448,192,103916,1,0,0:0:0:0:
320,192,104016,1,0,0:0:0:0:
192,192,104116,1,0,0:0:0:0:
320,192,104216,1,0,0:0:0:0:
64,192,104216,1,0,0:0:0:0:
448,192,104216,1,0,0:0:0:0:
320,192,104316,1,0,0:0:0:0:
192,192,104416,1,0,0:0:0:0:
64,192,104416,1,0,0:0:0:0:
448,192,104416,1,0,0:0:0:0:
320,192,104516,1,0,0:0:0:0:
64,192,104616,1,0,0:0:0:0:
192,192,104716,1,0,0:0:0:0:
192,192,104816,1,0,0:0:0:0:
64,192,104816,1,0,0:0:0:0:
320,192,104816,1,0,0:0:0:0:
448,192,104916,1,0,0:0:0:0:
192,192,105016,1,0,0:0:0:0:
320,192,105116,1,0,0:0:0:0:
448,192,105216,1,0,0:0:0:0:
64,192,105216,1,0,0:0:0:0:
320,192,105216,1,0,0:0:0:0:
448,192,105349,1,0,0:0:0:0:
64,192,105349,1,0,0:0:0:0:
320,192,105349,1,0,0:0:0:0:
448,192,105482,1,0,0:0:0:0:
64,192,105482,1,0,0:0:0:0:
320,192,105482,1,0,0:0:0:0:
448,192,105616,1,0,0:0:0:0:
64,192,105616,1,0,0:0:0:0:
320,192,105616,1,0,0:0:0:0:
64,192,105882,1,0,0:0:0:0:
192,192,105882,1,0,0:0:0:0:
448,192,105882,1,0,0:0:0:0:
320,192,106016,1,0,0:0:0:0:
64,192,106016,1,0,0:0:0:0:
448,192,106016,1,0,0:0:0:0:
192,192,106416,1,0,0:0:0:0:
320,192,106616,1,0,0:0:0:0:
192,192,106816,1,0,0:0:0:0:
64,192,106816,1,0,0:0:0:0:
448,192,106816,1,0,0:0:0:0:
320,192,106916,1,0,0:0:0:0:
64,192,107016,1,0,0:0:0:0:
192,192,107016,1,0,0:0:0:0:
64,192,107116,1,0,0:0:0:0:
320,192,107116,1,0,0:0:0:0:
192,192,107216,1,0,0:0:0:0:
448,192,107216,1,0,0:0:0:0:
64,192,107316,1,0,0:0:0:0:
448,192,107416,1,0,0:0:0:0:
320,192,107416,1,0,0:0:0:0:
192,192,107516,1,0,0:0:0:0:
448,192,107616,1,0,0:0:0:0:
64,192,107616,1,0,0:0:0:0:
320,192,107616,1,0,0:0:0:0:
64,192,107716,1,0,0:0:0:0:
448,192,107816,1,0,0:0:0:0:
192,192,107816,1,0,0:0:0:0:
320,192,107816,1,0,0:0:0:0:
448,192,107916,1,0,0:0:0:0:
192,192,108016,1,0,0:0:0:0:
64,192,108016,1,0,0:0:0:0:
320,192,108016,1,0,0:0:0:0:
192,192,108116,1,0,0:0:0:0:
320,192,108216,1,0,0:0:0:0:
192,192,108316,1,0,0:0:0:0:
320,192,108416,1,0,0:0:0:0:
64,192,108416,1,0,0:0:0:0:
448,192,108416,1,0,0:0:0:0:
192,192,108516,1,0,0:0:0:0:
320,192,108616,1,0,0:0:0:0:
448,192,108616,1,0,0:0:0:0:
64,192,108716,1,0,0:0:0:0:
192,192,108816,1,0,0:0:0:0:
320,192,108816,1,0,0:0:0:0:
448,192,108816,1,0,0:0:0:0:
64,192,108916,1,0,0:0:0:0:
448,192,109016,1,0,0:0:0:0:
192,192,109016,1,0,0:0:0:0:
320,192,109116,1,0,0:0:0:0:
192,192,109216,1,0,0:0:0:0:
64,192,109216,1,0,0:0:0:0:
448,192,109216,1,0,0:0:0:0:
192,192,109316,1,0,0:0:0:0:
320,192,109416,1,0,0:0:0:0:
64,192,109416,1,0,0:0:0:0:
448,192,109416,1,0,0:0:0:0:
320,192,109516,1,0,0:0:0:0:
192,192,109616,1,0,0:0:0:0:
64,192,109616,1,0,0:0:0:0:
448,192,109616,1,0,0:0:0:0:
64,192,109716,1,0,0:0:0:0:
448,192,109816,1,0,0:0:0:0:
320,192,109916,1,0,0:0:0:0:
192,192,110016,1,0,0:0:0:0:
64,192,110016,1,0,0:0:0:0:
448,192,110016,1,0,0:0:0:0:
192,192,110116,1,0,0:0:0:0:
320,192,110216,1,0,0:0:0:0:
64,192,110216,1,0,0:0:0:0:
448,192,110216,1,0,0:0:0:0:
192,192,110316,1,0,0:0:0:0:
64,192,110316,1,0,0:0:0:0:
448,192,110316,1,0,0:0:0:0:
320,192,110416,1,0,0:0:0:0:
64,192,110516,1,0,0:0:0:0:
448,192,110516,1,0,0:0:0:0:
192,192,110516,1,0,0:0:0:0:
64,192,110616,1,0,0:0:0:0:
448,192,110616,1,0,0:0:0:0:
320,192,110616,1,0,0:0:0:0:
192,192,110716,1,0,0:0:0:0:
64,192,110816,1,0,0:0:0:0:
448,192,110816,1,0,0:0:0:0:
320,192,110816,1,0,0:0:0:0:
64,192,110916,1,0,0:0:0:0:
192,192,111016,1,0,0:0:0:0:
448,192,111016,1,0,0:0:0:0:
320,192,111016,1,0,0:0:0:0:
448,192,111116,1,0,0:0:0:0:
320,192,111216,1,0,0:0:0:0:
192,192,111216,1,0,0:0:0:0:
64,192,111216,1,0,0:0:0:0:
448,192,111316,1,0,0:0:0:0:
64,192,111416,1,0,0:0:0:0:
320,192,111416,1,0,0:0:0:0:
448,192,111516,1,0,0:0:0:0:
192,192,111516,1,0,0:0:0:0:
64,192,111616,1,0,0:0:0:0:
448,192,111616,1,0,0:0:0:0:
320,192,111616,1,0,0:0:0:0:
192,192,111716,1,0,0:0:0:0:
320,192,111716,1,0,0:0:0:0:
64,192,111816,1,0,0:0:0:0:
448,192,111816,1,0,0:0:0:0:
192,192,111816,1,0,0:0:0:0:
320,192,111916,1,0,0:0:0:0:
192,192,112016,1,0,0:0:0:0:
64,192,112016,1,0,0:0:0:0:
448,192,112016,1,0,0:0:0:0:
320,192,112116,1,0,0:0:0:0:
448,192,112116,1,0,0:0:0:0:
64,192,112216,1,0,0:0:0:0:
192,192,112216,1,0,0:0:0:0:
320,192,112216,1,0,0:0:0:0:
192,192,112316,1,0,0:0:0:0:
64,192,112416,1,0,0:0:0:0:
320,192,112416,1,0,0:0:0:0:
448,192,112416,1,0,0:0:0:0:
192,192,112516,1,0,0:0:0:0:
64,192,112616,1,0,0:0:0:0:
448,192,112716,1,0,0:0:0:0:
320,192,112716,1,0,0:0:0:0:
64,192,112816,1,0,0:0:0:0:
448,192,112816,1,0,0:0:0:0:
192,192,112816,1,0,0:0:0:0:
192,192,112916,1,0,0:0:0:0:
320,192,113016,1,0,0:0:0:0:
64,192,113016,1,0,0:0:0:0:
448,192,113016,1,0,0:0:0:0:
320,192,113116,1,0,0:0:0:0:
448,192,113216,1,0,0:0:0:0:
64,192,113216,1,0,0:0:0:0:
192,192,113216,1,0,0:0:0:0:
320,192,113316,1,0,0:0:0:0:
192,192,113416,1,0,0:0:0:0:
448,192,113416,1,0,0:0:0:0:
320,192,113516,1,0,0:0:0:0:
448,192,113516,1,0,0:0:0:0:
64,192,113616,1,0,0:0:0:0:
192,192,113616,1,0,0:0:0:0:
320,192,113716,1,0,0:0:0:0:
64,192,113816,1,0,0:0:0:0:
448,192,113816,1,0,0:0:0:0:
192,192,113916,1,0,0:0:0:0:
320,192,114016,1,0,0:0:0:0:
64,192,114016,1,0,0:0:0:0:
448,192,114016,1,0,0:0:0:0:
64,192,114116,1,0,0:0:0:0:
448,192,114216,1,0,0:0:0:0:
192,192,114216,1,0,0:0:0:0:
320,192,114216,1,0,0:0:0:0:
448,192,114316,1,0,0:0:0:0:
192,192,114416,1,0,0:0:0:0:
64,192,114416,1,0,0:0:0:0:
320,192,114416,1,0,0:0:0:0:
192,192,114516,1,0,0:0:0:0:
320,192,114616,1,0,0:0:0:0:
448,192,114716,1,0,0:0:0:0:
192,192,114816,1,0,0:0:0:0:
64,192,114816,1,0,0:0:0:0:
320,192,114816,1,0,0:0:0:0:
448,192,114916,1,0,0:0:0:0:
320,192,115016,1,0,0:0:0:0:
64,192,115016,1,0,0:0:0:0:
192,192,115116,1,0,0:0:0:0:
320,192,115216,1,0,0:0:0:0:
64,192,115216,1,0,0:0:0:0:
448,192,115216,1,0,0:0:0:0:
192,192,115316,1,0,0:0:0:0:
320,192,115416,1,0,0:0:0:0:
448,192,115416,1,0,0:0:0:0:
64,192,115516,1,0,0:0:0:0:
320,192,115616,1,0,0:0:0:0:
192,192,115616,1,0,0:0:0:0:
448,192,115616,1,0,0:0:0:0:
192,192,115716,1,0,0:0:0:0:
64,192,115816,1,0,0:0:0:0:
448,192,115816,1,0,0:0:0:0:
320,192,115816,1,0,0:0:0:0:
448,192,115916,1,0,0:0:0:0:
192,192,116016,1,0,0:0:0:0:
64,192,116016,1,0,0:0:0:0:
320,192,116016,1,0,0:0:0:0:
64,192,116116,1,0,0:0:0:0:
192,192,116216,1,0,0:0:0:0:
320,192,116316,1,0,0:0:0:0:
192,192,116416,1,0,0:0:0:0:
64,192,116416,1,0,0:0:0:0:
448,192,116416,1,0,0:0:0:0:
320,192,116516,1,0,0:0:0:0:
192,192,116616,1,0,0:0:0:0:
64,192,116616,1,0,0:0:0:0:
448,192,116616,1,0,0:0:0:0:
320,192,116716,1,0,0:0:0:0:
64,192,116716,1,0,0:0:0:0:
448,192,116716,1,0,0:0:0:0:
192,192,116816,1,0,0:0:0:0:
64,192,116916,1,0,0:0:0:0:
448,192,116916,1,0,0:0:0:0:
320,192,116916,1,0,0:0:0:0:
64,192,117016,1,0,0:0:0:0:
448,192,117016,1,0,0:0:0:0:
192,192,117016,1,0,0:0:0:0:
320,192,117116,1,0,0:0:0:0:
64,192,117216,1,0,0:0:0:0:
448,192,117216,1,0,0:0:0:0:
192,192,117216,1,0,0:0:0:0:
192,192,117316,1,0,0:0:0:0:
448,192,117416,1,0,0:0:0:0:
64,192,117416,1,0,0:0:0:0:
320,192,117416,1,0,0:0:0:0:
320,192,117516,1,0,0:0:0:0:
64,192,117616,1,0,0:0:0:0:
448,192,117616,1,0,0:0:0:0:
192,192,117616,1,0,0:0:0:0:
320,192,117716,1,0,0:0:0:0:
448,192,117816,1,0,0:0:0:0:
192,192,117816,1,0,0:0:0:0:
64,192,117916,1,0,0:0:0:0:
320,192,117916,1,0,0:0:0:0:
320,192,118016,1,0,0:0:0:0:
192,192,118016,1,0,0:0:0:0:
448,192,118016,1,0,0:0:0:0:
192,192,118116,1,0,0:0:0:0:
320,192,118216,1,0,0:0:0:0:
64,192,118216,1,0,0:0:0:0:
448,192,118216,1,0,0:0:0:0:
192,192,118316,1,0,0:0:0:0:
64,192,118316,1,0,0:0:0:0:
448,192,118316,1,0,0:0:0:0:
320,192,118416,1,0,0:0:0:0:
448,192,118516,1,0,0:0:0:0:
64,192,118516,1,0,0:0:0:0:
192,192,118516,1,0,0:0:0:0:
64,192,118616,1,0,0:0:0:0:
448,192,118616,1,0,0:0:0:0:
320,192,118616,1,0,0:0:0:0:
192,192,118716,1,0,0:0:0:0:
64,192,118816,1,0,0:0:0:0:
448,192,118816,1,0,0:0:0:0:
320,192,118816,1,0,0:0:0:0:
320,192,118916,1,0,0:0:0:0:
192,192,119016,1,0,0:0:0:0:
64,192,119016,1,0,0:0:0:0:
448,192,119016,1,0,0:0:0:0:
192,192,119116,1,0,0:0:0:0:
320,192,119216,1,0,0:0:0:0:
64,192,119216,1,0,0:0:0:0:
448,192,119216,1,0,0:0:0:0:
448,192,119316,1,0,0:0:0:0:
64,192,119416,1,0,0:0:0:0:
64,192,119516,1,0,0:0:0:0:
