osu file format v14

[General]
AudioFilename: audio.mp3
AudioLeadIn: 0
PreviewTime: 91924
Countdown: 0
SampleSet: Soft
StackLeniency: 1
Mode: 0
LetterboxInBreaks: 0
EpilepsyWarning: 1
WidescreenStoryboard: 1

[Editor]
Bookmarks: 603,11794,21742,26716,46613,66509,86406,92623,112520,122468,127753
DistanceSpacing: 0.3
BeatDivisor: 8
GridSize: 4
TimelineZoom: 3.399999

[Metadata]
Title:Disorder
TitleUnicode:Disorder
Artist:HyuN feat. YURI
ArtistUnicode:HyuN feat. YURI
Creator:lcfc
Version:Forever
Source:osu!
Tags:lowcombofc cococolaco realazy bouyaaa starrstyx how2miss mappers' guild fa featured artist bms
BeatmapID:1864007
BeatmapSetID:891632

[Difficulty]
HPDrainRate:6
CircleSize:4.2
OverallDifficulty:8.7
ApproachRate:9.4
SliderMultiplier:2
SliderTickRate:1

[Events]
//Background and Video events
0,0,"bg.png",0,0
//Break Periods
2,66709,74022
2,86606,88944
//Storyboard Layer 0 (Background)
Sprite,Background,Centre,"sb\names\lcfc.png",320,0 MY,0,5577,,315 F,1,5577,5887,0,1 S,0,11794,,0.3
//Storyboard Layer 1 (Fail)
//Storyboard Layer 2 (Pass)
//Storyboard Layer 3 (Foreground)
//Storyboard Sound Samples

[TimingPoints]
603,310.880829015544,4,2,1,80,1,0
603,-166.666666666667,4,2,1,80,0,0
11794,-100,4,2,1,80,0,0
21742,-66.6666666666667,4,2,1,80,0,0
22053,-100,4,2,1,80,0,0
22209,-66.6666666666667,4,2,1,80,0,0
22520,-100,4,2,1,80,0,0
22675,-66.6666666666667,4,2,1,80,0,0
22986,-100,4,2,1,80,0,0
23141,-66.6666666666667,4,2,1,80,0,0
23452,-100,4,2,1,80,0,0
23608,-66.6666666666667,4,2,1,80,0,0
23763,-100,4,2,1,80,0,0
23919,-66.6666666666667,4,2,1,80,0,0
24074,-100,4,2,1,80,0,0
24229,-66.6666666666667,4,2,1,80,0,0
26095,-100,4,2,1,80,0,0
26250,-80,4,2,1,80,0,0
26406,-66.6666666666667,4,2,1,80,0,0
26561,-57.1428571428571,4,2,1,80,0,0
26716,-100,4,2,1,80,0,0
45369,-66.6666666666667,4,2,1,80,0,0
46924,-100,4,2,1,80,0,0
47079,-66.6666666666667,4,2,1,80,0,0
47390,-100,4,2,1,80,0,0
47546,-66.6666666666667,4,2,1,80,0,0
47856,-100,4,2,1,80,0,0
48012,-66.6666666666667,4,2,1,80,0,0
48323,-100,4,2,1,80,0,0
48478,-66.6666666666667,4,2,1,80,0,0
49411,-100,4,2,1,80,0,0
49566,-66.6666666666667,4,2,1,80,0,0
49877,-100,4,2,1,80,0,0
50033,-66.6666666666667,4,2,1,80,0,0
50343,-100,4,2,1,80,0,0
50499,-66.6666666666667,4,2,1,80,0,0
50810,-100,4,2,1,80,0,0
50965,-66.6666666666667,4,2,1,80,0,0
51121,-100,4,2,1,80,0,0
51276,-66.6666666666667,4,2,1,80,0,0
51898,-100,4,2,1,80,0,0
52053,-66.6666666666667,4,2,1,80,0,0
52364,-100,4,2,1,80,0,0
52520,-66.6666666666667,4,2,1,80,0,0
52830,-100,4,2,1,80,0,0
52986,-66.6666666666667,4,2,1,80,0,0
53297,-100,4,2,1,80,0,0
53452,-66.6666666666667,4,2,1,80,0,0
54385,-100,4,2,1,80,0,0
54540,-66.6666666666667,4,2,1,80,0,0
54851,-100,4,2,1,80,0,0
55007,-66.6666666666667,4,2,1,80,0,0
55318,-100,4,2,1,80,0,0
55473,-66.6666666666667,4,2,1,80,0,0
55784,-100,4,2,1,80,0,0
55939,-66.6666666666667,4,2,1,80,0,0
56250,-50,4,2,1,80,0,0
56561,-66.6666666666667,4,2,1,80,0,0
56872,-100,4,2,1,80,0,0
57027,-66.6666666666667,4,2,1,80,0,0
57338,-100,4,2,1,80,0,0
57494,-66.6666666666667,4,2,1,80,0,0
57805,-100,4,2,1,80,0,0
57960,-66.6666666666667,4,2,1,80,0,0
58271,-100,4,2,1,80,0,0
58426,-66.6666666666667,4,2,1,80,0,0
59359,-100,4,2,1,80,0,0
59514,-66.6666666666667,4,2,1,80,0,0
59825,-100,4,2,1,80,0,0
59981,-66.6666666666667,4,2,1,80,0,0
60292,-100,4,2,1,80,0,0
60447,-66.6666666666667,4,2,1,80,0,0
60758,-100,4,2,1,80,0,0
60913,-66.6666666666667,4,2,1,80,0,0
61069,-100,4,2,1,80,0,0
61224,-66.6666666666667,4,2,1,80,0,0
61846,-100,4,2,1,80,0,0
62001,-66.6666666666667,4,2,1,80,0,0
62312,-100,4,2,1,80,0,0
62468,-66.6666666666667,4,2,1,80,0,0
62779,-100,4,2,1,80,0,0
62934,-66.6666666666667,4,2,1,80,0,0
63245,-100,4,2,1,80,0,0
63400,-66.6666666666667,4,2,1,80,0,0
64333,-100,4,2,1,80,0,0
64489,-66.6666666666667,4,2,1,80,0,0
64799,-100,4,2,1,80,0,0
64955,-66.6666666666667,4,2,1,80,0,0
65732,-100,4,2,1,80,0,0
65887,-200,4,2,1,40,0,0
92001,-400,4,2,1,40,0,0
92235,-400,4,2,1,5,0,0
92312,-200,4,2,1,40,0,0
92546,-200,4,2,1,5,0,0
92623,-100,4,2,1,80,0,1
102571,-100,4,2,1,80,0,0
103815,-66.6666666666667,4,2,1,80,0,0
105058,-100,4,2,1,80,0,1
111276,-66.6666666666667,4,2,1,80,0,1
112209,-100,4,2,1,80,0,1
122468,-66.6666666666667,4,2,1,80,0,0
122779,-100,4,2,1,80,0,0
122934,-66.6666666666667,4,2,1,80,0,0
123245,-100,4,2,1,80,0,0
123400,-66.6666666666667,4,2,1,80,0,0
123711,-100,4,2,1,80,0,0
123867,-66.6666666666667,4,2,1,80,0,0
124178,-100,4,2,1,80,0,0
124333,-66.6666666666667,4,2,1,80,0,0
124489,-100,4,2,1,80,0,0
124644,-66.6666666666667,4,2,1,80,0,0
124799,-100,4,2,1,80,0,0
124955,-66.6666666666667,4,2,1,80,0,0
126820,-100,4,2,1,80,0,0
126975,-80,4,2,1,80,0,0
127131,-66.6666666666667,4,2,1,80,0,0
127286,-57.1428571428571,4,2,1,80,0,0
127830,-57.1428571428571,4,2,1,30,0,0
132416,-57.1428571428571,4,2,1,5,0,0

[Colours]
Combo1 : 255,128,0
Combo2 : 123,105,79
Combo3 : 126,156,95
Combo4 : 173,103,92
Combo5 : 169,167,86
Combo6 : 255,0,0

[HitObjects]
256,192,9307,12,0,11639,0:0:0:0:
55,159,11794,6,0,B|33:203|33:203|52:250,1,100,4|0,1:2|0:0,0:0:0:0:
111,296,12027,1,0,0:0:0:0:
125,290,12105,1,8,0:0:0:0:
269,132,12261,2,0,L|120:114,1,150,0|0,0:0|0:0,0:0:0:0:
120,114,12571,1,0,1:0:0:0:
192,35,12727,2,0,L|202:83,1,50,8|0,0:0|0:0,0:0:0:0:
304,211,12882,2,0,L|293:259,1,50,0|0,0:0|0:0,0:0:0:0:
169,355,13038,5,0,1:2:0:0:
199,225,13193,1,0,0:0:0:0:
199,225,13271,1,0,0:0:0:0:
199,225,13349,1,8,0:0:0:0:
3,326,13504,2,0,P|65:287|140:285,1,150,0|0,0:0|0:0,0:0:0:0:
140,285,13815,2,0,L|148:327,2,25,0|0|0,1:2|0:0|0:0,0:0:0:0:
107,199,13970,2,0,L|116:150,1,50,8|0,0:0|0:0,0:0:0:0:
239,53,14126,2,0,L|248:101,1,50,0|0,0:0|0:0,0:0:0:0:
336,267,14281,6,0,P|384:255|434:255,1,100,0|0,1:2|0:0,0:0:0:0:
500,288,14514,1,0,0:0:0:0:
505,302,14592,1,8,0:0:0:0:
276,330,14748,2,0,B|246:286|246:286|267:191,1,150,0|0,0:0|0:0,0:0:0:0:
211,136,15058,2,0,L|147:149,1,50,0|0,1:2|0:0,0:0:0:0:
348,81,15214,2,0,L|396:90,1,50,8|0,0:0|0:0,0:0:0:0:
139,46,15369,2,0,L|75:59,1,50
273,3,15525,5,0,1:0:0:0:
267,191,15680,1,0,0:0:0:0:
264,205,15758,1,0,0:0:0:0:
261,221,15836,2,0,L|197:234,1,50,8|0,0:0|0:0,0:0:0:0:
77,167,15991,2,0,L|125:157,1,50
336,267,16147,1,0,0:0:0:0:
333,281,16225,1,0,0:0:0:0:
330,295,16302,1,0,1:0:0:0:
327,309,16380,1,0,0:0:0:0:
324,323,16457,37,8,0:0:0:0:
282,349,16534,1,0,0:0:0:0:
232,350,16612,1,0,1:0:0:0:
189,326,16690,1,0,0:0:0:0:
165,284,16768,6,0,P|130:277|54:275,1,100,4|0,1:2|0:0,0:0:0:0:
16,330,17001,1,0,0:0:0:0:
18,344,17079,1,8,0:0:0:0:
124,199,17235,2,0,B|134:117|91:126|103:53,1,150
102,53,17546,1,0,1:0:0:0:
221,136,17701,2,0,P|218:160|207:183,1,50,8|0,0:0|0:0,0:0:0:0:
35,141,17856,2,0,P|24:118|21:93,1,50
163,0,18012,5,0,1:0:0:0:
312,145,18167,1,0,0:0:0:0:
312,145,18245,1,0,0:0:0:0:
312,145,18323,1,8,0:0:0:0:
482,12,18478,2,0,B|387:36|387:36|370:85,1,150
370,85,18789,2,0,L|395:89,2,25,0|0|0,1:0|0:0|0:0,0:0:0:0:
434,168,18944,2,0,L|375:181,1,50,8|0,0:0|0:0,0:0:0:0:
244,56,19100,2,0,L|292:45,1,50
506,121,19255,6,0,B|521:170|521:170|505:216,1,100,0|0,1:0|0:0,0:0:0:0:
442,258,19489,1,0,0:0:0:0:
427,262,19566,1,8,0:0:0:0:
207,183,19722,2,0,P|277:157|351:154,1,150
346,249,20033,2,0,L|296:239,1,50,0|0,1:0|0:0,0:0:0:0:
131,160,20188,2,0,L|181:150,1,50,8|0,0:0|0:0,0:0:0:0:
378,62,20343,2,0,L|328:52,1,50
234,13,20499,37,0,1:0:0:0:
171,262,20654,1,0,0:0:0:0:
174,276,20732,1,0,0:0:0:0:
177,290,20810,2,0,L|185:240,1,50,8|0,0:0|0:0,0:0:0:0:
83,98,20965,2,0,L|91:147,1,50
231,355,21121,1,0,0:0:0:0:
245,352,21199,1,0,0:0:0:0:
259,349,21276,1,0,1:0:0:0:
273,346,21354,1,0,0:0:0:0:
287,342,21432,5,8,0:0:0:0:
314,301,21509,1,0,0:0:0:0:
321,252,21587,1,0,1:0:0:0:
306,205,21665,1,0,0:0:0:0:
273,168,21742,38,0,L|124:145,1,150.000005722046,4|0,1:2|0:0,0:0:0:0:
124,145,22053,6,0,L|133:194,1,50
72,255,22209,70,0,L|221:232,1,150.000005722046,4|0,1:2|0:0,0:0:0:0:
220,232,22520,6,0,L|210:281,1,50
498,219,22675,70,0,L|349:196,1,150.000005722046,4|0,1:2|0:0,0:0:0:0:
349,196,22986,6,0,L|358:245,1,50
297,306,23142,70,0,L|446:283,1,150.000005722046,4|0,1:2|0:0,0:0:0:0:
445,283,23453,6,0,L|435:332,1,50
272,167,23608,70,0,P|261:132|266:95,1,75.0000028610231,4|0,1:2|0:0,0:0:0:0:
307,28,23763,6,0,P|326:13|349:4,1,50,0|0,1:0|0:0,0:0:0:0:
184,136,23919,70,0,P|200:102|230:80,1,75.0000028610231,4|0,1:2|0:0,0:0:0:0:
417,40,24074,6,0,P|441:42|464:52,1,50,0|0,1:0|0:0,0:0:0:0:
434,205,24229,70,0,P|389:261|317:255,2,150.000005722046,4|0|0,1:2|0:0|0:0,0:0:0:0:
77,205,24696,2,0,P|122:261|194:255,2,150.000005722046,4|0|0,1:2|0:0|0:0,0:0:0:0:
256,48,25162,2,0,L|256:208,1,150.000005722046,4|0,1:2|0:0,0:0:0:0:
256,198,25395,1,0,0:0:0:0:
256,198,25473,1,0,0:0:0:0:
91,346,25628,5,4,1:2:0:0:
91,346,25706,1,0,0:0:0:0:
91,346,25784,1,0,0:0:0:0:
45,130,25939,69,0,0:0:0:0:
45,130,26017,1,0,0:0:0:0:
45,129,26095,2,0,P|47:105|53:80,1,50,0|0,1:0|0:0,0:0:0:0:
127,17,26250,6,0,P|133:57|133:87,1,62.5,0|0,1:0|0:0,0:0:0:0:
178,230,26406,70,0,P|179:192|188:156,1,75.0000028610231,0|0,1:0|0:0,0:0:0:0:
320,1,26561,6,0,P|331:43|332:86,1,87.500000834465,0|0,1:0|0:0,0:0:0:0:
268,125,26716,6,0,B|363:112|352:178|461:157,1,200,4|8,1:2|0:0,0:0:0:0:
417,76,27183,1,0,0:0:0:0:
296,209,27338,2,0,B|274:253|274:253|293:300,1,100,0|0,0:0|1:0,0:0:0:0:
365,370,27571,1,0,0:0:0:0:
356,359,27649,2,0,L|367:310,1,50,8|0,0:0|0:0,0:0:0:0:
391,193,27805,1,0,0:0:0:0:
178,230,27960,5,0,1:0:0:0:
226,366,28115,1,0,0:0:0:0:
240,369,28193,1,0,0:0:0:0:
254,372,28271,2,0,L|265:323,1,50,8|0,0:0|0:0,0:0:0:0:
153,147,28426,5,0,0:0:0:0:
132,143,28504,1,0,0:0:0:0:
111,138,28582,2,0,L|99:186,1,50
385,225,28737,5,0,1:0:0:0:
391,193,28815,1,0,0:0:0:0:
398,162,28893,2,0,L|349:150,1,50,8|0,0:0|0:0,0:0:0:0:
276,79,29048,2,0,L|227:90,1,50
99,273,29204,37,0,1:0:0:0:
263,189,29359,1,0,0:0:0:0:
263,189,29437,1,0,0:0:0:0:
263,189,29514,1,8,0:0:0:0:
254,372,29670,1,0,0:0:0:0:
190,315,29825,6,0,L|182:265,1,50
263,189,29981,2,0,L|255:239,1,50,0|0,1:0|0:0,0:0:0:0:
119,371,30136,1,8,0:0:0:0:
102,322,30213,1,0,0:0:0:0:
99,273,30291,1,0,0:0:0:0:
112,224,30369,1,0,0:0:0:0:
137,182,30447,5,0,1:0:0:0:
321,118,30602,1,0,0:0:0:0:
328,104,30680,1,0,0:0:0:0:
334,89,30758,1,8,0:0:0:0:
303,51,30835,1,0,0:0:0:0:
259,28,30913,1,0,0:0:0:0:
210,25,30991,1,0,0:0:0:0:
163,43,31069,6,0,L|155:93,1,50
218,321,31224,2,0,L|226:271,1,50,0|0,1:0|0:0,0:0:0:0:
279,182,31380,1,8,0:0:0:0:
305,223,31457,1,0,0:0:0:0:
350,244,31535,1,0,1:0:0:0:
399,239,31613,1,0,0:0:0:0:
440,211,31691,38,0,B|446:294|411:340|411:340|349:359,1,200,4|8,1:2|0:0,0:0:0:0:
263,336,32157,1,0,0:0:0:0:
126,248,32312,2,0,P|175:244|223:228,1,100,0|0,0:0|1:0,0:0:0:0:
287,154,32546,1,0,0:0:0:0:
275,163,32623,2,0,L|264:211,1,50,8|0,0:0|0:0,0:0:0:0:
147,360,32779,1,0,0:0:0:0:
50,192,32934,5,0,1:0:0:0:
183,79,33090,1,0,0:0:0:0:
194,88,33167,1,0,0:0:0:0:
205,97,33245,2,0,L|194:145,1,50,8|0,0:0|0:0,0:0:0:0:
263,336,33400,5,0,0:0:0:0:
279,322,33477,1,0,0:0:0:0:
296,309,33556,2,0,L|285:260,1,50
339,47,33711,5,0,1:0:0:0:
363,68,33788,1,0,0:0:0:0:
388,87,33867,2,0,L|377:135,1,50,8|0,0:0|0:0,0:0:0:0:
380,217,34022,2,0,L|369:265,1,50
372,347,34178,37,0,1:0:0:0:
193,233,34333,1,0,0:0:0:0:
193,233,34411,1,0,0:0:0:0:
193,233,34489,1,8,0:0:0:0:
376,135,34644,1,0,0:0:0:0:
193,145,34799,6,0,L|144:157,1,50
331,204,34955,2,0,L|380:217,1,50,0|0,1:0|0:0,0:0:0:0:
251,90,35110,1,8,0:0:0:0:
211,60,35187,1,0,0:0:0:0:
164,42,35265,1,0,0:0:0:0:
114,39,35343,1,0,0:0:0:0:
66,49,35421,5,0,1:0:0:0:
121,301,35577,1,0,0:0:0:0:
126,314,35654,1,0,0:0:0:0:
132,327,35732,1,8,0:0:0:0:
167,292,35809,1,0,0:0:0:0:
182,245,35887,1,0,0:0:0:0:
174,196,35965,1,0,0:0:0:0:
144,157,36043,6,0,L|95:169,1,50
0,236,36198,2,0,L|49:248,1,50,0|0,1:0|0:0,0:0:0:0:
274,295,36354,1,8,0:0:0:0:
293,249,36431,1,0,0:0:0:0:
274,204,36509,1,0,1:0:0:0:
255,158,36587,1,0,0:0:0:0:
273,112,36665,38,0,P|350:54|445:76,1,200,4|8,1:2|0:0,0:0:0:0:
445,158,37131,1,0,0:0:0:0:
274,204,37286,2,0,L|176:180,1,100,0|0,0:0|1:0,0:0:0:0:
125,92,37520,1,0,0:0:0:0:
135,102,37597,2,0,L|209:90,1,50,8|0,0:0|0:0,0:0:0:0:
273,112,37753,1,0,0:0:0:0:
319,279,37908,5,0,1:0:0:0:
116,230,38064,1,0,0:0:0:0:
106,218,38141,1,0,0:0:0:0:
97,205,38219,2,0,L|146:196,1,50,8|0,0:0|0:0,0:0:0:0:
273,112,38375,5,0,0:0:0:0:
258,130,38452,1,0,0:0:0:0:
244,150,38530,2,0,L|318:162,1,50
363,336,38685,5,0,1:0:0:0:
340,309,38762,1,0,0:0:0:0:
319,279,38841,2,0,L|393:266,1,50,8|0,0:0|0:0,0:0:0:0:
445,158,38996,2,0,L|370:145,1,50
246,31,39152,37,0,1:0:0:0:
394,3,39307,1,0,0:0:0:0:
394,3,39385,1,0,0:0:0:0:
394,3,39463,1,8,0:0:0:0:
310,181,39618,1,0,0:0:0:0:
169,98,39773,6,0,L|160:48,1,50
243,234,39929,2,0,L|234:283,1,50,0|0,1:0|0:0,0:0:0:0:
0,249,40084,1,8,0:0:0:0:
26,207,40161,1,0,0:0:0:0:
68,180,40239,1,0,0:0:0:0:
117,175,40317,1,0,0:0:0:0:
164,191,40395,6,0,L|155:240,1,50,0|0,1:0|0:0,0:0:0:0:
269,363,40551,1,0,0:0:0:0:
283,360,40628,1,0,0:0:0:0:
297,357,40706,1,8,0:0:0:0:
324,315,40783,1,0,0:0:0:0:
339,268,40861,1,0,0:0:0:0:
339,218,40939,1,0,0:0:0:0:
324,170,41017,6,0,L|274:161,1,50
160,48,41172,2,0,L|209:39,1,50,0|0,1:0|0:0,0:0:0:0:
432,9,41328,1,8,0:0:0:0:
416,55,41405,1,0,0:0:0:0:
379,87,41483,1,0,1:0:0:0:
330,96,41561,1,0,0:0:0:0:
283,76,41639,38,0,P|184:73|89:103,1,200,4|8,1:2|0:0,0:0:0:0:
35,163,42105,1,0,0:0:0:0:
193,345,42261,2,0,B|215:301|215:301|196:254,1,100,0|0,0:0|1:0,0:0:0:0:
114,184,42494,1,0,0:0:0:0:
121,196,42571,2,0,L|109:265,1,50,8|0,0:0|0:0,0:0:0:0:
60,310,42727,1,0,0:0:0:0:
284,245,42882,5,0,1:0:0:0:
197,72,43038,1,0,0:0:0:0:
193,86,43115,1,0,0:0:0:0:
189,100,43193,2,0,L|201:169,1,50,8|0,0:0|0:0,0:0:0:0:
379,132,43349,5,0,0:0:0:0:
385,155,43426,1,0,0:0:0:0:
391,175,43504,2,0,L|382:224,1,50
176,265,43659,5,0,1:0:0:0:
167,299,43736,1,0,0:0:0:0:
158,329,43815,2,0,L|170:402,1,50,8|0,0:0|0:0,0:0:0:0:
292,294,43970,2,0,L|283:244,1,50
197,149,44126,37,0,1:0:0:0:
64,320,44281,1,0,0:0:0:0:
64,320,44359,1,0,0:0:0:0:
64,320,44437,1,8,0:0:0:0:
5,198,44592,1,0,0:0:0:0:
106,110,44748,6,0,L|97:159,1,50
283,244,44903,2,0,L|274:194,1,50,0|0,1:0|0:0,0:0:0:0:
251,52,45058,1,8,0:0:0:0:
293,27,45135,1,0,0:0:0:0:
343,27,45213,1,0,0:0:0:0:
385,52,45291,1,0,0:0:0:0:
409,95,45369,38,0,P|389:127|354:139,1,75.0000028610231,4|0,1:2|0:0,0:0:0:0:
277,179,45525,2,0,P|240:177|212:153,1,75.0000028610231,0|0,1:0|0:0,0:0:0:0:
160,26,45680,5,8,0:0:0:0:
145,28,45758,1,0,0:0:0:0:
130,31,45836,1,0,0:0:0:0:
115,34,45913,1,0,0:0:0:0:
100,37,45991,70,0,B|94:67|94:67|105:109,1,75.0000028610231,4|0,1:2|0:0,0:0:0:0:
172,226,46147,2,0,B|178:256|178:256|166:298,1,75.0000028610231,0|0,1:0|0:0,0:0:0:0:
73,364,46302,5,8,0:0:0:0:
31,368,46380,1,0,0:0:0:0:
78,349,46457,1,0,0:0:0:0:
36,353,46535,1,0,0:0:0:0:
60,342,46613,70,0,B|29:273|29:273|51:202,1,150.000005722046,4|0,1:2|0:0,0:0:0:0:
51,201,46924,6,0,L|99:211,1,50
184,44,47079,70,0,B|153:113|153:113|175:184,1,150.000005722046,4|0,1:2|0:0,0:0:0:0:
175,184,47390,6,0,L|223:173,1,50
308,342,47546,70,0,B|277:273|277:273|299:202,1,150.000005722046,4|0,1:2|0:0,0:0:0:0:
299,201,47857,6,0,L|347:211,1,50
432,44,48012,70,0,B|401:113|401:113|423:184,1,150.000005722046,4|0,1:2|0:0,0:0:0:0:
423,184,48323,6,0,L|471:173,1,50
336,40,48478,70,0,P|267:18|211:63,1,150.000005722046,4|0,1:2|0:0,0:0:0:0:
235,152,48711,1,0,0:0:0:0:
235,152,48789,6,0,L|161:138,1,75.0000028610231,0|0,1:0|0:0,0:0:0:0:
95,48,48944,2,0,L|81:121,1,75.0000028610231,0|0,1:0|0:0,0:0:0:0:
24,270,49100,70,0,P|85:229|159:226,1,150.000005722046,4|0,1:2|0:0,0:0:0:0:
159,226,49411,6,0,L|169:275,1,50
239,155,49566,70,0,P|300:195|374:198,1,150.000005722046,4|0,1:2|0:0,0:0:0:0:
375,197,49877,6,0,L|384:147,1,50
254,51,50033,70,0,P|192:10|118:7,1,150.000005722046,4|0,1:2|0:0,0:0:0:0:
118,6,50344,6,0,L|108:55,1,50
164,230,50499,70,0,P|102:270|28:273,1,150.000005722046,4|0,1:2|0:0,0:0:0:0:
27,272,50810,6,0,L|17:222,1,50
252,128,50965,70,0,P|252:165|241:201,1,75.0000028610231,4|0,1:2|0:0,0:0:0:0:
200,305,51121,6,0,P|224:299|246:287,1,50,0|0,1:0|0:0,0:0:0:0:
372,123,51276,70,0,L|326:111,1,37.5000014305115,2|2,0:0|0:0,0:0:0:0:
368,105,51354,6,0,L|414:93,1,37.5000014305115,2|2,0:0|0:0,0:0:0:0:
364,87,51432,70,0,L|318:75,1,37.5000014305115,2|2,0:0|0:0,0:0:0:0:
360,69,51509,6,0,L|406:57,1,37.5000014305115,2|2,0:0|0:0,0:0:0:0:
359,55,51587,70,0,B|312:33|312:33|216:54,1,150.000005722046,4|0,1:2|0:0,0:0:0:0:
216,53,51898,6,0,L|160:42,1,50
59,139,52053,70,0,B|106:117|106:117|202:138,1,150.000005722046,4|0,1:2|0:0,0:0:0:0:
201,137,52364,6,0,L|256:126,1,50
359,223,52520,70,0,B|312:201|312:201|216:222,1,150.000005722046,4|0,1:2|0:0,0:0:0:0:
216,221,52830,6,0,L|160:210,1,50
59,307,52986,70,0,B|106:285|106:285|202:306,1,150.000005722046,4|0,1:2|0:0,0:0:0:0:
201,305,53297,6,0,L|256:294,1,50
395,332,53452,70,0,B|403:257|353:287|362:189,1,150.000005722046,4|0,1:2|0:0,0:0:0:0:
496,172,53685,1,0,0:0:0:0:
496,172,53763,6,0,P|476:202|442:217,1,75.0000028610231,0|0,1:0|0:0,0:0:0:0:
316,319,53919,2,0,P|279:317|249:294,1,75.0000028610231,0|0,1:0|0:0,0:0:0:0:
196,194,54074,70,0,L|209:44,1,150.000005722046,4|0,1:2|0:0,0:0:0:0:
208,44,54385,6,0,L|219:104,1,50
82,271,54540,70,0,L|95:121,1,150.000005722046,4|0,1:2|0:0,0:0:0:0:
94,121,54851,6,0,L|104:180,1,50
294,263,55007,70,0,L|307:113,1,150.000005722046,4|0,1:2|0:0,0:0:0:0:
306,113,55318,6,0,L|316:172,1,50
180,340,55473,70,0,L|193:190,1,150.000005722046,4|0,1:2|0:0,0:0:0:0:
192,190,55784,6,0,L|202:249,1,50
362,324,55939,70,0,L|366:286,1,37.5000014305115,2|2,1:0|1:0,0:0:0:0:
377,320,56017,6,0,L|381:358,1,37.5000014305115,2|2,1:0|1:0,0:0:0:0:
392,316,56095,70,0,L|396:278,1,37.5000014305115,2|2,1:0|1:0,0:0:0:0:
407,312,56172,6,0,L|411:350,1,37.5000014305115,2|2,1:0|1:0,0:0:0:0:
422,308,56250,70,0,B|439:260|439:260|424:213,1,100,2|0,2:1|0:0,0:0:0:0:
317,67,56406,6,0,B|300:115|300:115|314:161,1,100,2|0,0:1|0:0,0:0:0:0:
256,296,56561,70,0,P|188:265|113:264,1,150.000005722046,4|0,1:2|0:0,0:0:0:0:
113,263,56872,6,0,L|104:213,1,50
178,101,57027,70,0,P|110:131|35:132,1,150.000005722046,4|0,1:2|0:0,0:0:0:0:
35,133,57338,6,0,L|26:182,1,50
337,255,57494,70,0,P|269:224|194:223,1,150.000005722046,4|0,1:2|0:0,0:0:0:0:
194,222,57805,6,0,L|185:172,1,50
413,57,57960,70,0,P|345:87|270:88,1,150.000005722046,4|0,1:2|0:0,0:0:0:0:
270,88,58271,6,0,L|261:137,1,50
447,313,58426,70,0,P|461:244|400:207,1,150.000005722046,4|0,1:2|0:0,0:0:0:0:
337,255,58659,1,0,0:0:0:0:
337,255,58737,6,0,P|346:291|348:328,1,75.0000028610231,0|0,1:0|0:0,0:0:0:0:
163,328,58893,2,0,P|165:291|174:255,1,75.0000028610231,0|0,1:0|0:0,0:0:0:0:
268,144,59048,70,0,P|307:82|289:12,1,150.000005722046,4|0,1:2|1:0,0:0:0:0:
289,12,59281,1,0,1:0:0:0:
289,12,59359,6,0,L|223:24,1,50,0|0,1:0|0:0,0:0:0:0:
106,230,59514,70,0,P|66:168|84:98,1,150.000005722046,4|0,1:2|1:0,0:0:0:0:
84,98,59747,1,0,1:0:0:0:
84,98,59825,6,0,L|149:110,1,50,0|0,1:0|0:0,0:0:0:0:
309,284,59981,70,0,P|348:222|330:152,1,150.000005722046,4|0,1:2|1:0,0:0:0:0:
330,152,60214,1,0,1:0:0:0:
330,152,60292,6,0,L|264:164,1,50,0|0,1:0|0:0,0:0:0:0:
147,370,60447,70,0,P|107:308|125:238,1,150.000005722046,4|0,1:2|1:0,0:0:0:0:
125,238,60680,1,0,1:0:0:0:
125,238,60758,6,0,L|190:250,1,50,0|0,1:0|0:0,0:0:0:0:
410,273,60913,70,0,P|426:239|427:202,1,75.0000028610231,4|0,1:2|0:0,0:0:0:0:
402,114,61069,6,0,P|389:92|369:77,1,50,0|0,1:0|0:0,0:0:0:0:
277,49,61224,70,0,L|282:86,1,37.5000014305115,0|0,1:0|1:0,0:0:0:0:
262,58,61302,6,0,L|267:20,1,37.5000014305115,0|0,1:0|1:0,0:0:0:0:
247,67,61380,70,0,L|252:104,1,37.5000014305115,0|0,1:0|1:0,0:0:0:0:
232,76,61457,6,0,L|237:38,1,37.5000014305115,0|0,1:0|1:0,0:0:0:0:
216,86,61535,70,0,B|145:103|145:103|81:60,1,150.000005722046,4|0,1:2|1:0,0:0:0:0:
81,60,61768,1,0,1:0:0:0:
81,60,61846,6,0,L|94:124,1,50,0|0,1:0|0:0,0:0:0:0:
0,216,62001,70,0,B|71:233|71:233|135:190,1,150.000005722046,4|0,1:2|1:0,0:0:0:0:
135,190,62234,1,0,1:0:0:0:
135,190,62312,6,0,L|122:253,1,50,0|0,1:0|0:0,0:0:0:0:
189,309,62468,70,0,B|260:292|260:292|324:335,1,150.000005722046,4|0,1:2|1:0,0:0:0:0:
323,334,62701,1,0,1:0:0:0:
323,334,62779,6,0,L|310:270,1,50,0|0,1:0|0:0,0:0:0:0:
405,179,62934,70,0,B|334:162|334:162|270:205,1,150.000005722046,4|0,1:2|1:0,0:0:0:0:
270,205,63167,1,0,1:0:0:0:
270,205,63245,6,0,L|282:141,1,50,0|0,1:0|0:0,0:0:0:0:
426,26,63400,69,4,1:2:0:0:
426,26,63478,1,0,1:0:0:0:
426,26,63556,2,0,L|441:125,1,75.0000028610231,0|0,1:0|0:0,0:0:0:0:
495,203,63711,6,0,P|463:186|425:184,1,75.0000028610231,0|0,1:0|0:0,0:0:0:0:
323,272,63867,2,0,P|290:289|252:291,1,75.0000028610231,0|0,1:0|0:0,0:0:0:0:
110,205,64022,69,4,1:2:0:0:
96,199,64100,1,0,1:0:0:0:
105,187,64178,1,0,1:0:0:0:
91,181,64256,1,0,1:0:0:0:
100,169,64333,6,0,L|108:107,1,50,0|0,1:0|0:0,0:0:0:0:
192,3,64489,69,4,1:2:0:0:
171,12,64567,1,0,1:0:0:0:
184,30,64645,1,0,1:0:0:0:
163,39,64723,1,0,1:0:0:0:
177,57,64800,6,0,L|183:106,1,50,0|0,1:0|0:0,0:0:0:0:
323,272,64955,69,4,1:2:0:0:
295,260,65033,1,0,1:0:0:0:
313,236,65111,1,0,1:0:0:0:
285,224,65189,1,0,1:0:0:0:
303,200,65266,6,0,L|312:125,1,75.0000028610231,4|0,1:2|0:0,0:0:0:0:
443,11,65421,70,0,L|450:47,1,37.5000014305115,0|0,1:0|0:0,0:0:0:0:
461,35,65499,6,0,L|468:71,1,37.5000014305115
450,67,65577,70,0,L|375:56,1,75.0000028610231,4|0,0:0|0:0,0:0:0:0:
175,88,65732,6,0,L|150:93,3,25,0|0|0|0,1:0|0:0|0:0|0:0,0:0:0:0:
192,3,65887,38,0,B|182:80|235:53|228:143,1,150,2|0,0:0|0:0,0:0:0:0:
195,211,66509,5,4,1:2:0:0:
256,192,74592,12,0,76302,0:0:0:0:
154,237,76457,37,4,1:2:0:0:
153,237,77079,2,0,P|199:216|248:212,1,100,2|0,0:0|0:0,0:0:0:0:
248,212,77546,1,0,0:0:0:0:
323,257,77701,6,0,L|313:319,1,50,2|0,0:0|0:0,0:0:0:0:
368,368,78012,2,0,L|330:171,1,200,2|0,0:0|0:0,0:0:0:0:
402,75,78789,1,0,0:0:0:0:
341,160,78944,6,0,P|302:129|253:127,1,100,2|0,0:0|0:0,0:0:0:0:
183,96,79411,2,0,P|137:113|110:155,1,100,2|0,0:0|0:0,0:0:0:0:
136,229,79877,2,0,L|146:284,1,50,2|0,0:0|0:0,0:0:0:0:
87,336,80188,6,0,P|185:325|278:360,2,200,2|0|2,0:0|0:0|0:0,0:0:0:0:
87,336,81742,37,0,0:0:0:0:
14,312,82053,1,0,0:0:0:0:
203,164,82364,5,2,0:0:0:0:
130,188,82520,1,2,0:0:0:0:
203,164,82675,1,2,0:0:0:0:
25,26,82986,5,0,0:0:0:0:
98,50,83297,1,2,0:0:0:0:
25,26,83608,1,0,0:0:0:0:
203,164,83919,6,0,P|187:96|177:14,2,150,2|0|2,0:0|0:0|0:0,0:0:0:0:
145,247,85162,38,0,P|108:280|59:283,1,100,2|0,0:0|0:0,0:0:0:0:
264,81,85784,2,0,P|335:67|395:108,1,150,2|0,0:0|0:0,0:0:0:0:
410,187,86406,5,0,1:0:0:0:
256,192,89514,12,0,91846,0:0:0:0:
70,42,92001,6,0,L|65:90,1,37.5,2|0,0:0|0:0,0:0:0:0:
84,29,92312,6,0,L|74:118,1,75,2|0,0:0|0:0,0:0:0:0:
30,179,92623,38,0,P|91:137|164:144,1,150,4|0,1:2|0:0,0:0:0:0:
163,143,92934,1,8,0:0:0:0:
242,304,93090,2,0,P|229:255|227:205,1,100
287,133,93323,1,0,0:0:0:0:
275,140,93400,2,0,L|266:189,1,50,0|0,1:0|0:0,0:0:0:0:
155,294,93556,1,8,0:0:0:0:
334,335,93711,5,0,0:0:0:0:
334,335,93789,1,0,0:0:0:0:
334,335,93867,1,0,1:0:0:0:
155,294,94022,2,0,L|105:302,1,50,0|0,1:0|0:0,0:0:0:0:
39,259,94178,2,0,B|27:210|27:210|44:163,1,100,8|0,0:0|0:0,0:0:0:0:
102,111,94411,1,0,0:0:0:0:
114,119,94489,6,0,L|122:168,1,50
241,284,94644,2,0,L|249:234,1,50,0|0,1:0|0:0,0:0:0:0:
286,47,94799,1,8,0:0:0:0:
286,47,94877,1,0,0:0:0:0:
286,47,94955,1,0,0:0:0:0:
205,161,95110,6,0,B|271:124|271:124|341:146,1,150,0|0,1:0|0:0,0:0:0:0:
341,146,95421,1,8,0:0:0:0:
500,25,95577,2,0,P|455:46|405:54,1,100
342,0,95810,1,0,0:0:0:0:
329,9,95887,2,0,L|317:83,1,50,0|0,1:0|0:0,0:0:0:0:
432,136,96043,2,0,L|440:185,1,50,8|0,0:0|0:0,0:0:0:0:
473,257,96198,1,0,0:0:0:0:
314,326,96354,37,0,1:0:0:0:
172,228,96509,1,0,1:0:0:0:
169,213,96587,1,0,0:0:0:0:
166,197,96665,1,8,0:0:0:0:
181,151,96742,1,0,0:0:0:0:
220,121,96820,1,0,0:0:0:0:
270,118,96898,1,0,0:0:0:0:
312,143,96976,6,0,L|303:192,1,50
228,350,97131,2,0,L|219:300,1,50,0|0,1:0|0:0,0:0:0:0:
88,90,97286,1,8,0:0:0:0:
67,135,97363,1,0,0:0:0:0:
57,184,97441,1,0,1:0:0:0:
60,234,97519,1,0,0:0:0:0:
75,281,97597,6,0,B|151:266|136:325|218:299,1,150,4|0,1:2|0:0,0:0:0:0:
218,299,97908,1,8,0:0:0:0:
180,98,98064,2,0,L|164:207,1,100
253,226,98297,1,0,0:0:0:0:
259,212,98375,2,0,L|251:151,1,50,0|0,1:0|0:0,0:0:0:0:
146,24,98530,1,8,0:0:0:0:
75,202,98685,5,0,0:0:0:0:
75,202,98763,1,0,0:0:0:0:
75,202,98841,1,0,1:0:0:0:
269,135,98996,2,0,L|261:74,1,50,0|0,1:0|0:0,0:0:0:0:
73,93,99152,2,0,P|119:110|169:116,1,100,8|0,0:0|0:0,0:0:0:0:
291,59,99385,1,0,0:0:0:0:
284,45,99463,38,0,L|223:37,1,50
156,209,99618,2,0,L|205:202,1,50,0|0,1:0|0:0,0:0:0:0:
367,109,99773,1,8,0:0:0:0:
367,109,99851,1,0,0:0:0:0:
367,109,99929,1,0,0:0:0:0:
272,304,100084,6,0,P|289:231|286:156,1,150,0|0,1:0|0:0,0:0:0:0:
286,156,100395,1,8,0:0:0:0:
95,245,100551,2,0,L|195:228,1,100
192,319,100784,1,0,0:0:0:0:
177,324,100862,2,0,L|120:316,1,50,0|0,1:0|0:0,0:0:0:0:
64,156,101017,2,0,L|113:162,1,50,8|0,0:0|0:0,0:0:0:0:
189,135,101172,1,0,0:0:0:0:
77,5,101328,5,0,1:0:0:0:
189,135,101483,1,0,1:0:0:0:
203,139,101561,1,0,0:0:0:0:
217,143,101639,1,8,0:0:0:0:
266,138,101716,1,0,0:0:0:0:
305,108,101794,1,0,0:0:0:0:
323,62,101872,1,0,0:0:0:0:
315,14,101950,6,0,L|265:7,1,50
133,74,102105,2,0,L|83:80,1,50,0|0,1:0|0:0,0:0:0:0:
27,180,102261,1,8,0:0:0:0:
52,222,102338,1,0,0:0:0:0:
95,245,102416,2,0,L|97:287,1,25,0|0,1:0|0:0,0:0:0:0:
144,243,102494,2,0,L|166:280,1,25
184,213,102571,38,2,B|242:223|286:208|286:208|319:242|349:250|349:250|399:227|467:234,1,300,0|0,1:0|0:0,0:1:0:0:
277,373,103193,1,4,1:2:0:0:
269,359,103271,1,0,1:0:0:0:
261,345,103349,2,0,L|271:284,1,50,0|0,1:0|1:0,0:0:0:0:
368,87,103504,1,4,1:2:0:0:
360,101,103582,1,0,1:0:0:0:
352,115,103660,2,0,L|362:176,1,50,0|0,1:0|1:0,0:0:0:0:
494,290,103815,54,0,L|346:264,1,150.000005722046,4|0,1:2|0:0,0:0:0:0:
184,213,104048,2,0,L|331:238,1,150.000005722046,4|0,1:2|0:0,0:0:0:0:
508,182,104281,6,0,L|434:195,1,75.0000028610231,0|0,1:0|0:0,0:0:0:0:
170,321,104437,2,0,L|243:307,1,75.0000028610231,4|0,1:2|0:0,0:0:0:0:
360,164,104592,70,0,L|369:120,2,37.5000014305115,0|0|0,1:0|0:0|0:0,0:0:0:0:
318,339,104748,1,4,1:2:0:0:
275,116,104903,2,0,L|266:72,2,37.5000014305115,0|0|0,1:0|0:0|0:0,0:0:0:0:
184,212,105058,38,0,P|111:221|59:171,1,150,4|0,1:2|0:0,0:0:0:0:
59,171,105369,1,8,0:0:0:0:
101,9,105525,2,0,P|110:59|107:127,1,100
194,137,105758,1,0,0:0:0:0:
186,123,105836,2,0,L|193:69,1,50,0|0,1:0|0:0,0:0:0:0:
23,45,105991,2,0,L|29:94,1,50,8|0,0:0|0:0,0:0:0:0:
106,248,106147,1,0,0:0:0:0:
281,142,106302,5,0,1:0:0:0:
261,297,106457,1,0,1:0:0:0:
265,312,106535,1,0,0:0:0:0:
269,327,106613,1,8,0:0:0:0:
313,347,106690,1,0,0:0:0:0:
362,343,106768,1,0,0:0:0:0:
402,313,106846,1,0,0:0:0:0:
420,267,106924,6,0,L|414:218,1,50
345,39,107079,2,0,L|339:88,1,50,0|0,1:0|0:0,0:0:0:0:
230,218,107235,1,8,0:0:0:0:
180,225,107312,1,0,0:0:0:0:
131,217,107390,1,0,1:0:0:0:
86,196,107468,1,0,0:0:0:0:
49,162,107546,38,0,B|21:126|21:126|43:24,1,150,4|0,1:2|0:0,0:0:0:0:
43,24,107856,1,8,0:0:0:0:
311,79,108012,2,0,P|256:100|200:101,1,100
132,58,108245,1,0,0:0:0:0:
124,71,108323,2,0,L|131:120,1,50,0|0,1:0|0:0,0:0:0:0:
230,218,108478,1,8,0:0:0:0:
379,141,108634,5,0,0:0:0:0:
379,141,108711,1,0,0:0:0:0:
379,141,108789,1,0,1:0:0:0:
295,2,108944,2,0,L|288:51,1,50,0|0,1:0|0:0,0:0:0:0:
341,220,109100,2,0,B|391:229|391:229|434:206,1,100,8|0,0:0|0:0,0:0:0:0:
494,135,109333,1,0,0:0:0:0:
505,144,109411,6,0,L|512:193,1,50
417,355,109566,2,0,L|424:306,1,50,0|0,1:0|0:0,0:0:0:0:
290,153,109722,1,8,0:0:0:0:
290,153,109799,1,0,0:0:0:0:
290,153,109877,1,0,0:0:0:0:
188,286,110033,6,0,L|335:313,1,150,0|0,1:0|0:0,0:0:0:0:
335,313,110343,1,8,0:0:0:0:
208,168,110499,2,0,L|109:184,1,100
29,146,110732,1,0,0:0:0:0:
43,141,110810,2,0,L|92:150,1,50,0|0,1:0|0:0,0:0:0:0:
188,286,110965,2,0,L|178:335,1,50,8|0,0:0|0:0,0:0:0:0:
30,302,111121,1,0,0:0:0:0:
206,95,111276,6,0,B|215:59|215:59|204:22,1,75.0000028610231,4|0,1:2|0:0,0:0:0:0:
43,141,111432,2,0,B|34:177|34:177|45:214,1,75.0000028610231,0|0,1:0|0:0,0:0:0:0:
110,299,111587,1,8,0:0:0:0:
141,337,111664,1,0,0:0:0:0:
187,354,111742,1,0,0:0:0:0:
235,346,111820,1,0,0:0:0:0:
272,313,111898,6,0,B|281:277|281:277|270:240,1,75.0000028610231,4|0,1:2|0:0,0:0:0:0:
206,95,112053,2,0,B|197:131|197:131|207:167,1,75.0000028610231,0|0,1:0|0:0,0:0:0:0:
361,229,112209,1,8,0:0:0:0:
390,189,112286,1,0,0:0:0:0:
403,141,112364,1,0,0:0:0:0:
394,93,112442,1,0,0:0:0:0:
367,50,112520,6,0,P|317:52|268:41,1,100,4|0,1:2|0:0,0:0:0:0:
199,12,112753,1,0,0:0:0:0:
186,19,112830,1,8,0:0:0:0:
59,142,112986,2,0,L|206:166,1,150
206,166,113297,1,0,1:0:0:0:
120,68,113452,2,0,L|127:120,1,50,8|0,0:0|0:0,0:0:0:0:
220,249,113608,2,0,L|213:301,1,50
94,357,113763,5,0,1:0:0:0:
0,220,113919,1,0,1:0:0:0:
0,220,113996,1,0,0:0:0:0:
0,220,114074,1,8,0:0:0:0:
224,253,114229,2,0,P|152:276|78:279,1,150
78,280,114540,2,0,L|74:255,2,25,0|0|0,1:0|0:0|0:0,0:0:0:0:
138,195,114696,2,0,L|144:145,1,50,8|0,0:0|0:0,0:0:0:0:
276,319,114851,2,0,L|282:368,1,50
289,160,115007,6,0,P|294:111|284:62,1,100,0|0,1:0|0:0,0:0:0:0:
222,19,115240,1,0,0:0:0:0:
207,14,115318,1,8,0:0:0:0:
245,233,115473,2,0,P|317:239|367:187,1,150
387,112,115784,2,0,L|394:161,1,50,0|0,1:0|0:0,0:0:0:0:
327,323,115939,2,0,L|334:273,1,50,8|0,0:0|0:0,0:0:0:0:
171,109,116095,2,0,L|178:158,1,50
119,370,116250,5,0,1:0:0:0:
20,256,116406,1,0,1:0:0:0:
24,241,116483,1,0,0:0:0:0:
28,226,116561,2,0,L|77:219,1,50,8|0,0:0|0:0,0:0:0:0:
193,329,116716,2,0,L|242:336,1,50
409,221,116872,1,0,0:0:0:0:
405,206,116950,1,0,0:0:0:0:
401,191,117027,1,0,1:0:0:0:
397,176,117105,1,0,0:0:0:0:
394,161,117183,37,8,0:0:0:0:
347,144,117260,1,0,0:0:0:0:
298,153,117338,1,0,1:0:0:0:
261,185,117416,1,0,0:0:0:0:
244,231,117494,6,0,P|197:248|147:244,1,100,4|0,1:2|0:0,0:0:0:0:
77,218,117727,1,0,0:0:0:0:
71,203,117805,1,8,0:0:0:0:
159,25,117960,2,0,B|149:107|192:98|180:171,1,150
180,170,118271,1,0,1:0:0:0:
83,49,118426,2,0,P|77:24|81:0,1,50,8|0,0:0|0:0,0:0:0:0:
234,4,118582,2,0,P|239:28|235:52,1,50
71,203,118737,5,0,1:0:0:0:
244,231,118893,1,0,1:0:0:0:
244,231,118970,1,0,0:0:0:0:
244,231,119048,1,8,0:0:0:0:
140,101,119204,2,0,P|152:175|157:250,1,150
157,250,119514,2,0,L|148:285,2,25,0|0|0,1:0|0:0|0:0,0:0:0:0:
222,308,119670,2,0,L|236:359,1,50,8|0,0:0|0:0,0:0:0:0:
75,280,119825,2,0,L|37:317,1,50
180,170,119981,5,0,1:0:0:0:
69,50,120136,1,0,0:0:0:0:
69,50,120214,1,0,0:0:0:0:
69,50,120292,1,8,0:0:0:0:
25,127,120447,2,0,B|76:138|76:138|107:165|107:165|162:176,1,150
197,82,120758,2,0,L|147:91,1,50,0|0,1:0|0:0,0:0:0:0:
40,211,120913,2,0,L|89:201,1,50,8|0,0:0|0:0,0:0:0:0:
286,224,121069,2,0,L|236:233,1,50
31,348,121224,37,0,1:0:0:0:
150,274,121380,1,0,1:0:0:0:
163,279,121457,1,0,0:0:0:0:
176,285,121535,2,0,L|166:334,1,50,8|0,0:0|0:0,0:0:0:0:
286,224,121691,2,0,L|276:174,1,50
279,87,121846,1,0,0:0:0:0:
281,72,121924,1,0,0:0:0:0:
284,57,122001,1,0,1:0:0:0:
287,42,122079,1,0,0:0:0:0:
290,27,122157,5,8,0:0:0:0:
338,14,122234,1,0,0:0:0:0:
386,25,122312,1,0,1:0:0:0:
424,57,122390,1,0,0:0:0:0:
443,103,122468,38,0,B|457:151|457:151|360:126,1,150.000005722046,4|0,1:2|0:0,0:0:0:0:
360,126,122779,6,0,L|369:175,1,50
203,200,122934,70,0,B|189:248|189:248|285:223,1,150.000005722046,4|0,1:2|0:0,0:0:0:0:
285,222,123245,6,0,L|276:270,1,50
28,230,123400,70,0,B|14:182|14:182|110:206,1,150.000005722046,4|0,1:2|0:0,0:0:0:0:
111,206,123711,6,0,L|102:157,1,50
268,133,123867,70,0,B|282:85|282:85|185:109,1,150.000005722046,4|0,1:2|0:0,0:0:0:0:
184,109,124178,6,0,L|192:60,1,50
408,126,124333,70,0,P|436:143|418:171,1,75.0000028610231,4|0,1:2|0:0,0:0:0:0:
340,165,124489,6,0,L|291:157,1,50,0|0,1:0|0:0,0:0:0:0:
185,261,124644,70,0,P|156:278|174:306,1,75.0000028610231,4|0,1:2|0:0,0:0:0:0:
253,300,124800,6,0,L|302:292,1,50,0|0,1:0|0:0,0:0:0:0:
376,241,124955,70,0,P|379:316|345:382,2,150.000005722046,4|0|0,1:2|0:0|0:0,0:0:0:0:
142,166,125421,2,0,P|139:240|173:306,2,150.000005722046,4|0|0,1:2|0:0|0:0,0:0:0:0:
256,64,125887,2,0,L|256:214,1,150.000005722046,4|0,1:2|0:0,0:0:0:0:
256,214,126121,1,0,0:0:0:0:
256,214,126198,1,0,0:0:0:0:
50,148,126354,5,4,1:2:0:0:
50,148,126432,1,0,0:0:0:0:
50,148,126509,1,0,0:0:0:0:
94,365,126665,69,0,0:0:0:0:
94,365,126742,1,0,0:0:0:0:
94,365,126820,2,0,L|104:316,1,50,0|0,1:0|0:0,0:0:0:0:
305,292,126976,6,0,L|292:230,1,62.5,0|0,1:0|0:0,0:0:0:0:
34,221,127131,70,0,L|49:147,1,75.0000028610231,0|0,1:0|0:0,0:0:0:0:
350,118,127286,6,0,L|332:32,1,87.500000834465,0|0,1:0|0:0,0:0:0:0:
197,170,127753,5,4,1:2:0:0:
256,192,127830,12,0,132416,0:0:0:0:
