osu file format v14

[General]
AudioFilename: audio.mp3
AudioLeadIn: 0
PreviewTime: 58433
Countdown: 0
SampleSet: Soft
StackLeniency: 0.7
Mode: 2
LetterboxInBreaks: 0
WidescreenStoryboard: 0

[Editor]
DistanceSpacing: 0.9
BeatDivisor: 4
GridSize: 4
TimelineZoom: 1.7

[Metadata]
Title:My life is for you
TitleUnicode:My life is for you
Artist:HyuN feat. Yu-A
ArtistUnicode:HyuN feat. Yu-A
Creator:autofanboy
Version:Platter
Source:osu!
Tags:featured artist FA hyunesis ft. YuA Jisol 35 autumnal equinox Muse Dash PeroPeroGames STUM Anime Pop Anipop J-Core J-Pop Electronic Korean alienflybot AFB AJamez Jemzuu -Joni-
BeatmapID:2402727
BeatmapSetID:976311

[Difficulty]
HPDrainRate:5
CircleSize:3.4
OverallDifficulty:8
ApproachRate:8
SliderMultiplier:1.75
SliderTickRate:2

[Events]
//Background and Video events
0,0,"Tricolor.jpg",0,0
//Break Periods
//Storyboard Layer 0 (Background)
//Storyboard Layer 1 (Fail)
//Storyboard Layer 2 (Pass)
//Storyboard Layer 3 (Foreground)
//Storyboard Layer 4 (Overlay)
//Storyboard Sound Samples

[TimingPoints]
662,342.857142857143,4,2,1,30,1,0
1004,-100,4,2,1,36,0,0
1347,-100,4,2,1,42,0,0
1690,-100,4,2,1,10,0,0
2033,-100,4,2,1,54,0,0
2204,-100,4,2,10,46,0,0
2719,-100,4,2,10,50,0,0
2890,-100,4,2,10,54,0,0
3062,-100,4,2,10,58,0,0
3233,-100,4,2,10,62,0,0
3319,-100,4,2,10,66,0,0
3404,-100,4,2,1,70,0,0
8890,-99.009900990099,4,2,1,74,0,0
9404,-100,4,2,1,74,0,0
10262,-100,4,2,1,78,0,0
11633,-100,4,2,1,82,0,0
12319,-100,4,2,1,84,0,0
12662,-100,4,2,1,85,0,0
13004,-100,4,2,1,86,0,0
13347,-100,4,2,1,76,0,0
13519,-100,4,2,1,78,0,0
13862,-100,4,2,1,68,0,0
14033,-100,4,2,1,70,0,0
14204,-100,4,2,1,60,0,0
14376,-100,4,2,1,50,0,0
19862,-100,4,2,1,54,0,0
21233,-100,4,2,1,58,0,0
22604,-100,4,2,1,62,0,0
23290,-100,4,2,1,64,0,0
23976,-100,4,2,1,66,0,0
24319,-100,4,2,1,67,0,0
24662,-100,4,2,1,68,0,0
25004,-100,4,2,1,69,0,0
25347,-100,4,2,1,50,0,0
26033,-99.009900990099,4,2,1,50,0,0
26547,-100,4,2,1,50,0,0
30833,-100,4,2,1,54,0,0
32204,-100,4,2,1,58,0,0
33576,-100,4,2,1,62,0,0
34262,-100,4,2,1,64,0,0
34947,-100,4,2,1,66,0,0
35290,-100,4,2,1,67,0,0
35633,-100,4,2,1,68,0,0
35976,-100,4,2,1,69,0,0
36319,-100,4,2,1,50,0,0
41119,-99.009900990099,4,2,1,50,0,0
41633,-100,4,2,1,50,0,0
41804,-100,4,2,1,54,0,0
43176,-99.009900990099,4,2,1,54,0,0
43862,-100,4,2,1,54,0,0
47290,-100,4,2,1,58,0,0
47976,-99.009900990099,4,2,1,58,0,0
48662,-100,4,2,1,58,0,0
51747,-99.009900990099,4,2,1,58,0,0
52433,-100,4,2,1,58,0,0
52776,-100,4,2,1,62,0,0
53804,-100,4,2,1,64,0,0
54147,-100,4,2,1,66,0,0
54833,-100,4,2,1,68,0,0
55176,-100,4,2,1,70,0,0
55519,-100,4,2,1,72,0,0
56033,-100,4,2,1,74,0,0
56547,-100,4,2,1,76,0,0
57062,-100,4,2,1,78,0,0
57404,-100,4,2,1,80,0,0
57576,-100,4,2,1,82,0,0
57919,-100,4,2,1,84,0,0
58262,-100,4,2,1,54,0,0
58433,-100,4,2,10,46,0,0
58947,-100,4,2,10,50,0,0
59119,-100,4,2,10,54,0,0
59290,-100,4,2,10,58,0,0
59462,-100,4,2,10,62,0,0
59547,-100,4,2,10,66,0,0
59633,-100,4,2,1,80,0,1
64262,-99.009900990099,4,2,1,80,0,1
64776,-100,4,2,1,80,0,1
65119,-100,4,2,1,84,0,1
66490,-100,4,2,1,88,0,1
67004,-99.009900990099,4,2,1,88,0,1
67519,-100,4,2,1,88,0,1
67862,-100,4,2,1,92,0,1
68547,-100,4,2,1,94,0,1
69233,-100,4,2,1,96,0,1
69576,-100,4,2,1,86,0,1
69747,-100,4,2,1,88,0,1
69919,-100,4,2,1,78,0,1
70090,-100,4,2,1,80,0,1
70262,-100,4,2,1,82,0,1
70433,-100,4,2,1,85,0,1
70604,-100,4,2,1,50,0,0
70947,-100,4,2,1,80,0,1
75233,-99.009900990099,4,2,1,80,0,1
75747,-100,4,2,1,80,0,1
76090,-100,4,2,1,84,0,1
77462,-100,4,2,1,88,0,1
78833,-99.009900990099,4,2,1,92,0,1
79347,-100,4,2,1,92,0,1
79519,-100,4,2,1,94,0,1
80204,-100,4,2,1,96,0,1
80890,-100,4,2,1,98,0,1
81233,-100,4,2,1,100,0,1
81319,-100,4,2,1,92,0,1
81404,-100,4,2,1,85,0,1
81490,-100,4,2,1,78,0,1
81576,-100,4,2,1,70,0,0
91176,-100,4,2,1,72,0,0
91519,-100,4,2,1,74,0,0
91862,-100,4,2,1,76,0,0
92204,-100,4,2,1,78,0,0
92547,-100,4,2,1,70,0,0
98033,-100,4,2,1,74,0,0
99404,-100,4,2,1,78,0,0
100776,-99.009900990099,4,2,1,82,0,0
101290,-100,4,2,1,82,0,0
101462,-100,4,2,1,84,0,0
101804,-100,4,2,1,85,0,0
102147,-100,4,2,1,86,0,0
102490,-100,4,2,1,76,0,0
102662,-100,4,2,1,78,0,0
102833,-100,4,2,1,68,0,0
103004,-100,4,2,1,70,0,0
103176,-100,4,2,1,72,0,0
103347,-100,4,2,1,75,0,0
103433,-100,4,2,1,78,0,0
103519,-100,4,2,1,80,0,0
104204,-100,4,2,1,76,0,0
104890,-100,4,2,1,72,0,0
105233,-100,4,2,1,68,0,0
105576,-100,4,2,1,64,0,0
105919,-100,4,2,1,60,0,0
106262,-100,4,2,1,80,0,1
106433,-100,4,2,1,70,0,0

[Colours]
Combo1 : 27,197,196
Combo2 : 222,189,196
Combo3 : 208,101,150
Combo4 : 52,78,97

[HitObjects]
256,192,662,12,0,1690,0:0:0:0:
212,340,2033,5,4,0:0:0:0:
124,304,2204,1,0,0:0:0:0:
120,260,2290,1,0,0:0:0:0:
116,216,2376,1,0,0:0:0:0:
204,184,2547,1,0,0:0:0:0:
368,216,2719,2,0,L|376:128,1,87.5,2|2,0:0|0:0,0:0:0:0:
288,96,3062,1,2,0:0:0:0:
376,64,3233,1,2,0:0:0:0:
140,28,3404,6,0,P|88:92|140:152,1,175,6|8,0:0|0:0,0:0:0:0:
292,184,4090,2,0,L|300:272,1,87.5,2|0,0:0|0:0,0:0:0:0:
212,304,4433,1,8,0:0:0:0:
376,340,4604,6,0,P|428:276|376:216,1,175,0|0,0:0|0:0,0:0:0:0:
288,180,5119,1,8,0:0:0:0:
200,144,5290,1,0,0:0:0:0:
288,180,5462,2,0,L|296:92,1,87.5,2|0,0:0|0:0,0:0:0:0:
132,128,5804,2,0,L|124:40,1,87.5,8|0,0:0|0:0,0:0:0:0:
360,4,6147,6,0,P|441:30|476:108,1,175,2|8,0:0|0:0,0:0:0:0:
324,140,6833,2,0,L|236:132,2,87.5,2|0|8,0:0|0:0|0:0,0:0:0:0:
160,176,7347,6,0,P|79:202|44:280,1,175
132,312,7862,1,8,0:0:0:0:
220,348,8033,1,0,0:0:0:0:
132,312,8204,2,0,L|124:224,1,87.5,2|0,0:0|0:0,0:0:0:0:
288,180,8547,2,0,L|296:92,1,87.5,8|0,0:0|0:0,0:0:0:0:
60,136,8890,6,0,L|236:120,1,176.749996493912,6|8,0:0|0:0,0:0:0:0:
148,84,9404,1,0,0:0:0:0:
312,48,9576,1,2,0:0:0:0:
372,96,9747,1,0,0:0:0:0:
392,172,9919,1,8,0:0:0:0:
372,248,10090,1,0,0:0:0:0:
136,284,10262,6,0,L|128:196,1,87.5,6|0,0:0|0:0,0:0:0:0:
216,164,10604,1,8,0:0:0:0:
128,128,10776,1,0,0:0:0:0:
40,92,10947,2,0,L|128:84,1,87.5,2|0,0:0|0:0,0:0:0:0:
292,48,11290,2,0,L|380:40,1,87.5,8|0,0:0|0:0,0:0:0:0:
144,4,11633,6,0,P|63:30|28:108,1,175,6|8,0:0|0:0,0:0:0:0:
116,140,12147,1,0,0:0:0:0:
352,176,12319,2,0,L|360:264,1,87.5,6|0,0:0|0:0,0:0:0:0:
272,296,12662,2,0,L|184:304,2,87.5,12|0|4,0:0|0:0|0:0,0:0:0:0:
36,340,13176,5,4,0:0:0:0:
188,272,13519,1,4,0:0:0:0:
36,204,13862,1,4,0:0:0:0:
200,168,14033,2,0,L|208:80,1,87.5,4|4,0:0|0:0,0:0:0:0:
164,76,14290,1,0,0:0:0:0:
120,72,14376,1,6,0:0:0:0:
356,36,14547,6,0,L|444:44,2,87.5,0|8|0,0:0|0:0|0:0,0:0:0:0:
268,72,15062,2,0,P|216:136|268:196,1,175,2|8,0:0|0:0,0:0:0:0:
356,228,15576,1,0,0:0:0:0:
192,264,15747,6,0,L|184:352,1,87.5,2|0,0:0|0:0,0:0:0:0:
272,316,16090,1,8,0:0:0:0:
184,280,16262,1,0,0:0:0:0:
272,316,16433,1,2,0:0:0:0:
332,268,16604,1,0,0:0:0:0:
352,192,16776,1,8,0:0:0:0:
332,116,16947,1,0,0:0:0:0:
272,68,17119,1,2,0:0:0:0:
36,32,17290,6,0,L|28:120,1,87.5,0|8,0:0|0:0,0:0:0:0:
116,152,17633,1,0,0:0:0:0:
204,188,17804,2,0,P|256:252|204:312,1,175,2|8,0:0|0:0,0:0:0:0:
116,348,18319,1,0,0:0:0:0:
280,312,18490,6,0,L|288:224,1,87.5,2|0,0:0|0:0,0:0:0:0:
200,188,18833,1,8,0:0:0:0:
112,156,19004,1,0,0:0:0:0:
200,188,19176,1,2,0:0:0:0:
112,156,19347,1,0,0:0:0:0:
24,120,19519,2,0,L|16:32,1,87.5,8|0,0:0|0:0,0:0:0:0:
256,68,19862,6,0,L|344:76,1,87.5,6|0,0:0|0:0,0:0:0:0:
432,108,20204,2,0,L|344:116,1,87.5,8|0,0:0|0:0,0:0:0:0:
256,152,20547,2,0,L|248:240,1,87.5,2|0,0:0|0:0,0:0:0:0:
292,244,20804,1,0,0:0:0:0:
412,280,20890,2,0,L|420:368,1,87.5,8|0,0:0|0:0,0:0:0:0:
180,332,21233,6,0,L|172:244,1,87.5,6|0,0:0|0:0,0:0:0:0:
260,208,21576,2,0,L|348:200,1,87.5,8|0,0:0|0:0,0:0:0:0:
260,168,21919,2,0,L|172:160,1,87.5,2|0,0:0|0:0,0:0:0:0:
168,116,22176,1,0,0:0:0:0:
288,80,22262,2,0,L|376:72,1,87.5,8|0,0:0|0:0,0:0:0:0:
140,36,22604,5,6,0:0:0:0:
52,72,22776,1,0,0:0:0:0:
48,116,22862,1,0,0:0:0:0:
44,160,22947,1,8,0:0:0:0:
132,196,23119,1,0,0:0:0:0:
368,160,23290,5,6,0:0:0:0:
456,196,23461,1,0,0:0:0:0:
460,240,23547,1,0,0:0:0:0:
464,284,23632,1,8,0:0:0:0:
376,320,23804,1,0,0:0:0:0:
140,352,23976,6,0,L|132:264,1,87.5,6|0,0:0|0:0,0:0:0:0:
296,232,24319,2,0,L|304:144,1,87.5,12|0,0:0|0:0,0:0:0:0:
64,108,24662,6,0,L|56:20,1,87.5,6|0,0:0|0:0,0:0:0:0:
100,24,24919,1,0,0:0:0:0:
144,28,25004,1,12,0:0:0:0:
56,64,25176,1,2,0:0:0:0:
292,96,25347,1,6,0:0:0:0:
380,128,25519,6,0,L|388:216,1,87.5,0|8,0:0|0:0,0:0:0:0:
300,256,25862,1,0,0:0:0:0:
388,292,26033,2,0,L|212:308,1,176.749996493912,2|8,0:0|0:0,0:0:0:0:
300,344,26547,1,0,0:0:0:0:
464,312,26719,6,0,L|472:224,1,87.5,2|0,0:0|0:0,0:0:0:0:
384,260,27062,1,8,0:0:0:0:
472,300,27233,1,0,0:0:0:0:
384,260,27404,1,2,0:0:0:0:
324,212,27575,1,0,0:0:0:0:
304,136,27747,1,8,0:0:0:0:
324,60,27918,1,0,0:0:0:0:
384,12,28090,1,2,0:0:0:0:
144,48,28262,6,0,L|56:56,2,87.5,0|8|0,0:0|0:0|0:0,0:0:0:0:
232,84,28776,2,0,P|284:148|232:208,1,175,2|8,0:0|0:0,0:0:0:0:
144,244,29290,1,0,0:0:0:0:
308,280,29462,6,0,L|316:368,1,87.5,2|0,0:0|0:0,0:0:0:0:
228,332,29804,1,8,0:0:0:0:
316,296,29976,1,0,0:0:0:0:
404,260,30147,1,2,0:0:0:0:
316,224,30319,1,0,0:0:0:0:
404,260,30490,2,0,L|412:172,1,87.5,8|0,0:0|0:0,0:0:0:0:
176,140,30833,6,0,L|88:132,1,87.5,6|0,0:0|0:0,0:0:0:0:
176,96,31176,2,0,L|264:88,1,87.5,8|0,0:0|0:0,0:0:0:0:
352,124,31519,2,0,L|360:212,1,87.5,2|0,0:0|0:0,0:0:0:0:
316,216,31776,1,0,0:0:0:0:
196,252,31862,2,0,L|188:340,1,87.5,8|0,0:0|0:0,0:0:0:0:
424,372,32204,6,0,L|432:284,1,87.5,6|0,0:0|0:0,0:0:0:0:
344,248,32547,2,0,L|256:240,1,87.5,8|0,0:0|0:0,0:0:0:0:
168,204,32890,2,0,L|256:196,1,87.5,2|0,0:0|0:0,0:0:0:0:
212,192,33147,1,0,0:0:0:0:
92,160,33233,2,0,L|84:72,1,87.5,8|0,0:0|0:0,0:0:0:0:
320,40,33576,5,6,0:0:0:0:
408,76,33748,1,0,0:0:0:0:
364,80,33833,1,0,0:0:0:0:
320,84,33919,1,8,0:0:0:0:
408,120,34090,1,0,0:0:0:0:
164,156,34262,5,6,0:0:0:0:
252,192,34433,1,0,0:0:0:0:
256,236,34519,1,0,0:0:0:0:
260,280,34604,1,8,0:0:0:0:
348,316,34776,1,0,0:0:0:0:
104,352,34947,6,0,L|96:264,1,87.5,6|0,0:0|0:0,0:0:0:0:
260,232,35290,2,0,L|172:224,1,87.5,12|0,0:0|0:0,0:0:0:0:
408,188,35633,6,0,L|416:100,1,87.5,6|0,0:0|0:0,0:0:0:0:
372,96,35890,1,0,0:0:0:0:
328,92,35976,1,12,0:0:0:0:
416,56,36147,1,2,0:0:0:0:
180,24,36319,6,0,P|128:88|180:148,1,175,6|0,0:0|0:0,0:0:0:0:
332,184,37004,1,8,0:0:0:0:
180,220,37347,1,0,0:0:0:0:
448,148,37690,6,0,P|404:232|332:252,1,175,2|0,0:0|0:0,0:0:0:0:
180,220,38376,2,0,P|99:246|64:324,1,175,8|0,0:0|0:0,0:0:0:0:
331,360,39062,6,0,P|444:248|332:140,1,350,2|8,0:0|0:0,0:0:0:0:
180,176,40090,1,0,0:0:0:0:
172,88,40262,1,0,0:0:0:0:
164,0,40433,1,2,0:0:0:0:
316,36,40776,5,0,0:0:0:0:
48,72,41119,2,0,L|32:248,1,176.749996493912,8|0,0:0|0:0,0:0:0:0:
120,280,41633,1,0,0:0:0:0:
356,316,41804,6,0,P|437:290|472:212,1,175,6|0,0:0|0:0,0:0:0:0:
396,196,42319,1,0,0:0:0:0:
320,180,42490,1,8,0:0:0:0:
472,144,42833,1,0,0:0:0:0:
204,212,43176,6,0,L|188:36,1,176.749996493912,2|0,0:0|0:0,0:0:0:0:
340,72,43862,1,8,0:0:0:0:
492,108,44204,1,0,0:0:0:0:
224,144,44547,6,0,L|216:232,1,87.5,2|0,0:0|0:0,0:0:0:0:
304,264,44890,2,0,L|312:352,1,87.5,0|0,0:0|0:0,0:0:0:0:
148,316,45233,1,8,0:0:0:0:
88,268,45405,1,0,0:0:0:0:
68,192,45576,1,0,0:0:0:0:
88,116,45748,1,0,0:0:0:0:
148,68,45919,2,0,L|236:60,1,87.5,2|0,0:0|0:0,0:0:0:0:
400,96,46262,6,0,L|408:184,1,87.5,0|0,0:0|0:0,0:0:0:0:
320,148,46604,2,0,L|320:236,1,87.5,8|0,0:0|0:0,0:0:0:0:
232,200,46947,2,0,L|224:288,1,87.5,2|2,0:0|0:0,0:0:0:0:
460,320,47290,6,0,P|512:256|460:196,1,175,6|8,0:0|0:0,0:0:0:0:
308,160,47976,2,0,L|176:148,2,132.562497370434,2|0|0,0:0|0:0|0:0,0:0:0:0:
144,196,48662,6,0,P|92:132|144:72,1,175,2|8,0:0|0:0,0:0:0:0:
296,40,49347,1,2,0:0:0:0:
144,4,49690,1,8,0:0:0:0:
412,72,50033,6,0,P|368:156|296:176,1,175,2|8,0:0|0:0,0:0:0:0:
144,212,50719,1,2,0:0:0:0:
412,140,51062,1,8,0:0:0:0:
420,228,51234,1,0,0:0:0:0:
428,316,51405,1,2,0:0:0:0:
276,280,51747,6,0,L|452:264,1,176.749996493912,8|2,0:0|0:0,0:0:0:0:
184,228,52433,2,0,L|96:220,1,87.5,8|0,0:0|0:0,0:0:0:0:
332,360,52776,5,6,0:0:0:0:
392,312,52947,1,0,0:0:0:0:
412,236,53119,1,8,0:0:0:0:
392,160,53290,1,0,0:0:0:0:
332,112,53462,2,0,L|244:104,1,87.5,2|0,0:0|0:0,0:0:0:0:
408,68,53804,2,0,L|416:156,1,87.5,12|0,0:0|0:0,0:0:0:0:
180,120,54147,5,6,0:0:0:0:
120,168,54318,1,0,0:0:0:0:
100,244,54490,1,8,0:0:0:0:
120,320,54661,1,0,0:0:0:0:
284,352,54833,2,0,L|292:264,1,87.5,6|0,0:0|0:0,0:0:0:0:
204,232,55176,1,12,0:0:0:0:
292,196,55347,1,0,0:0:0:0:
56,268,55519,6,0,L|48:180,1,87.5,6|0,0:0|0:0,0:0:0:0:
136,144,55862,1,8,0:0:0:0:
300,108,56033,1,4,0:0:0:0:
212,144,56204,2,0,L|204:56,1,87.5,2|0,0:0|0:0,0:0:0:0:
368,24,56547,2,0,L|456:32,2,87.5,12|0|2,0:0|0:0|0:0,0:0:0:0:
128,92,57062,6,0,P|76:156|128:216,1,175,4|4,0:0|0:0,0:0:0:0:
292,288,57576,2,0,L|300:200,1,87.5,6|0,0:0|0:0,0:0:0:0:
212,172,57919,2,0,L|204:84,1,87.5,8|0,0:0|0:0,0:0:0:0:
444,48,58262,6,0,L|452:136,1,87.5,4|0,0:0|0:0,0:0:0:0:
408,140,58519,1,0,0:0:0:0:
364,144,58604,1,0,0:0:0:0:
452,176,58776,1,0,0:0:0:0:
288,212,58947,2,0,L|200:220,1,87.5,2|2,0:0|0:0,0:0:0:0:
288,256,59290,1,2,0:0:0:0:
376,292,59462,1,2,0:0:0:0:
140,328,59633,6,0,P|88:264|140:204,1,175,6|8,0:0|0:0,0:0:0:0:
292,168,60319,2,0,L|300:80,1,87.5,2|0,0:0|0:0,0:0:0:0:
212,48,60662,1,8,0:0:0:0:
300,12,60833,1,0,0:0:0:0:
464,48,61004,6,0,L|472:136,1,87.5,2|0,0:0|0:0,0:0:0:0:
384,168,61347,1,8,0:0:0:0:
296,204,61519,2,0,P|244:268|296:328,1,175,0|0,0:0|0:0,0:0:0:0:
464,364,62033,2,0,L|376:372,1,87.5,8|0,0:0|0:0,0:0:0:0:
140,336,62376,6,0,P|59:310|24:232,1,175,2|8,0:0|0:0,0:0:0:0:
176,200,63062,2,0,L|264:192,1,87.5,2|0,0:0|0:0,0:0:0:0:
176,156,63404,2,0,L|88:148,1,87.5,8|0,0:0|0:0,0:0:0:0:
252,256,63747,6,0,L|260:168,1,87.5,2|0,0:0|0:0,0:0:0:0:
172,132,64090,1,8,0:0:0:0:
260,96,64262,2,0,L|436:80,1,176.749996493912,0|0,0:0|0:0,0:0:0:0:
272,44,64776,2,0,L|184:36,1,87.5,8|0,0:0|0:0,0:0:0:0:
420,108,65119,6,0,P|472:172|420:232,1,175,6|8,0:0|0:0,0:0:0:0:
332,268,65633,2,0,L|244:276,2,87.5,0|2|0,0:0|0:0|0:0,0:0:0:0:
420,304,66147,2,0,L|428:216,1,87.5,8|0,0:0|0:0,0:0:0:0:
192,180,66490,6,0,L|184:92,1,87.5,6|0,0:0|0:0,0:0:0:0:
272,56,66833,1,8,0:0:0:0:
184,20,67004,2,0,L|8:36,1,176.749996493912,0|0,0:0|0:0,0:0:0:0:
96,72,67519,1,8,0:0:0:0:
8,108,67690,1,0,0:0:0:0:
244,144,67862,6,0,P|325:170|360:248,1,175,6|8,0:0|0:0,0:0:0:0:
272,280,68376,1,0,0:0:0:0:
108,316,68547,2,0,P|152:232|224:212,1,175,6|8,0:0|0:0,0:0:0:0:
136,176,69062,2,0,L|224:168,1,87.5,0|6,0:0|0:0,0:0:0:0:
460,132,69404,5,4,0:0:0:0:
308,96,69747,1,4,0:0:0:0:
460,60,70090,1,4,0:0:0:0:
480,136,70261,1,4,0:0:0:0:
460,212,70433,1,6,0:0:0:0:
432,240,70519,1,2,0:0:0:0:
400,260,70604,1,2,0:0:0:0:
132,292,70947,6,0,P|176:208|248:188,1,175,4|2,0:0|0:0,0:0:0:0:
336,152,71462,2,0,L|344:64,1,87.5,0|8,0:0|0:0,0:0:0:0:
256,28,71804,1,0,0:0:0:0:
92,64,71976,6,0,L|84:152,1,87.5,2|0,0:0|0:0,0:0:0:0:
172,184,72319,1,8,0:0:0:0:
260,220,72490,2,0,P|312:284|260:344,1,175,0|0,0:0|0:0,0:0:0:0:
96,308,73004,2,0,L|184:300,1,87.5,8|0,0:0|0:0,0:0:0:0:
420,264,73347,6,0,P|376:180|304:160,1,175,2|8,0:0|0:0,0:0:0:0:
128,224,74033,1,2,0:0:0:0:
216,192,74204,1,0,0:0:0:0:
128,156,74376,2,0,L|120:68,1,87.5,8|0,0:0|0:0,0:0:0:0:
284,108,74719,6,0,L|292:196,1,87.5,2|0,0:0|0:0,0:0:0:0:
204,232,75062,1,8,0:0:0:0:
292,268,75233,2,0,L|468:284,1,176.749996493912,0|0,0:0|0:0,0:0:0:0:
380,320,75747,1,8,0:0:0:0:
468,356,75919,1,0,0:0:0:0:
232,320,76090,6,0,L|224:232,1,87.5,6|0,0:0|0:0,0:0:0:0:
312,268,76433,1,8,0:0:0:0:
148,304,76604,1,0,0:0:0:0:
88,256,76775,1,2,0:0:0:0:
68,180,76947,1,0,0:0:0:0:
88,104,77118,1,8,0:0:0:0:
148,56,77290,1,0,0:0:0:0:
384,24,77462,5,6,0:0:0:0:
296,56,77633,1,0,0:0:0:0:
208,88,77804,1,8,0:0:0:0:
372,120,77976,1,0,0:0:0:0:
432,168,78147,1,2,0:0:0:0:
452,244,78319,1,0,0:0:0:0:
432,320,78490,1,8,0:0:0:0:
372,368,78662,1,0,0:0:0:0:
136,336,78833,6,0,L|120:160,1,176.749996493912,6|8,0:0|0:0,0:0:0:0:
284,124,79347,1,0,0:0:0:0:
196,92,79519,2,0,L|188:180,1,87.5,6|0,0:0|0:0,0:0:0:0:
352,212,79862,2,0,L|440:220,1,87.5,12|2,0:0|0:0,0:0:0:0:
204,256,80204,6,0,P|123:282|88:360,1,175,6|8,0:0|0:0,0:0:0:0:
176,324,80719,1,0,0:0:0:0:
340,288,80890,6,0,L|348:200,1,87.5,6|4,0:0|0:0,0:0:0:0:
184,164,81233,1,12,0:0:0:0:
180,120,81319,1,4,0:0:0:0:
176,76,81404,1,4,0:0:0:0:
412,40,81576,6,0,P|464:104|412:164,1,175,6|8,0:0|0:0,0:0:0:0:
260,200,82262,2,0,L|252:288,1,87.5,2|0,0:0|0:0,0:0:0:0:
340,320,82604,1,8,0:0:0:0:
176,356,82776,6,0,P|95:330|60:252,1,175,0|0,0:0|0:0,0:0:0:0:
148,216,83290,1,8,0:0:0:0:
236,180,83462,1,0,0:0:0:0:
324,216,83633,2,0,L|332:128,1,87.5,2|0,0:0|0:0,0:0:0:0:
168,96,83976,2,0,L|160:8,1,87.5,8|0,0:0|0:0,0:0:0:0:
396,44,84319,6,0,P|352:128|280:148,1,175,2|8,0:0|0:0,0:0:0:0:
128,184,85004,2,0,L|40:192,2,87.5,2|0|8,0:0|0:0|0:0,0:0:0:0:
292,220,85519,6,0,P|344:284|292:344,1,175,0|0,0:0|0:0,0:0:0:0:
204,308,86033,1,8,0:0:0:0:
292,272,86204,1,0,0:0:0:0:
204,236,86376,2,0,L|116:228,1,87.5,2|0,0:0|0:0,0:0:0:0:
280,192,86719,2,0,L|368:184,1,87.5,8|0,0:0|0:0,0:0:0:0:
128,148,87062,6,0,P|76:84|128:24,1,175,2|8,0:0|0:0,0:0:0:0:
216,60,87576,1,0,0:0:0:0:
52,96,87747,1,2,0:0:0:0:
32,172,87918,1,0,0:0:0:0:
52,248,88090,1,8,0:0:0:0:
112,296,88261,1,0,0:0:0:0:
348,332,88433,6,0,L|356:244,1,87.5,2|0,0:0|0:0,0:0:0:0:
268,208,88776,1,8,0:0:0:0:
180,172,88947,1,0,0:0:0:0:
268,208,89119,2,0,L|276:120,1,87.5,2|0,0:0|0:0,0:0:0:0:
112,156,89462,2,0,L|104:68,1,87.5,8|0,0:0|0:0,0:0:0:0:
340,36,89804,6,0,P|392:100|340:160,1,175,2|8,0:0|0:0,0:0:0:0:
252,124,90318,1,0,0:0:0:0:
416,88,90490,1,2,0:0:0:0:
436,164,90661,1,0,0:0:0:0:
416,240,90833,1,8,0:0:0:0:
356,288,91004,1,0,0:0:0:0:
120,324,91176,6,0,L|112:236,1,87.5,2|0,0:0|0:0,0:0:0:0:
200,200,91519,2,0,L|288:192,1,87.5,8|0,0:0|0:0,0:0:0:0:
200,156,91862,2,0,L|112:148,1,87.5,2|0,0:0|0:0,0:0:0:0:
348,76,92204,2,0,L|436:68,1,87.5,8|2,0:0|0:0,0:0:0:0:
168,112,92547,6,0,P|87:138|52:216,1,175,6|8,0:0|0:0,0:0:0:0:
204,248,93233,2,0,L|292:256,2,87.5,2|0|8,0:0|0:0|0:0,0:0:0:0:
368,292,93747,6,0,P|449:266|484:188,1,175,0|0,0:0|0:0,0:0:0:0:
396,152,94262,1,8,0:0:0:0:
308,116,94433,1,0,0:0:0:0:
220,152,94604,2,0,L|212:64,1,87.5,2|0,0:0|0:0,0:0:0:0:
376,100,94947,2,0,L|384:12,1,87.5,8|0,0:0|0:0,0:0:0:0:
148,48,95290,6,0,P|96:112|148:172,1,175,2|8,0:0|0:0,0:0:0:0:
300,208,95976,1,2,0:0:0:0:
212,244,96147,1,0,0:0:0:0:
124,280,96319,1,8,0:0:0:0:
288,316,96490,6,0,P|340:252|288:192,1,175,0|0,0:0|0:0,0:0:0:0:
200,156,97004,2,0,L|192:68,1,87.5,8|0,0:0|0:0,0:0:0:0:
280,32,97347,2,0,L|368:40,1,87.5,2|0,0:0|0:0,0:0:0:0:
204,108,97690,2,0,L|116:116,1,87.5,8|0,0:0|0:0,0:0:0:0:
352,184,98033,6,0,P|433:210|468:288,1,175,6|8,0:0|0:0,0:0:0:0:
380,320,98547,1,0,0:0:0:0:
216,356,98719,2,0,L|208:268,1,87.5,2|0,0:0|0:0,0:0:0:0:
296,232,99062,2,0,L|304:144,1,87.5,8|0,0:0|0:0,0:0:0:0:
68,180,99404,6,0,P|112:96|184:76,1,175,6|8,0:0|0:0,0:0:0:0:
96,40,99919,1,0,0:0:0:0:
260,4,100090,2,0,L|268:92,1,87.5,2|0,0:0|0:0,0:0:0:0:
180,124,100433,2,0,L|172:212,1,87.5,8|0,0:0|0:0,0:0:0:0:
408,248,100776,6,0,L|232:264,1,176.749996493912,6|8,0:0|0:0,0:0:0:0:
320,300,101290,1,0,0:0:0:0:
484,336,101462,2,0,L|492:248,1,87.5,6|0,0:0|0:0,0:0:0:0:
404,212,101804,2,0,L|396:124,1,87.5,12|0,0:0|0:0,0:0:0:0:
484,88,102147,1,4,0:0:0:0:
216,52,102319,5,4,0:0:0:0:
64,88,102662,1,4,0:0:0:0:
216,124,103004,1,4,0:0:0:0:
52,160,103176,2,0,L|140:168,1,87.5,4|4,0:0|0:0,0:0:0:0:
376,204,103519,5,4,0:0:0:0:
256,192,103862,12,4,106262,0:0:0:0:
