osu file format v14

[General]
AudioFilename: audio.mp3
AudioLeadIn: 0
PreviewTime: 58433
Countdown: 0
SampleSet: Soft
StackLeniency: 0.7
Mode: 2
LetterboxInBreaks: 0
WidescreenStoryboard: 0

[Editor]
DistanceSpacing: 0.7
BeatDivisor: 4
GridSize: 4
TimelineZoom: 1.7

[Metadata]
Title:My life is for you
TitleUnicode:My life is for you
Artist:HyuN feat. Yu-A
ArtistUnicode:HyuN feat. Yu-A
Creator:autofanboy
Version:Devotion
Source:osu!
Tags:featured artist FA hyunesis ft. YuA Jisol 35 autumnal equinox Muse Dash PeroPeroGames STUM Anime Pop Anipop J-Core J-Pop Electronic Korean alienflybot AFB AJamez Jemzuu -Joni-
BeatmapID:2043227
BeatmapSetID:976311

[Difficulty]
HPDrainRate:7
CircleSize:3.8
OverallDifficulty:9.7
ApproachRate:9.7
SliderMultiplier:2.35
SliderTickRate:2

[Events]
//Background and Video events
0,0,"Tricolor.jpg",0,0
//Break Periods
//Storyboard Layer 0 (Background)
//Storyboard Layer 1 (Fail)
//Storyboard Layer 2 (Pass)
//Storyboard Layer 3 (Foreground)
//Storyboard Layer 4 (Overlay)
//Storyboard Sound Samples

[TimingPoints]
662,342.857142857143,4,2,1,30,1,0
1004,-100,4,2,1,36,0,0
1347,-100,4,2,1,42,0,0
1690,-100,4,2,1,48,0,0
2033,-100,4,2,1,54,0,0
2204,-100,4,2,10,46,0,0
2719,-100,4,2,10,50,0,0
2890,-100,4,2,10,54,0,0
3062,-100,4,2,10,58,0,0
3233,-100,4,2,10,62,0,0
3319,-100,4,2,10,66,0,0
3404,-100,4,2,1,70,0,0
8890,-100,4,2,1,74,0,0
10262,-100,4,2,1,78,0,0
11633,-100,4,2,1,82,0,0
12319,-100,4,2,1,84,0,0
12662,-100,4,2,1,85,0,0
13004,-100,4,2,1,86,0,0
13347,-100,4,2,1,76,0,0
13519,-100,4,2,1,78,0,0
13862,-100,4,2,1,68,0,0
14033,-100,4,2,1,70,0,0
14204,-100,4,2,1,60,0,0
14376,-100,4,2,1,50,0,0
19862,-100,4,2,1,54,0,0
21233,-100,4,2,1,58,0,0
22604,-100,4,2,1,62,0,0
23290,-100,4,2,1,64,0,0
23976,-100,4,2,1,66,0,0
24319,-100,4,2,1,67,0,0
24662,-100,4,2,1,68,0,0
25004,-100,4,2,1,69,0,0
25347,-100,4,2,1,50,0,0
30833,-100,4,2,1,54,0,0
32204,-100,4,2,1,58,0,0
33576,-100,4,2,1,62,0,0
34262,-100,4,2,1,64,0,0
34947,-100,4,2,1,66,0,0
35290,-100,4,2,1,67,0,0
35633,-100,4,2,1,68,0,0
35976,-100,4,2,1,69,0,0
36319,-100,4,2,1,50,0,0
41804,-100,4,2,1,54,0,0
47290,-100,4,2,1,58,0,0
52776,-100,4,2,1,62,0,0
53804,-100,4,2,1,64,0,0
54147,-100,4,2,1,66,0,0
54833,-100,4,2,1,68,0,0
55176,-100,4,2,1,70,0,0
55519,-100,4,2,1,72,0,0
56033,-100,4,2,1,74,0,0
56547,-100,4,2,1,76,0,0
57062,-100,4,2,1,78,0,0
57404,-100,4,2,1,80,0,0
57576,-100,4,2,1,82,0,0
57919,-100,4,2,1,84,0,0
58262,-100,4,2,1,54,0,0
58433,-100,4,2,10,46,0,0
58947,-100,4,2,10,50,0,0
59119,-100,4,2,10,54,0,0
59290,-100,4,2,10,58,0,0
59462,-100,4,2,10,62,0,0
59547,-100,4,2,10,66,0,0
59633,-100,4,2,1,80,0,1
65119,-100,4,2,1,84,0,1
66490,-100,4,2,1,88,0,1
67862,-100,4,2,1,92,0,1
68547,-100,4,2,1,94,0,1
69233,-100,4,2,1,96,0,1
69576,-100,4,2,1,86,0,1
69747,-100,4,2,1,88,0,1
69919,-100,4,2,1,78,0,1
70090,-100,4,2,1,80,0,1
70262,-100,4,2,1,82,0,1
70433,-100,4,2,1,85,0,1
70604,-100,4,2,1,50,0,0
70947,-43.4782608695652,4,2,1,80,0,1
71119,-100,4,2,1,80,0,1
76090,-100,4,2,1,84,0,1
77462,-100,4,2,1,88,0,1
78833,-100,4,2,1,92,0,1
79519,-100,4,2,1,94,0,1
80204,-100,4,2,1,96,0,1
80890,-100,4,2,1,98,0,1
81233,-100,4,2,1,100,0,1
81319,-100,4,2,1,92,0,1
81404,-100,4,2,1,85,0,1
81490,-100,4,2,1,78,0,1
81576,-100,4,2,1,70,0,0
91176,-100,4,2,1,72,0,0
91519,-100,4,2,1,74,0,0
91862,-100,4,2,1,76,0,0
92204,-100,4,2,1,78,0,0
92547,-100,4,2,1,70,0,0
98033,-100,4,2,1,74,0,0
99404,-100,4,2,1,78,0,0
100776,-100,4,2,1,82,0,0
101462,-100,4,2,1,84,0,0
101804,-100,4,2,1,85,0,0
102147,-100,4,2,1,86,0,0
102490,-100,4,2,1,76,0,0
102662,-100,4,2,1,78,0,0
102833,-100,4,2,1,68,0,0
103004,-100,4,2,1,70,0,0
103176,-100,4,2,1,72,0,0
103347,-100,4,2,1,75,0,0
103433,-100,4,2,1,78,0,0
103519,-100,4,2,1,80,0,0
104204,-100,4,2,1,76,0,0
104890,-100,4,2,1,72,0,0
105233,-100,4,2,1,68,0,0
105576,-100,4,2,1,64,0,0
105919,-100,4,2,1,60,0,0
106262,-100,4,2,1,80,0,1
106433,-100,4,2,1,70,0,0

[Colours]
Combo1 : 27,197,196
Combo2 : 222,189,196
Combo3 : 208,101,150
Combo4 : 52,78,97

[HitObjects]
256,192,662,12,0,1862,0:0:0:0:
124,332,2033,5,4,0:0:0:0:
388,300,2204,1,0,0:0:0:0:
436,264,2290,1,0,0:0:0:0:
456,208,2376,1,0,0:0:0:0:
436,152,2461,1,0,0:0:0:0:
388,116,2547,2,0,L|329:108,1,58.75
124,332,2719,6,0,L|108:276,1,58.75,2|0,0:0|0:0,0:0:0:0:
256,220,2890,2,0,L|256:161,1,58.75,2|0,0:0|0:0,0:0:0:0:
404,108,3062,2,0,L|420:52,1,58.75,2|0,0:0|0:0,0:0:0:0:
256,20,3233,1,2,0:0:0:0:
92,52,3319,1,2,0:0:0:0:
256,220,3404,6,0,P|316:268|255:315,1,176.25,6|0,0:0|0:0,0:0:0:0:
156,352,3747,2,0,L|140:236,1,117.5,8|0,0:0|0:0,0:0:0:0:
276,168,4090,2,0,L|334:160,1,58.75,2|0,0:0|0:0,0:0:0:0:
236,128,4262,2,0,L|119:112,2,117.5,0|8|0,0:0|0:0|0:0,0:0:0:0:
60,192,4776,1,2,0:0:0:0:
296,256,4947,6,0,L|303:314,1,58.75
216,348,5119,2,0,L|208:289,1,58.75,8|0,0:0|0:0,0:0:0:0:
372,224,5290,2,0,L|430:216,1,58.75
140,160,5462,5,2,0:0:0:0:
72,152,5547,1,0,0:0:0:0:
140,124,5633,1,0,0:0:0:0:
72,116,5719,1,0,0:0:0:0:
248,92,5804,2,0,L|255:33,1,58.75,8|0,0:0|0:0,0:0:0:0:
32,0,5976,2,0,L|24:58,1,58.75
272,192,6147,6,0,L|96:208,1,176.25,2|0,0:0|0:0,0:0:0:0:
196,244,6490,2,0,L|313:251,1,117.5,8|0,0:0|0:0,0:0:0:0:
472,320,6833,2,0,L|479:261,1,58.75,2|0,0:0|0:0,0:0:0:0:
372,228,7004,2,0,L|356:112,1,117.5,0|8,0:0|0:0,0:0:0:0:
480,80,7347,1,0,0:0:0:0:
304,48,7519,1,2,0:0:0:0:
32,80,7690,6,0,L|39:138,1,58.75
128,172,7862,2,0,L|135:230,1,58.75,8|0,0:0|0:0,0:0:0:0:
336,264,8033,2,0,L|394:271,1,58.75
204,120,8204,6,0,L|211:178,1,58.75,2|0,0:0|0:0,0:0:0:0:
300,212,8376,2,0,L|307:270,1,58.75
116,304,8547,2,0,L|174:311,1,58.75,8|0,0:0|0:0,0:0:0:0:
396,344,8719,2,0,L|338:351,1,58.75
84,384,8890,5,6,0:0:0:0:
36,348,8976,1,0,0:0:0:0:
16,292,9062,1,0,0:0:0:0:
36,236,9147,1,0,0:0:0:0:
184,200,9233,2,0,L|199:143,3,58.75,8|0|0|0,0:0|0:0|0:0|0:0,0:0:0:0:
348,104,9576,5,2,0:0:0:0:
396,140,9662,1,0,0:0:0:0:
416,196,9748,1,0,0:0:0:0:
396,252,9833,1,0,0:0:0:0:
348,288,9919,2,0,L|289:296,1,58.75,8|0,0:0|0:0,0:0:0:0:
436,328,10090,2,0,L|494:335,1,58.75
256,372,10262,6,0,L|248:313,1,58.75,6|0,0:0|0:0,0:0:0:0:
396,252,10433,1,0,0:0:0:0:
384,196,10519,1,0,0:0:0:0:
348,148,10604,1,8,0:0:0:0:
296,124,10690,2,0,L|237:116,2,58.75
116,252,10947,6,0,L|100:196,1,58.75,2|0,0:0|0:0,0:0:0:0:
188,160,11119,2,0,L|188:101,1,58.75
412,68,11290,2,0,L|353:60,1,58.75,8|0,0:0|0:0,0:0:0:0:
160,28,11462,2,0,L|101:20,1,58.75
304,0,11633,5,6,0:0:0:0:
324,56,11718,1,0,0:0:0:0:
304,112,11804,1,0,0:0:0:0:
256,148,11890,1,0,0:0:0:0:
104,116,11976,1,8,0:0:0:0:
84,172,12061,1,0,0:0:0:0:
104,228,12147,1,0,0:0:0:0:
152,264,12233,1,0,0:0:0:0:
304,300,12319,6,0,L|245:307,1,58.75,6|0,0:0|0:0,0:0:0:0:
396,344,12490,1,0,0:0:0:0:
444,308,12576,1,0,0:0:0:0:
464,252,12662,1,12,0:0:0:0:
444,196,12747,1,0,0:0:0:0:
284,132,12833,2,0,L|225:124,1,58.75
64,60,13004,5,4,0:0:0:0:
368,24,13176,2,0,L|384:140,1,117.5,4|0,0:0|0:0,0:0:0:0:
144,172,13519,2,0,L|128:288,1,117.5,4|0,0:0|0:0,0:0:0:0:
432,324,13862,1,4,0:0:0:0:
176,356,14033,1,4,0:0:0:0:
336,356,14204,1,4,0:0:0:0:
176,324,14290,1,0,0:0:0:0:
16,292,14376,1,6,0:0:0:0:
256,228,14547,6,0,L|373:220,2,117.5,0|8|0,0:0|0:0|0:0,0:0:0:0:
116,260,15062,2,0,L|100:144,1,117.5,2|0,0:0|0:0,0:0:0:0:
356,176,15404,2,0,L|372:60,1,117.5,8|0,0:0|0:0,0:0:0:0:
212,28,15747,1,2,0:0:0:0:
452,28,15919,5,0,0:0:0:0:
292,60,16090,2,0,L|409:67,1,117.5,8|0,0:0|0:0,0:0:0:0:
248,100,16433,2,0,L|240:217,1,117.5,2|0,0:0|0:0,0:0:0:0:
476,184,16776,2,0,L|484:301,1,117.5,8|0,0:0|0:0,0:0:0:0:
344,336,17119,1,2,0:0:0:0:
28,368,17290,6,0,L|145:360,1,117.5,0|8,0:0|0:0,0:0:0:0:
304,296,17633,1,0,0:0:0:0:
144,232,17804,2,0,L|136:114,1,117.5,2|0,0:0|0:0,0:0:0:0:
372,80,18147,2,0,L|254:72,1,117.5,8|0,0:0|0:0,0:0:0:0:
96,8,18490,1,2,0:0:0:0:
388,40,18662,6,0,L|395:157,1,117.5,0|8,0:0|0:0,0:0:0:0:
256,192,19004,1,0,0:0:0:0:
96,224,19176,2,0,L|88:341,1,117.5,2|0,0:0|0:0,0:0:0:0:
336,372,19519,1,8,0:0:0:0:
176,372,19690,1,0,0:0:0:0:
448,352,19862,5,6,0:0:0:0:
436,296,19948,1,0,0:0:0:0:
400,248,20033,1,0,0:0:0:0:
348,224,20119,1,0,0:0:0:0:
164,192,20205,1,8,0:0:0:0:
112,168,20291,1,0,0:0:0:0:
76,120,20376,1,0,0:0:0:0:
64,64,20462,1,0,0:0:0:0:
256,32,20547,5,2,0:0:0:0:
304,68,20633,1,0,0:0:0:0:
324,124,20719,1,0,0:0:0:0:
304,180,20804,1,0,0:0:0:0:
156,216,20890,2,0,L|97:224,1,58.75,8|0,0:0|0:0,0:0:0:0:
156,268,21062,2,0,L|215:260,1,58.75
16,304,21233,6,0,L|8:245,1,58.75,6|0,0:0|0:0,0:0:0:0:
156,180,21404,1,0,0:0:0:0:
204,216,21490,1,0,0:0:0:0:
224,272,21576,1,8,0:0:0:0:
204,328,21661,1,0,0:0:0:0:
156,364,21747,2,0,L|97:372,1,58.75
256,328,21919,5,2,0:0:0:0:
324,320,22004,1,0,0:0:0:0:
256,296,22090,1,0,0:0:0:0:
324,288,22176,1,0,0:0:0:0:
472,256,22262,2,0,L|479:197,1,58.75,8|0,0:0|0:0,0:0:0:0:
264,168,22433,2,0,L|256:109,1,58.75
444,76,22604,5,6,0:0:0:0:
464,132,22690,1,0,0:0:0:0:
444,188,22776,1,0,0:0:0:0:
396,224,22862,1,0,0:0:0:0:
220,256,22947,2,0,L|212:314,1,58.75,8|0,0:0|0:0,0:0:0:0:
300,348,23119,2,0,L|307:289,1,58.75
132,320,23290,5,6,0:0:0:0:
84,284,23376,1,0,0:0:0:0:
64,228,23462,1,0,0:0:0:0:
84,172,23547,1,0,0:0:0:0:
316,140,23633,2,0,L|257:132,1,58.75,8|0,0:0|0:0,0:0:0:0:
84,100,23804,2,0,L|25:92,1,58.75
256,60,23976,6,0,L|271:3,2,58.75,6|0|0,0:0|0:0|0:0,0:0:0:0:
156,92,24233,1,0,0:0:0:0:
356,124,24319,2,0,L|371:67,2,58.75,12|0|0,0:0|0:0|0:0,0:0:0:0:
256,156,24576,1,0,0:0:0:0:
432,188,24662,5,6,0:0:0:0:
480,224,24748,1,0,0:0:0:0:
500,280,24833,1,0,0:0:0:0:
480,336,24919,1,0,0:0:0:0:
284,368,25004,2,0,L|225:360,2,58.75,12|0|2,0:0|0:0|0:0,0:0:0:0:
448,336,25262,1,2,0:0:0:0:
284,368,25347,1,6,0:0:0:0:
36,336,25519,6,0,L|20:219,1,117.5,0|8,0:0|0:0,0:0:0:0:
160,192,25862,1,0,0:0:0:0:
300,160,26033,2,0,L|316:43,1,117.5,2|0,0:0|0:0,0:0:0:0:
80,12,26376,2,0,L|197:4,1,117.5,8|0,0:0|0:0,0:0:0:0:
432,40,26719,6,0,L|439:157,1,117.5,2|0,0:0|0:0,0:0:0:0:
280,192,27062,2,0,L|162:199,1,117.5,8|0,0:0|0:0,0:0:0:0:
304,232,27404,2,0,L|421:239,1,117.5,2|0,0:0|0:0,0:0:0:0:
180,232,27747,2,0,L|173:349,1,117.5,8|0,0:0|0:0,0:0:0:0:
312,384,28090,1,2,0:0:0:0:
72,316,28262,6,0,L|189:308,1,117.5,0|8,0:0|0:0,0:0:0:0:
48,276,28604,1,0,0:0:0:0:
212,244,28776,2,0,L|219:126,1,117.5,2|0,0:0|0:0,0:0:0:0:
484,160,29119,2,0,L|491:42,1,117.5,8|0,0:0|0:0,0:0:0:0:
256,8,29462,6,0,L|373:15,2,117.5,2|0|8,0:0|0:0|0:0,0:0:0:0:
96,40,29976,1,0,0:0:0:0:
256,72,30147,2,0,L|263:189,1,117.5,2|0,0:0|0:0,0:0:0:0:
28,220,30490,2,0,L|20:337,1,117.5,8|0,0:0|0:0,0:0:0:0:
304,384,30833,5,6,0:0:0:0:
324,328,30919,1,0,0:0:0:0:
304,272,31004,1,0,0:0:0:0:
256,236,31090,1,0,0:0:0:0:
108,204,31176,1,8,0:0:0:0:
168,196,31262,1,0,0:0:0:0:
228,188,31347,1,0,0:0:0:0:
288,180,31433,1,0,0:0:0:0:
140,148,31519,5,2,0:0:0:0:
92,112,31605,1,0,0:0:0:0:
72,56,31690,1,0,0:0:0:0:
92,0,31776,1,0,0:0:0:0:
256,32,31862,2,0,L|314:39,1,58.75,8|0,0:0|0:0,0:0:0:0:
256,72,32033,2,0,L|197:79,1,58.75
420,120,32204,6,0,L|427:61,1,58.75,6|0,0:0|0:0,0:0:0:0:
256,32,32376,1,0,0:0:0:0:
208,68,32462,1,0,0:0:0:0:
188,124,32548,1,8,0:0:0:0:
208,180,32633,1,0,0:0:0:0:
256,216,32719,2,0,L|315:224,1,58.75
476,192,32890,5,2,0:0:0:0:
496,248,32976,1,0,0:0:0:0:
476,304,33061,1,0,0:0:0:0:
428,340,33147,1,0,0:0:0:0:
272,372,33233,2,0,L|213:364,1,58.75,8|0,0:0|0:0,0:0:0:0:
372,312,33404,2,0,L|430:304,1,58.75
216,332,33576,5,6,0:0:0:0:
164,308,33662,1,0,0:0:0:0:
128,260,33747,1,0,0:0:0:0:
116,204,33833,1,0,0:0:0:0:
268,172,33919,2,0,L|209:164,1,58.75,8|0,0:0|0:0,0:0:0:0:
32,232,34090,2,0,L|24:173,1,58.75
216,160,34262,5,6,0:0:0:0:
204,104,34348,1,0,0:0:0:0:
168,56,34433,1,0,0:0:0:0:
116,32,34519,1,0,0:0:0:0:
268,0,34604,2,0,L|326:7,1,58.75,8|0,0:0|0:0,0:0:0:0:
480,40,34776,2,0,L|421:47,1,58.75
244,80,34947,5,6,0:0:0:0:
252,136,35033,1,0,0:0:0:0:
292,184,35118,1,0,0:0:0:0:
392,208,35204,1,0,0:0:0:0:
180,168,35290,1,12,0:0:0:0:
188,224,35376,1,0,0:0:0:0:
228,272,35461,1,0,0:0:0:0:
328,304,35547,1,0,0:0:0:0:
116,272,35633,6,0,L|57:279,1,58.75,6|0,0:0|0:0,0:0:0:0:
0,316,35804,2,0,L|58:323,1,58.75
212,360,35976,2,0,L|219:301,1,58.75,12|0,0:0|0:0,0:0:0:0:
160,268,36147,1,2,0:0:0:0:
320,236,36233,1,2,0:0:0:0:
480,204,36319,6,0,L|487:86,1,117.5,6|0,0:0|0:0,0:0:0:0:
348,56,36662,2,0,L|230:48,1,117.5
392,16,37004,2,0,L|384:133,1,117.5,8|0,0:0|0:0,0:0:0:0:
312,164,37262,1,0,0:0:0:0:
240,196,37347,2,0,L|357:203,1,117.5
64,272,37690,6,0,L|56:154,1,117.5,2|0,0:0|0:0,0:0:0:0:
196,120,38033,1,0,0:0:0:0:
32,88,38204,1,0,0:0:0:0:
196,56,38376,2,0,L|313:48,1,117.5,8|0,0:0|0:0,0:0:0:0:
244,16,38633,1,0,0:0:0:0:
176,48,38719,2,0,L|58:40,1,117.5
336,8,39062,6,0,L|344:125,1,117.5,2|0,0:0|0:0,0:0:0:0:
204,156,39404,1,0,0:0:0:0:
64,188,39576,1,0,0:0:0:0:
356,260,39747,2,0,L|473:267,2,117.5,8|0|0,0:0|0:0|0:0,0:0:0:0:
216,296,40262,1,0,0:0:0:0:
376,328,40433,5,2,0:0:0:0:
124,360,40604,1,0,0:0:0:0:
120,304,40690,1,0,0:0:0:0:
116,248,40776,1,0,0:0:0:0:
256,216,40947,1,0,0:0:0:0:
20,184,41119,1,8,0:0:0:0:
160,152,41290,1,0,0:0:0:0:
20,184,41462,2,0,L|12:66,1,117.5
320,36,41804,6,0,L|327:153,1,117.5,6|0,0:0|0:0,0:0:0:0:
256,188,42062,1,0,0:0:0:0:
188,220,42147,2,0,L|180:337,1,117.5
340,372,42490,2,0,L|222:364,1,117.5,8|0,0:0|0:0,0:0:0:0:
384,332,42833,2,0,L|501:324,1,117.5
256,292,43176,6,0,L|248:174,1,117.5,2|0,0:0|0:0,0:0:0:0:
388,208,43519,2,0,L|506:200,2,117.5,0|0|8,0:0|0:0|0:0,0:0:0:0:
248,176,44033,1,0,0:0:0:0:
88,144,44204,2,0,L|205:136,1,117.5
444,72,44547,5,2,0:0:0:0:
492,108,44633,1,0,0:0:0:0:
512,164,44719,1,0,0:0:0:0:
492,220,44804,1,0,0:0:0:0:
392,252,44890,2,0,L|376:196,3,58.75
276,164,45233,6,0,L|260:108,3,58.75,8|0|0|0,0:0|0:0|0:0|0:0,0:0:0:0:
160,76,45576,1,0,0:0:0:0:
140,132,45661,1,0,0:0:0:0:
160,188,45747,1,0,0:0:0:0:
208,224,45833,1,0,0:0:0:0:
360,256,45919,6,0,L|418:263,1,58.75,2|0,0:0|0:0,0:0:0:0:
476,300,46090,2,0,L|417:307,1,58.75
264,344,46262,2,0,L|256:285,1,58.75
336,252,46433,2,0,L|343:193,1,58.75
188,232,46604,5,8,0:0:0:0:
120,224,46690,1,0,0:0:0:0:
188,196,46776,1,0,0:0:0:0:
120,188,46862,1,0,0:0:0:0:
272,120,46947,1,2,0:0:0:0:
204,112,47033,1,0,0:0:0:0:
136,104,47119,1,2,0:0:0:0:
288,36,47204,1,2,0:0:0:0:
136,104,47290,6,0,L|128:221,1,117.5,6|0,0:0|0:0,0:0:0:0:
268,252,47633,1,8,0:0:0:0:
128,284,47804,1,0,0:0:0:0:
364,316,47976,2,0,L|371:198,1,117.5,2|0,0:0|0:0,0:0:0:0:
272,168,48233,1,0,0:0:0:0:
268,108,48319,1,8,0:0:0:0:
264,48,48404,1,0,0:0:0:0:
364,16,48490,1,0,0:0:0:0:
128,48,48662,6,0,L|10:55,1,117.5,2|0,0:0|0:0,0:0:0:0:
152,88,49004,2,0,L|269:95,1,117.5,8|0,0:0|0:0,0:0:0:0:
32,128,49347,1,2,0:0:0:0:
192,192,49519,1,0,0:0:0:0:
124,200,49604,1,0,0:0:0:0:
56,208,49690,2,0,L|48:325,1,117.5,8|0,0:0|0:0,0:0:0:0:
316,292,50033,6,0,L|198:284,1,117.5,2|0,0:0|0:0,0:0:0:0:
340,224,50376,1,8,0:0:0:0:
200,164,50547,1,0,0:0:0:0:
436,196,50719,2,0,L|443:78,1,117.5,2|0,0:0|0:0,0:0:0:0:
304,48,51062,1,8,0:0:0:0:
164,16,51233,1,0,0:0:0:0:
304,48,51404,6,0,L|421:55,1,117.5,2|0,0:0|0:0,0:0:0:0:
280,88,51747,2,0,L|163:95,1,117.5,8|0,0:0|0:0,0:0:0:0:
400,128,52090,1,2,0:0:0:0:
240,192,52262,1,0,0:0:0:0:
336,224,52347,1,0,0:0:0:0:
240,256,52433,2,0,L|64:268,1,176.25,8|0,0:0|0:0,0:0:0:0:
292,332,52776,6,0,L|299:273,1,58.75,6|0,0:0|0:0,0:0:0:0:
212,240,52947,1,0,0:0:0:0:
192,184,53033,1,0,0:0:0:0:
212,128,53118,1,8,0:0:0:0:
260,92,53204,1,0,0:0:0:0:
412,156,53290,5,0,0:0:0:0:
432,100,53376,1,0,0:0:0:0:
412,44,53462,1,2,0:0:0:0:
364,8,53547,1,0,0:0:0:0:
296,0,53633,1,0,0:0:0:0:
364,8,53719,1,0,0:0:0:0:
144,40,53804,6,0,L|136:98,1,58.75,12|0,0:0|0:0,0:0:0:0:
288,132,53976,2,0,L|295:190,1,58.75
84,220,54147,5,6,0:0:0:0:
16,228,54233,1,0,0:0:0:0:
108,260,54319,1,0,0:0:0:0:
128,204,54405,1,0,0:0:0:0:
108,148,54490,1,8,0:0:0:0:
60,112,54576,1,0,0:0:0:0:
212,144,54662,6,0,L|219:85,1,58.75
372,52,54833,1,6,0:0:0:0:
352,108,54919,1,0,0:0:0:0:
372,164,55004,1,0,0:0:0:0:
420,200,55090,1,0,0:0:0:0:
268,232,55176,6,0,L|327:239,1,58.75,12|0,0:0|0:0,0:0:0:0:
480,272,55347,2,0,L|421:279,1,58.75
200,312,55519,6,0,L|192:253,1,58.75,6|0,0:0|0:0,0:0:0:0:
104,220,55690,2,0,L|96:161,1,58.75
256,128,55862,1,8,0:0:0:0:
188,120,55947,1,0,0:0:0:0:
352,220,56033,6,0,L|344:161,1,58.75,4|0,0:0|0:0,0:0:0:0:
256,128,56204,2,0,L|248:69,1,58.75,2|0,0:0|0:0,0:0:0:0:
408,36,56376,2,0,L|466:28,1,58.75
176,84,56547,6,0,L|117:76,2,58.75,12|0|0,0:0|0:0|0:0,0:0:0:0:
336,120,56804,1,0,0:0:0:0:
496,156,56890,2,0,L|437:163,1,58.75,2|0,0:0|0:0,0:0:0:0:
216,192,57062,5,4,0:0:0:0:
168,228,57148,1,0,0:0:0:0:
148,284,57233,1,8,0:0:0:0:
168,340,57319,1,0,0:0:0:0:
316,372,57404,2,0,L|323:313,1,58.75,4|0,0:0|0:0,0:0:0:0:
100,372,57576,6,0,L|159:364,1,58.75,6|0,0:0|0:0,0:0:0:0:
244,332,57747,2,0,L|186:324,1,58.75
32,292,57919,2,0,L|25:233,1,58.75,8|0,0:0|0:0,0:0:0:0:
112,200,58090,1,0,0:0:0:0:
44,192,58175,1,0,0:0:0:0:
212,108,58262,5,4,0:0:0:0:
280,100,58347,1,0,0:0:0:0:
448,64,58433,2,0,L|464:120,1,58.75
364,152,58604,2,0,L|367:210,1,58.75
268,240,58776,2,0,L|252:296,1,58.75
496,336,58947,6,0,L|437:328,1,58.75,2|0,0:0|0:0,0:0:0:0:
284,196,59119,2,0,L|225:188,1,58.75,2|0,0:0|0:0,0:0:0:0:
72,56,59290,2,0,L|13:48,1,58.75,2|0,0:0|0:0,0:0:0:0:
180,16,59462,1,2,0:0:0:0:
344,48,59547,1,2,0:0:0:0:
180,80,59633,6,0,P|120:128|181:175,1,176.25,6|0,0:0|0:0,0:0:0:0:
280,212,59976,2,0,L|162:219,1,117.5,8|0,0:0|0:0,0:0:0:0:
24,256,60319,2,0,L|141:263,1,117.5,2|0,0:0|0:0,0:0:0:0:
380,296,60662,1,8,0:0:0:0:
240,332,60833,2,0,L|298:339,1,58.75
476,376,61004,6,0,L|483:258,1,117.5,2|0,0:0|0:0,0:0:0:0:
344,224,61347,1,8,0:0:0:0:
204,192,61519,1,0,0:0:0:0:
200,132,61604,1,0,0:0:0:0:
196,72,61690,1,2,0:0:0:0:
336,40,61862,1,0,0:0:0:0:
84,104,62033,1,8,0:0:0:0:
336,168,62204,1,0,0:0:0:0:
196,236,62376,6,0,L|20:248,1,176.25,2|0,0:0|0:0,0:0:0:0:
108,280,62719,2,0,L|225:287,1,117.5,8|0,0:0|0:0,0:0:0:0:
364,320,63062,2,0,L|371:202,1,117.5,2|0,0:0|0:0,0:0:0:0:
136,164,63404,2,0,L|128:46,1,117.5,8|0,0:0|0:0,0:0:0:0:
216,16,63662,1,0,0:0:0:0:
376,84,63747,6,0,L|258:76,1,117.5,2|0,0:0|0:0,0:0:0:0:
100,112,64090,1,8,0:0:0:0:
260,144,64262,1,0,0:0:0:0:
264,204,64347,1,0,0:0:0:0:
268,264,64433,1,2,0:0:0:0:
428,296,64604,2,0,L|435:354,1,58.75
268,264,64776,2,0,L|385:256,1,117.5,8|0,0:0|0:0,0:0:0:0:
132,320,65119,5,6,0:0:0:0:
112,264,65205,1,0,0:0:0:0:
132,208,65290,1,0,0:0:0:0:
180,172,65376,1,0,0:0:0:0:
328,204,65462,5,8,0:0:0:0:
376,168,65548,1,0,0:0:0:0:
396,112,65634,1,0,0:0:0:0:
376,56,65719,1,0,0:0:0:0:
228,20,65804,2,0,L|169:12,1,58.75,2|0,0:0|0:0,0:0:0:0:
340,280,65976,6,0,L|356:224,1,58.75
256,192,66147,2,0,L|256:133,1,58.75,8|0,0:0|0:0,0:0:0:0:
156,100,66319,2,0,L|140:44,1,58.75
352,292,66490,6,0,L|410:284,1,58.75,6|0,0:0|0:0,0:0:0:0:
224,328,66662,1,0,0:0:0:0:
176,292,66747,1,0,0:0:0:0:
156,236,66832,1,8,0:0:0:0:
176,180,66918,1,0,0:0:0:0:
328,148,67004,6,0,L|269:140,1,58.75
84,108,67176,2,0,L|25:100,1,58.75,2|0,0:0|0:0,0:0:0:0:
212,68,67347,6,0,L|270:60,1,58.75
460,28,67519,2,0,L|467:86,1,58.75,8|0,0:0|0:0,0:0:0:0:
400,120,67690,1,0,0:0:0:0:
468,152,67776,1,0,0:0:0:0:
272,184,67862,6,0,L|264:242,1,58.75,6|0,0:0|0:0,0:0:0:0:
176,276,68033,2,0,L|168:334,1,58.75
352,368,68204,1,8,0:0:0:0:
284,360,68290,1,0,0:0:0:0:
196,324,68376,1,0,0:0:0:0:
264,316,68462,1,0,0:0:0:0:
448,284,68547,6,0,L|440:225,1,58.75,6|0,0:0|0:0,0:0:0:0:
352,192,68719,2,0,L|344:133,1,58.75
128,100,68890,1,8,0:0:0:0:
196,92,68976,1,0,0:0:0:0:
284,68,69062,1,0,0:0:0:0:
216,60,69148,1,0,0:0:0:0:
52,40,69233,5,6,0:0:0:0:
356,8,69404,2,0,L|372:124,1,117.5,4|0,0:0|0:0,0:0:0:0:
136,200,69747,2,0,L|256:208,1,117.5,4|0,0:0|0:0,0:0:0:0:
20,320,70090,6,0,L|12:378,1,58.75,4|0,0:0|0:0,0:0:0:0:
168,312,70262,1,4,0:0:0:0:
236,304,70347,1,0,0:0:0:0:
168,312,70433,1,6,0:0:0:0:
20,248,70519,1,2,0:0:0:0:
168,344,70604,2,0,P|228:296|167:249,1,176.25,2|0,0:0|0:0,0:0:0:0:
80,216,70947,6,0,L|350:208,1,270.25000515461,4|0,0:0|0:0,0:0:0:0:
492,176,71290,1,2,0:0:0:0:
332,144,71462,2,0,L|324:26,1,117.5,0|8,0:0|0:0,0:0:0:0:
464,60,71804,2,0,L|405:52,1,58.75
176,88,71976,6,0,L|58:95,2,117.5,2|0|8,0:0|0:0|0:0,0:0:0:0:
316,120,72490,1,0,0:0:0:0:
320,180,72576,1,0,0:0:0:0:
324,240,72662,1,2,0:0:0:0:
184,208,72834,1,0,0:0:0:0:
436,272,73004,1,8,0:0:0:0:
184,336,73176,1,0,0:0:0:0:
324,267,73347,6,0,P|298:186|218:158,1,176.25,2|0,0:0|0:0,0:0:0:0:
120,192,73690,2,0,L|112:74,1,117.5,8|0,0:0|0:0,0:0:0:0:
272,44,74033,2,0,L|154:36,1,117.5,2|0,0:0|0:0,0:0:0:0:
392,4,74376,2,0,L|509:11,1,117.5,8|0,0:0|0:0,0:0:0:0:
424,48,74633,1,0,0:0:0:0:
256,80,74719,6,0,L|248:197,1,117.5,2|0,0:0|0:0,0:0:0:0:
408,232,75062,1,8,0:0:0:0:
248,264,75233,1,0,0:0:0:0:
180,272,75319,1,0,0:0:0:0:
112,280,75404,1,2,0:0:0:0:
252,348,75576,1,0,0:0:0:0:
184,356,75662,1,0,0:0:0:0:
36,324,75747,2,0,L|28:206,1,117.5,8|0,0:0|0:0,0:0:0:0:
280,240,76090,5,6,0:0:0:0:
328,204,76176,1,0,0:0:0:0:
348,148,76261,1,0,0:0:0:0:
328,92,76347,1,0,0:0:0:0:
180,60,76433,2,0,L|238:52,1,58.75,8|0,0:0|0:0,0:0:0:0:
88,20,76604,5,0,0:0:0:0:
40,56,76690,1,0,0:0:0:0:
20,112,76775,1,2,0:0:0:0:
40,168,76861,1,0,0:0:0:0:
188,200,76947,2,0,L|195:258,1,58.75
44,228,77119,6,0,L|36:286,1,58.75,8|0,0:0|0:0,0:0:0:0:
104,320,77290,1,0,0:0:0:0:
36,352,77376,1,0,0:0:0:0:
256,320,77462,5,6,0:0:0:0:
308,296,77548,1,0,0:0:0:0:
344,248,77633,1,0,0:0:0:0:
356,192,77719,1,0,0:0:0:0:
208,160,77804,2,0,L|149:152,1,58.75,8|0,0:0|0:0,0:0:0:0:
368,204,77976,5,0,0:0:0:0:
356,148,78062,1,0,0:0:0:0:
320,100,78147,1,2,0:0:0:0:
268,76,78233,1,0,0:0:0:0:
416,44,78319,2,0,L|474:36,1,58.75
256,88,78490,6,0,L|248:146,1,58.75,8|0,0:0|0:0,0:0:0:0:
336,180,78662,2,0,L|343:238,1,58.75
124,288,78833,5,6,0:0:0:0:
104,232,78919,1,0,0:0:0:0:
124,176,79005,1,0,0:0:0:0:
172,140,79090,1,0,0:0:0:0:
240,132,79176,1,8,0:0:0:0:
172,140,79262,1,0,0:0:0:0:
376,168,79347,5,0,0:0:0:0:
444,160,79433,1,0,0:0:0:0:
292,200,79519,1,6,0:0:0:0:
244,164,79604,1,0,0:0:0:0:
224,108,79690,1,0,0:0:0:0:
244,52,79776,1,0,0:0:0:0:
412,20,79862,6,0,L|353:12,1,58.75,12|0,0:0|0:0,0:0:0:0:
160,84,80033,2,0,L|101:76,1,58.75,2|2,0:0|0:0,0:0:0:0:
364,20,80204,6,0,P|424:68|363:115,1,176.25,6|0,0:0|0:0,0:0:0:0:
264,148,80547,1,8,0:0:0:0:
244,204,80633,1,0,0:0:0:0:
264,260,80719,1,0,0:0:0:0:
312,296,80804,1,0,0:0:0:0:
464,328,80890,6,0,L|471:269,1,58.75,6|0,0:0|0:0,0:0:0:0:
272,252,81062,2,0,L|264:193,1,58.75,4|0,0:0|0:0,0:0:0:0:
332,160,81233,1,12,0:0:0:0:
480,128,81319,1,4,0:0:0:0:
332,96,81404,1,4,0:0:0:0:
480,64,81490,1,4,0:0:0:0:
296,28,81576,6,0,L|120:44,1,176.25,6|0,0:0|0:0,0:0:0:0:
20,80,81919,2,0,L|12:197,1,117.5,8|0,0:0|0:0,0:0:0:0:
152,232,82262,2,0,L|159:290,1,58.75,2|0,0:0|0:0,0:0:0:0:
60,324,82433,2,0,L|177:331,1,117.5,0|8,0:0|0:0,0:0:0:0:
316,368,82776,1,0,0:0:0:0:
140,300,82947,1,2,0:0:0:0:
412,336,83119,6,0,L|428:280,1,58.75
340,244,83290,2,0,L|340:185,1,58.75,8|0,0:0|0:0,0:0:0:0:
176,152,83462,2,0,L|160:96,1,58.75
320,64,83633,5,2,0:0:0:0:
388,56,83719,1,0,0:0:0:0:
320,32,83804,1,0,0:0:0:0:
388,24,83890,1,0,0:0:0:0:
208,96,83976,2,0,L|200:154,1,58.75,8|0,0:0|0:0,0:0:0:0:
420,188,84147,2,0,L|427:246,1,58.75
256,280,84319,6,0,P|196:232|257:185,1,176.25,2|0,0:0|0:0,0:0:0:0:
356,148,84662,2,0,L|238:141,1,117.5,8|0,0:0|0:0,0:0:0:0:
100,172,85004,2,0,L|92:113,1,58.75,2|0,0:0|0:0,0:0:0:0:
248,132,85176,2,0,L|255:14,1,117.5,0|8,0:0|0:0,0:0:0:0:
116,48,85519,1,0,0:0:0:0:
292,80,85690,1,2,0:0:0:0:
52,112,85862,5,0,0:0:0:0:
64,168,85948,1,0,0:0:0:0:
100,216,86033,1,8,0:0:0:0:
152,240,86119,1,0,0:0:0:0:
304,272,86204,2,0,L|311:213,1,58.75
140,252,86376,6,0,L|198:244,1,58.75,2|0,0:0|0:0,0:0:0:0:
256,216,86547,2,0,L|197:208,1,58.75
44,176,86719,2,0,L|28:120,1,58.75,8|0,0:0|0:0,0:0:0:0:
116,84,86890,2,0,L|116:25,1,58.75
288,16,87062,5,2,0:0:0:0:
336,52,87148,1,0,0:0:0:0:
356,108,87234,1,0,0:0:0:0:
336,164,87319,1,0,0:0:0:0:
188,200,87405,1,8,0:0:0:0:
168,256,87490,1,0,0:0:0:0:
188,312,87576,1,0,0:0:0:0:
236,348,87662,1,0,0:0:0:0:
384,316,87747,6,0,L|325:308,1,58.75,2|0,0:0|0:0,0:0:0:0:
268,276,87919,2,0,L|326:268,1,58.75
416,236,88090,2,0,L|423:177,1,58.75,8|0,0:0|0:0,0:0:0:0:
216,144,88262,2,0,L|208:85,1,58.75
436,168,88433,6,0,L|377:160,1,58.75,2|0,0:0|0:0,0:0:0:0:
204,152,88604,1,0,0:0:0:0:
156,188,88690,1,0,0:0:0:0:
136,244,88776,1,8,0:0:0:0:
156,300,88861,1,0,0:0:0:0:
204,336,88947,2,0,L|263:344,1,58.75
84,376,89119,5,2,0:0:0:0:
96,320,89205,1,0,0:0:0:0:
132,272,89290,1,0,0:0:0:0:
184,248,89376,1,0,0:0:0:0:
336,216,89462,2,0,L|352:160,1,58.75,8|0,0:0|0:0,0:0:0:0:
188,128,89633,2,0,L|188:69,1,58.75
24,36,89804,5,2,0:0:0:0:
4,92,89890,1,0,0:0:0:0:
24,148,89975,1,0,0:0:0:0:
72,184,90062,1,0,0:0:0:0:
224,216,90147,2,0,L|231:274,1,58.75,8|0,0:0|0:0,0:0:0:0:
144,308,90319,2,0,L|136:249,1,58.75
288,280,90490,6,0,L|346:287,1,58.75,2|0,0:0|0:0,0:0:0:0:
496,324,90662,1,0,0:0:0:0:
484,268,90748,1,0,0:0:0:0:
448,220,90833,1,8,0:0:0:0:
396,196,90919,1,0,0:0:0:0:
248,164,91004,2,0,L|240:105,1,58.75
412,72,91176,6,0,L|470:64,1,58.75,2|0,0:0|0:0,0:0:0:0:
412,40,91347,2,0,L|353:32,1,58.75
184,168,91519,1,8,0:0:0:0:
252,160,91604,1,0,0:0:0:0:
320,152,91690,1,0,0:0:0:0:
388,144,91776,1,0,0:0:0:0:
220,332,91862,6,0,L|212:273,1,58.75,2|0,0:0|0:0,0:0:0:0:
300,240,92033,2,0,L|308:299,1,58.75
140,264,92204,2,0,L|198:256,1,58.75,8|0,0:0|0:0,0:0:0:0:
28,224,92376,2,0,L|86:216,1,58.75,2|2,0:0|0:0,0:0:0:0:
268,104,92547,6,0,P|328:152|267:199,1,176.25,6|0,0:0|0:0,0:0:0:0:
168,232,92890,2,0,L|285:239,1,117.5,8|0,0:0|0:0,0:0:0:0:
424,276,93233,2,0,L|482:283,1,58.75,2|0,0:0|0:0,0:0:0:0:
388,308,93404,2,0,L|270:315,2,117.5,0|8|0,0:0|0:0|0:0,0:0:0:0:
212,352,93919,1,2,0:0:0:0:
464,352,94090,5,0,0:0:0:0:
484,296,94175,1,0,0:0:0:0:
464,240,94261,1,8,0:0:0:0:
416,204,94348,1,0,0:0:0:0:
264,172,94433,2,0,L|322:164,1,58.75
168,132,94604,6,0,L|160:73,1,58.75,2|0,0:0|0:0,0:0:0:0:
248,40,94776,2,0,L|255:98,1,58.75
72,132,94947,2,0,L|130:139,1,58.75,8|0,0:0|0:0,0:0:0:0:
332,172,95119,2,0,L|390:179,1,58.75
208,212,95290,6,0,P|148:260|209:307,1,176.25,2|0,0:0|0:0,0:0:0:0:
308,344,95633,2,0,L|324:228,1,117.5,8|0,0:0|0:0,0:0:0:0:
184,196,95976,2,0,L|125:188,1,58.75,2|0,0:0|0:0,0:0:0:0:
28,156,96147,2,0,L|145:148,2,117.5,0|8|0,0:0|0:0|0:0,0:0:0:0:
204,116,96662,1,2,0:0:0:0:
460,156,96833,6,0,L|452:97,1,58.75
364,64,97004,2,0,L|356:5,1,58.75,8|0,0:0|0:0,0:0:0:0:
152,96,97176,2,0,L|93:88,1,58.75
284,96,97347,6,0,L|276:154,1,58.75,2|0,0:0|0:0,0:0:0:0:
188,188,97519,2,0,L|180:246,1,58.75
388,280,97690,2,0,L|329:287,1,58.75,8|0,0:0|0:0,0:0:0:0:
124,316,97862,2,0,L|182:323,1,58.75
420,356,98033,5,6,0:0:0:0:
468,320,98119,1,0,0:0:0:0:
488,264,98205,1,0,0:0:0:0:
468,208,98290,1,0,0:0:0:0:
320,172,98376,2,0,L|305:115,3,58.75,8|0|0|0,0:0|0:0|0:0|0:0,0:0:0:0:
156,80,98719,5,2,0:0:0:0:
108,116,98805,1,0,0:0:0:0:
88,172,98891,1,0,0:0:0:0:
108,228,98976,1,0,0:0:0:0:
156,264,99062,2,0,L|215:272,1,58.75,8|0,0:0|0:0,0:0:0:0:
364,304,99233,2,0,L|305:311,1,58.75
108,344,99404,6,0,L|100:285,1,58.75,6|0,0:0|0:0,0:0:0:0:
256,260,99576,1,0,0:0:0:0:
324,252,99662,1,0,0:0:0:0:
256,228,99747,1,8,0:0:0:0:
324,220,99833,1,0,0:0:0:0:
412,212,99919,2,0,L|419:153,1,58.75
256,120,100090,5,2,0:0:0:0:
188,112,100176,1,0,0:0:0:0:
256,84,100262,1,0,0:0:0:0:
324,76,100347,1,0,0:0:0:0:
480,144,100433,2,0,L|487:85,1,58.75,8|0,0:0|0:0,0:0:0:0:
420,52,100604,1,0,0:0:0:0:
488,20,100690,1,0,0:0:0:0:
208,20,100777,5,6,0:0:0:0:
188,76,100863,1,0,0:0:0:0:
208,132,100948,1,0,0:0:0:0:
256,168,101033,1,0,0:0:0:0:
404,200,101119,1,8,0:0:0:0:
424,256,101204,1,0,0:0:0:0:
404,312,101291,1,0,0:0:0:0:
356,348,101376,1,0,0:0:0:0:
196,316,101462,6,0,L|254:308,1,58.75,6|0,0:0|0:0,0:0:0:0:
404,276,101633,2,0,L|411:217,1,58.75
324,184,101804,2,0,L|316:125,1,58.75,12|0,0:0|0:0,0:0:0:0:
468,92,101976,2,0,L|409:84,1,58.75
248,52,102147,5,4,0:0:0:0:
480,108,102319,2,0,L|496:224,1,117.5,4|0,0:0|0:0,0:0:0:0:
256,192,102662,2,0,L|256:309,1,117.5,4|0,0:0|0:0,0:0:0:0:
16,344,103004,1,4,0:0:0:0:
336,272,103176,1,4,0:0:0:0:
176,208,103347,1,4,0:0:0:0:
336,176,103433,1,0,0:0:0:0:
496,140,103519,5,4,0:0:0:0:
256,192,103604,12,0,106090,0:0:0:0:
256,192,106262,5,4,0:0:0:0:
