osu file format v14

[General]
AudioFilename: audio.mp3
AudioLeadIn: 0
PreviewTime: 91916
Countdown: 1
SampleSet: Soft
StackLeniency: 0.4
Mode: 0
LetterboxInBreaks: 0
WidescreenStoryboard: 0

[Editor]
Bookmarks: 11786,21734,26708,31372,46605,66501,76449,92615,113755
DistanceSpacing: 1
BeatDivisor: 4
GridSize: 32
TimelineZoom: 1.7

[Metadata]
Title:Disorder
TitleUnicode:Disorder
Artist:HyuN feat. YURI
ArtistUnicode:HyuN feat. YURI
Creator:gazimal
Version:Last Disorder
Source:
Tags:FA Featured Artist electronic AdveNt aramaking wring ponbot english instrumental Yuuma3
BeatmapID:3332936
BeatmapSetID:1632819

[Difficulty]
HPDrainRate:5.5
CircleSize:4
OverallDifficulty:9
ApproachRate:9.4
SliderMultiplier:1.8
SliderTickRate:1

[Events]
//Background and Video events
0,0,"E--96ldVEAEvyvG.jpg",0,0
//Break Periods
2,66701,75909
//Storyboard Layer 0 (Background)
//Storyboard Layer 1 (Fail)
//Storyboard Layer 2 (Pass)
//Storyboard Layer 3 (Foreground)
//Storyboard Layer 4 (Overlay)
//Storyboard Sound Samples

[TimingPoints]
595,310.880829015544,4,2,1,60,1,0
595,-200,4,2,1,60,0,0
750,-200,4,2,1,40,0,0
11786,-100,4,2,1,70,0,0
26708,-66.6666666666667,4,2,1,70,0,0
27330,-76.9230769230769,4,2,1,70,0,0
46605,-100,4,2,1,70,0,0
53677,-100,4,2,1,5,0,0
53755,-100,4,2,1,70,0,0
54066,-83.3333333333333,4,2,1,70,0,0
54144,-83.3333333333333,4,2,1,5,0,0
54221,-83.3333333333333,4,2,1,70,0,0
54455,-83.3333333333333,4,2,1,5,0,0
54532,-83.3333333333333,4,2,1,70,0,0
54610,-83.3333333333333,4,2,1,5,0,0
54688,-83.3333333333333,4,2,1,70,0,0
54921,-83.3333333333333,4,2,1,5,0,0
54999,-83.3333333333333,4,2,1,70,0,0
55076,-83.3333333333333,4,2,1,5,0,0
55154,-83.3333333333333,4,2,1,70,0,0
55387,-83.3333333333333,4,2,1,5,0,0
55465,-83.3333333333333,4,2,1,70,0,0
55543,-83.3333333333333,4,2,1,5,0,0
55620,-83.3333333333333,4,2,1,70,0,0
55854,-83.3333333333333,4,2,1,5,0,0
55931,-125,4,2,1,70,0,0
56553,-83.3333333333333,4,2,1,70,0,0
56631,-83.3333333333333,4,2,1,5,0,0
56708,-83.3333333333333,4,2,1,70,0,0
56942,-83.3333333333333,4,2,1,5,0,0
57019,-83.3333333333333,4,2,1,70,0,0
57097,-83.3333333333333,4,2,1,5,0,0
57175,-83.3333333333333,4,2,1,70,0,0
57408,-83.3333333333333,4,2,1,5,0,0
57486,-83.3333333333333,4,2,1,70,0,0
57563,-83.3333333333333,4,2,1,5,0,0
57641,-83.3333333333333,4,2,1,70,0,0
57874,-83.3333333333333,4,2,1,5,0,0
57952,-83.3333333333333,4,2,1,70,0,0
58030,-83.3333333333333,4,2,1,5,0,0
58107,-83.3333333333333,4,2,1,70,0,0
58496,-83.3333333333333,4,2,1,5,0,0
58574,-83.3333333333333,4,2,1,70,0,0
58807,-83.3333333333333,4,2,1,5,0,0
58885,-83.3333333333333,4,2,1,70,0,0
58962,-83.3333333333333,4,2,1,5,0,0
59040,-83.3333333333333,4,2,1,70,0,0
61216,-100,4,2,1,70,0,0
76449,-142.857142857143,4,2,1,45,0,0
78936,-250.000000000001,4,2,1,45,0,0
80180,-142.857142857143,4,2,1,45,0,0
86553,-333.333333333334,4,2,1,35,0,0
92615,-76.9230769230769,4,2,1,75,0,0
102563,-400,4,2,1,75,0,0
103185,-76.9230769230769,4,2,1,75,0,0
107538,-66.6666666666667,4,2,1,75,0,0
108004,-76.9230769230769,4,2,1,75,0,0
112512,-66.6666666666667,4,2,1,75,0,0
112978,-76.9230769230769,4,2,1,75,0,0
122460,-83.3333333333333,4,2,1,75,0,0
122926,-71.4285714285714,4,2,1,75,0,0
123237,-83.3333333333333,4,2,1,75,0,0
127745,-500,4,2,1,75,0,0
127900,-500,4,2,1,45,0,0
128988,-500,4,2,1,35,0,0

[Colours]
Combo1 : 243,26,249
Combo2 : 207,207,207
Combo3 : 128,128,128
Combo4 : 128,255,255
Combo5 : 26,140,255
Combo6 : 228,37,27

[HitObjects]
77,300,595,5,4,3:2:0:0:
168,176,750,2,0,L|160:128,2,45,2|2|2,0:0|0:0|0:0,0:0:0:0:
181,258,1216,1,2,0:0:0:0:
181,258,1838,5,2,0:0:0:0:
246,141,1993,2,0,L|238:93,2,45,2|2|2,0:0|0:0|0:0,0:0:0:0:
259,223,2460,1,2,0:0:0:0:
259,223,3082,69,2,0:0:0:0:
324,106,3237,2,0,L|316:58,2,45,2|2|2,0:0|0:0|0:0,0:0:0:0:
337,188,3704,1,2,0:0:0:0:
337,188,4325,5,2,0:0:0:0:
402,71,4480,2,0,L|394:23,2,45,2|2|2,0:0|0:0|0:0,0:0:0:0:
415,153,4947,1,2,0:0:0:0:
415,153,5569,69,2,0:0:0:0:
350,270,5724,2,0,L|357:317,2,45,2|2|2,0:0|0:0|0:0,0:0:0:0:
337,188,6191,1,2,0:0:0:0:
337,188,6812,5,2,0:0:0:0:
272,305,6968,2,0,L|279:352,2,45,2|2|2,0:0|0:0|0:0,0:0:0:0:
259,223,7434,1,2,0:0:0:0:
259,223,8056,69,2,0:0:0:0:
194,340,8211,2,0,L|201:387,2,45,2|2|2,0:0|0:0|0:0,0:0:0:0:
181,258,8678,1,2,0:0:0:0:
256,192,9299,12,0,11631,0:0:0:0:
181,258,11786,22,0,L|229:250,1,45,4|0,3:1|0:0,0:0:0:0:
403,225,11942,1,2,0:2:0:0:
405,237,12019,1,2,0:2:0:0:
407,250,12097,2,0,L|358:242,1,45,10|0,0:0|0:0,0:0:0:0:
271,134,12253,2,0,P|314:85|385:110,1,135,2|0,0:0|0:0,0:0:0:0:
402,112,12563,2,0,L|395:68,1,45,2|0,3:3|0:0,0:0:0:0:
512,0,12719,2,0,L|505:43,1,45,10|0,0:0|0:0,0:0:0:0:
487,187,12874,2,0,L|480:230,1,45,2|0,0:0|0:0,0:0:0:0:
401,341,13030,5,0,3:2:0:0:
421,324,13107,1,2,0:3:0:0:
447,323,13185,1,0,3:2:0:0:
468,339,13263,1,2,0:3:0:0:
474,365,13341,2,0,L|420:356,1,45,8|0,0:0|0:0,0:0:0:0:
287,337,13496,2,0,B|236:323|250:266|250:266|292:277|269:322,1,135,2|0,0:0|0:0,0:0:0:0:
206,380,13807,2,0,L|158:372,1,45,2|0,3:2|0:0,0:0:0:0:
137,225,13963,2,0,L|154:269,1,45,10|0,0:0|0:0,0:0:0:0:
37,362,14118,2,0,L|67:324,1,45,2|0,0:0|0:0,0:0:0:0:
191,171,14273,70,0,P|177:155|140:150,1,45,2|0,3:2|0:0,0:0:0:0:
32,187,14429,1,2,0:3:0:0:
32,187,14506,1,2,0:3:0:0:
32,187,14584,2,0,L|41:126,1,45,10|0,0:0|0:0,0:0:0:0:
54,29,14740,2,0,B|89:13|128:33|128:33|138:77|189:82,1,135,2|0,0:0|0:0,0:0:0:0:
246,0,15050,2,0,P|216:1|198:28,1,45,2|0,3:2|0:0,0:0:0:0:
248,110,15206,2,0,L|304:101,1,45,10|0,0:0|0:0,0:0:0:0:
373,9,15361,2,0,L|408:52,1,45,2|0,0:0|0:0,0:0:0:0:
442,177,15517,6,0,L|386:168,1,45,2|0,3:2|0:0,0:0:0:0:
236,277,15672,1,2,3:2:0:0:
258,273,15749,1,2,0:0:0:0:
280,270,15827,1,10,0:0:0:0:
302,266,15905,1,2,0:0:0:0:
324,263,15982,1,2,0:0:0:0:
347,259,16060,1,2,0:0:0:0:
369,256,16138,69,2,0:0:0:0:
357,240,16216,1,2,0:0:0:0:
328,233,16294,1,2,3:2:0:0:
296,240,16372,1,2,0:0:0:0:
280,270,16449,1,10,0:0:0:0:
258,313,16527,1,2,0:0:0:0:
211,340,16605,1,2,3:2:0:0:
151,339,16683,1,2,0:0:0:0:
111,290,16760,6,0,L|119:235,1,45,6|0,3:2|0:0,0:0:0:0:
32,142,16916,1,2,0:0:0:0:
18,135,16993,1,2,0:0:0:0:
5,131,17071,2,0,L|13:186,1,45,10|0,3:2|0:0,0:0:0:0:
128,306,17227,2,0,L|150:163,1,135,2|0,0:0|0:0,0:0:0:0:
156,142,17538,2,0,L|220:152,1,45,2|0,3:2|0:0,0:0:0:0:
306,78,17693,2,0,L|329:138,1,45,10|0,0:0|0:0,0:0:0:0:
436,175,17848,2,0,L|395:225,1,45,2|0,3:2|3:2,3:2:0:0:
302,315,18004,69,2,3:2:0:0:
294,288,18081,1,2,0:3:0:0:
306,265,18159,1,0,3:2:0:0:
331,255,18237,1,2,0:3:0:0:
355,264,18315,2,0,P|375:280|410:285,1,45,8|0,0:0|0:0,0:0:0:0:
512,149,18470,2,0,P|477:104|390:111,1,135,2|0,0:0|0:0,0:0:0:0:
322,120,18781,2,0,L|258:110,1,45,2|0,3:2|0:0,0:0:0:0:
172,184,18936,2,0,L|149:124,1,45,10|0,0:0|0:0,0:0:0:0:
42,87,19092,2,0,L|83:37,1,45,2|0,0:0|0:0,0:0:0:0:
208,0,19247,6,0,L|199:55,1,45,2|0,3:2|0:0,0:0:0:0:
87,166,19403,1,2,0:0:0:0:
74,162,19481,1,2,0:0:0:0:
63,159,19558,2,0,L|71:214,1,45,10|0,3:2|0:0,0:0:0:0:
83,327,19714,2,0,B|55:314|24:278|24:278|39:307|42:345,1,135,2|0,0:0|0:0,0:0:0:0:
142,384,20025,2,0,L|190:376,1,45,2|0,3:2|0:0,0:0:0:0:
198,237,20180,2,0,L|180:282,1,45,10|0,0:0|0:0,0:0:0:0:
297,358,20335,2,0,L|266:319,1,45,2|0,0:0|0:0,0:0:0:0:
196,158,20491,70,0,P|233:162|254:178,1,45,0|0,3:2|0:0,0:0:0:0:
374,299,20646,1,2,3:2:0:0:
399,313,20724,1,2,0:0:0:0:
429,314,20802,1,10,0:0:0:0:
456,301,20879,1,2,0:0:0:0:
474,276,20957,1,2,0:0:0:0:
479,247,21035,1,2,0:0:0:0:
470,219,21112,5,2,0:0:0:0:
447,230,21190,1,2,0:0:0:0:
415,232,21268,1,2,3:2:0:0:
388,218,21346,1,2,0:0:0:0:
364,187,21424,1,10,0:0:0:0:
339,145,21501,1,2,0:0:0:0:
293,116,21579,1,2,3:2:0:0:
235,120,21657,1,2,0:0:0:0:
196,158,21734,38,0,B|168:228|101:211|101:211|137:190|137:144,1,180,14|0,3:2|0:0,0:0:0:0:
239,314,22201,2,0,B|267:384|333:367|333:367|298:346|298:300,1,180,8|0,3:2|0:0,0:0:0:0:
66,143,22667,6,0,B|50:96|13:57|13:57|52:88|98:84,1,180,8|0,3:2|0:0,0:0:0:0:
374,298,23133,2,0,B|390:251|427:212|427:212|388:243|342:239,1,180,8|0,3:2|0:0,0:0:0:0:
239,314,23600,1,8,3:2:0:0:
196,158,23755,1,0,3:2:0:0:
355,239,23911,1,8,3:2:0:0:
404,85,24066,1,0,3:2:0:0:
239,314,24221,70,0,B|212:353|158:337|158:337|148:278|186:259,1,180,12|0,3:2|0:0,0:0:0:0:
410,294,24688,2,0,B|446:318|492:280|492:280|479:225|432:222,1,180,8|0,3:2|0:0,0:0:0:0:
256,101,25154,2,0,B|235:58|276:19|276:19|332:40|329:83,1,180,8|0,3:2|0:0,0:0:0:0:
187,260,25621,5,2,3:3:0:0:
172,257,25698,1,2,0:3:0:0:
157,255,25776,1,2,0:3:0:0:
142,252,25854,1,2,0:3:0:0:
127,250,25931,1,2,0:3:0:0:
112,248,26009,1,2,0:3:0:0:
98,245,26087,69,2,3:3:0:0:
135,236,26164,1,2,0:3:0:0:
162,207,26242,1,2,3:3:0:0:
168,169,26320,1,2,0:3:0:0:
152,134,26397,1,2,3:3:0:0:
119,114,26475,1,2,0:3:0:0:
80,115,26553,1,2,3:3:0:0:
49,138,26631,1,2,0:3:0:0:
36,174,26708,22,0,B|80:210|133:182|133:182|172:131|239:151,1,202.500007724762,4|0,3:1|0:0,0:0:0:0:
284,187,27019,1,10,0:0:0:0:
354,6,27175,1,2,0:0:0:0:
448,141,27330,2,0,L|388:131,1,58.4999973220826
227,244,27486,1,2,3:2:0:0:
263,266,27563,1,2,0:0:0:0:
307,266,27641,1,10,0:0:0:0:
343,243,27719,1,2,0:0:0:0:
362,204,27796,1,2,0:0:0:0:
274,129,27952,6,0,L|285:203,1,58.4999973220826,2|0,3:2|0:0,0:0:0:0:
317,369,28107,1,2,3:2:0:0:
306,355,28185,1,2,0:0:0:0:
296,339,28263,2,0,L|362:349,1,58.4999973220826,10|0,0:0|0:0,0:0:0:0:
487,309,28418,1,2,0:0:0:0:
498,295,28496,1,2,0:0:0:0:
508,279,28574,2,0,L|442:289,1,58.4999973220826,2|0,0:0|0:0,0:0:0:0:
304,217,28729,1,2,3:2:0:0:
293,203,28807,1,2,0:0:0:0:
283,187,28886,21,10,0:0:0:0:
326,193,28963,1,2,0:0:0:0:
369,200,29041,1,2,0:0:0:0:
413,207,29119,1,2,0:0:0:0:
456,214,29196,70,0,L|434:77,1,116.999994644165,2|0,3:2|0:0,0:0:0:0:
433,18,29429,1,2,0:0:0:0:
433,18,29506,2,0,P|398:23|375:44,1,58.4999973220826,10|0,0:0|0:0,0:0:0:0:
225,124,29662,1,2,0:3:0:0:
218,111,29740,1,2,0:3:0:0:
211,98,29817,53,2,0:0:0:0:
239,91,29895,1,2,0:0:0:0:
272,102,29973,1,2,3:2:0:0:
295,140,30050,1,2,0:0:0:0:
283,187,30128,1,10,0:0:0:0:
246,221,30206,1,2,0:0:0:0:
216,265,30284,1,2,0:0:0:0:
219,320,30361,1,2,0:0:0:0:
260,356,30439,6,0,P|293:343|330:344,1,58.4999973220826,2|0,3:2|0:0,0:0:0:0:
433,381,30594,1,2,3:2:0:0:
463,372,30672,1,2,0:0:0:0:
483,340,30750,1,10,0:0:0:0:
473,296,30828,1,2,0:0:0:0:
433,268,30905,1,2,0:0:0:0:
385,276,30983,1,2,0:0:0:0:
349,308,31061,1,2,0:0:0:0:
315,342,31139,1,2,0:0:0:0:
279,360,31216,1,2,3:2:0:0:
249,358,31294,1,2,0:0:0:0:
231,343,31372,21,10,0:0:0:0:
275,314,31449,1,2,0:0:0:0:
282,262,31527,1,2,3:2:0:0:
246,221,31605,1,2,0:0:0:0:
193,222,31683,70,0,B|141:235|116:286|116:286|119:241|91:205,1,175.499991966248,4|0,3:1|0:0,0:0:0:0:
29,181,31993,1,10,0:0:0:0:
212,89,32149,1,2,0:0:0:0:
71,30,32304,2,0,L|81:95,1,58.4999973220826,2|0,0:0|0:0,0:0:0:0:
289,115,32460,1,2,3:2:0:0:
293,71,32537,1,2,0:0:0:0:
274,33,32615,1,10,0:0:0:0:
237,11,32693,1,2,0:0:0:0:
193,12,32770,1,2,0:0:0:0:
154,98,32926,54,0,L|225:86,1,58.4999973220826,2|0,3:2|0:0,0:0:0:0:
341,0,33082,1,2,3:2:0:0:
341,0,33159,1,2,0:0:0:0:
341,0,33237,2,0,L|386:55,1,58.4999973220826,10|0,0:0|0:0,0:0:0:0:
512,112,33392,1,2,0:0:0:0:
512,112,33470,1,2,0:0:0:0:
512,112,33548,2,0,L|486:179,1,58.4999973220826,2|0,0:0|0:0,0:0:0:0:
442,324,33703,1,2,3:2:0:0:
452,312,33781,1,2,0:0:0:0:
462,300,33860,5,10,0:0:0:0:
418,306,33937,1,2,0:0:0:0:
375,313,34015,1,2,0:0:0:0:
331,320,34093,1,2,0:0:0:0:
288,327,34170,22,0,B|283:294|254:268|254:268|284:287|311:282,1,116.999994644165,2|0,3:2|0:0,0:0:0:0:
361,196,34403,1,2,0:0:0:0:
361,196,34481,2,0,L|299:205,1,58.4999973220826,10|0,0:0|0:0,0:0:0:0:
117,232,34636,1,2,0:0:0:0:
107,220,34714,1,2,0:0:0:0:
97,208,34791,69,2,0:0:0:0:
119,172,34868,1,2,0:0:0:0:
160,157,34946,1,2,3:2:0:0:
201,170,35024,1,2,0:0:0:0:
228,202,35103,1,10,0:0:0:0:
255,236,35180,1,2,0:0:0:0:
296,247,35258,1,2,0:0:0:0:
336,233,35336,1,2,0:0:0:0:
361,196,35413,54,0,B|374:165|409:147|409:147|375:158|350:146,1,116.999994644165,2|0,3:2|3:2,0:0:0:0:
284,110,35646,1,2,0:0:0:0:
284,110,35724,2,0,L|293:172,1,58.4999973220826,8|0,0:0|0:0,0:0:0:0:
326,354,35879,1,2,0:0:0:0:
326,354,35957,1,2,0:0:0:0:
326,354,36035,5,2,0:0:0:0:
297,347,36112,1,2,0:0:0:0:
268,341,36190,1,2,3:2:0:0:
240,335,36268,1,2,0:0:0:0:
211,329,36345,21,10,0:0:0:0:
253,319,36424,1,2,0:0:0:0:
296,310,36502,1,2,3:2:0:0:
339,301,36580,1,2,0:0:0:0:
382,292,36657,70,0,B|337:254|350:222|350:222|400:176|351:111,1,175.499991966248,4|0,3:1|0:0,0:0:0:0:
284,110,36968,1,10,0:0:0:0:
449,0,37123,1,2,0:0:0:0:
425,147,37278,2,0,L|340:133,1,58.4999973220826,2|0,0:0|0:0,0:0:0:0:
200,98,37434,1,2,3:2:0:0:
201,141,37511,1,2,0:0:0:0:
224,177,37589,1,10,0:0:0:0:
263,196,37667,1,2,0:0:0:0:
306,191,37744,1,2,0:0:0:0:
321,64,37900,54,0,L|266:130,1,58.4999973220826,2|0,3:2|0:0,0:0:0:0:
203,253,38056,1,2,3:2:0:0:
196,269,38133,1,2,0:0:0:0:
189,286,38211,2,0,L|114:274,1,58.4999973220826,10|0,0:0|0:0,0:0:0:0:
0,178,38367,1,2,0:0:0:0:
7,194,38444,1,2,0:0:0:0:
14,211,38522,2,0,L|88:199,1,58.4999973220826,2|0,0:0|0:0,0:0:0:0:
200,98,38677,1,2,3:2:0:0:
193,114,38754,1,2,0:0:0:0:
186,131,38833,5,10,0:0:0:0:
142,124,38911,1,2,0:0:0:0:
99,117,38989,1,2,0:0:0:0:
55,110,39067,1,2,0:0:0:0:
12,103,39144,22,0,B|68:93|68:93|71:89|71:89|154:76,1,116.999994644165,2|0,3:2|0:0,0:0:0:0:
237,0,39377,1,2,0:0:0:0:
237,0,39455,2,0,L|261:63,1,58.4999973220826,10|0,0:0|0:0,0:0:0:0:
317,198,39610,1,2,0:0:0:0:
324,183,39688,1,2,0:0:0:0:
331,168,39765,69,2,0:0:0:0:
354,171,39843,1,2,0:0:0:0:
378,195,39921,1,2,3:2:0:0:
383,237,39999,1,2,0:0:0:0:
362,276,40076,1,10,0:0:0:0:
320,295,40154,1,2,0:0:0:0:
271,284,40232,1,2,0:0:0:0:
240,243,40310,1,2,0:0:0:0:
237,192,40387,54,0,L|224:271,1,58.4999973220826,2|0,3:2|0:0,0:0:0:0:
203,384,40543,1,2,3:2:0:0:
192,356,40620,1,2,0:0:0:0:
167,337,40698,1,10,0:0:0:0:
129,323,40776,1,2,0:0:0:0:
91,326,40854,1,2,0:0:0:0:
57,343,40931,1,2,0:0:0:0:
32,375,41009,5,2,0:0:0:0:
6,346,41087,1,2,0:0:0:0:
7,306,41164,1,0,3:2:0:0:
25,278,41242,1,2,0:0:0:0:
58,261,41320,1,10,0:0:0:0:
96,232,41398,1,2,0:0:0:0:
113,181,41475,1,2,3:2:0:0:
90,131,41553,1,2,0:0:0:0:
39,113,41631,22,0,B|52:197|52:197|56:201|56:201|69:286,1,175.499991966248,4|0,3:1|0:0,0:0:0:0:
88,356,41942,1,10,0:0:0:0:
228,250,42097,1,2,0:0:0:0:
203,384,42253,2,0,L|212:324,1,58.4999973220826,2|0,0:0|0:0,0:0:0:0:
238,163,42407,1,2,3:2:0:0:
278,178,42486,1,2,0:0:0:0:
305,211,42562,1,10,0:0:0:0:
312,254,42640,1,2,0:0:0:0:
296,294,42719,1,2,0:0:0:0:
170,259,42874,70,0,L|236:248,1,58.4999973220826,2|0,3:2|0:0,0:0:0:0:
354,185,43030,1,2,3:2:0:0:
358,202,43107,1,2,0:0:0:0:
363,220,43185,2,0,L|297:209,1,58.4999973220826,10|0,0:0|0:0,0:0:0:0:
182,105,43341,1,2,0:0:0:0:
176,122,43418,1,2,0:0:0:0:
171,140,43496,2,0,L|237:129,1,58.4999973220826,2|0,0:0|0:0,0:0:0:0:
366,25,43651,1,2,3:2:0:0:
372,42,43728,1,2,0:0:0:0:
377,60,43807,53,10,0:0:0:0:
333,53,43884,1,2,0:0:0:0:
290,46,43962,1,2,0:0:0:0:
246,39,44040,1,2,0:0:0:0:
203,32,44118,6,0,B|177:50|170:80|170:80|158:53|119:37,1,116.999994644165,2|0,3:2|0:0,0:0:0:0:
27,18,44351,1,2,0:0:0:0:
27,18,44429,2,0,L|38:88,1,58.4999973220826,10|0,0:0|0:0,0:0:0:0:
58,206,44584,1,2,0:0:0:0:
38,201,44662,1,2,0:0:0:0:
18,197,44740,21,2,0:0:0:0:
40,232,44817,1,2,0:0:0:0:
81,247,44895,1,2,3:2:0:0:
123,236,44973,1,2,0:0:0:0:
148,202,45050,1,10,0:0:0:0:
173,166,45128,1,2,0:0:0:0:
214,154,45206,1,2,0:0:0:0:
255,169,45284,1,2,0:0:0:0:
278,206,45361,70,0,B|287:148|287:148|291:144|291:144|303:73,1,116.999994644165,6|0,3:2|0:0,0:0:0:0:
211,22,45595,1,2,0:0:0:0:
211,22,45672,2,0,L|220:80,1,58.4999973220826,10|0,0:0|0:0,0:0:0:0:
362,195,45828,1,2,0:0:0:0:
390,202,45905,1,2,0:0:0:0:
419,196,45983,1,6,0:0:0:0:
441,167,46061,1,2,0:0:0:0:
441,127,46139,1,2,3:2:0:0:
409,97,46216,1,2,0:0:0:0:
394,60,46294,53,10,0:0:0:0:
406,21,46372,1,2,0:0:0:0:
452,3,46449,1,2,3:2:0:0:
496,18,46527,1,2,0:0:0:0:
507,62,46605,54,0,L|477:246,1,180,4|0,3:1|0:0,0:0:0:0:
294,182,47071,2,0,L|323:366,1,180,0|0,3:2|0:0,0:0:0:0:
325,65,47538,2,0,B|357:-11|436:22|436:22|422:51|433:82,1,180,0|0,3:2|0:0,0:0:0:0:
209,100,48004,2,0,B|164:128|118:115|118:115|87:67|32:81,1,180,0|0,3:2|0:0,0:0:0:0:
58,311,48470,2,0,L|34:162,1,135,0|0,3:2|0:0,0:0:0:0:
53,152,48781,2,0,L|64:212,1,45,0|0,3:2|0:0,0:0:0:0:
101,382,48936,1,0,3:2:0:0:
254,289,49092,6,0,B|226:245|162:254|142:306|142:306|171:325|180:354,1,180,4|0,3:2|0:0,0:0:0:0:
312,382,49558,2,0,P|402:364|499:352,1,180,0|0,3:2|0:0,0:0:0:0:
254,289,50025,2,0,P|344:271|441:259,1,180,0|0,3:2|0:0,0:0:0:0:
196,196,50491,2,0,P|286:178|383:166,1,180,0|0,3:2|0:0,0:0:0:0:
311,29,50957,1,0,3:2:0:0:
491,164,51113,1,0,3:2:0:0:
456,22,51268,70,2,L|449:60,6,22.5,2|2|2|2|2|2|2,0:3|0:3|0:3|0:3|0:3|0:3|0:3,0:3:0:0:
373,167,51579,6,0,B|309:170|286:105|286:105|323:119|358:95,1,180,4|0,3:2|0:0,0:0:0:0:
435,303,52045,2,0,B|498:306|521:241|521:241|484:255|449:231,1,180,0|0,3:2|0:0,0:0:0:0:
297,289,52512,2,0,B|250:269|208:301|208:301|181:353|109:343,1,180,0|0,3:2|0:0,0:0:0:0:
50,250,52978,2,0,B|26:228|42:176|100:157|146:209|131:277,1,180,0|0,3:0|0:0,0:0:0:0:
29,384,53444,2,0,L|53:227,1,135,0|0,3:2|0:0,0:0:0:0:
108,139,53755,2,0,L|117:200,1,45,0|0,3:2|0:0,0:0:0:0:
139,344,53911,1,0,3:2:0:0:
297,289,54066,70,0,L|236:279,1,53.9999983520508,4|0,3:2|0:0,0:0:0:0:
191,166,54221,2,0,B|247:156|283:124|283:124|263:155|257:180,1,161.999995056153,2|0,0:3|0:0,0:0:0:0:
258,177,54532,2,0,L|267:115,1,53.9999983520508,0|0,3:2|0:0,0:0:0:0:
282,21,54688,2,0,B|322:5|363:46|363:46|387:100|443:93,1,161.999995056153,2|0,0:3|0:0,0:0:0:0:
488,6,54999,2,0,P|457:8|428:36,1,53.9999983520508,0|0,3:0|0:0,0:0:0:0:
266,123,55154,6,0,B|185:110|185:110|181:103|181:103|95:89,1,161.999995056153,2|0,0:3|0:0,0:0:0:0:
20,36,55465,2,0,L|30:102,1,53.9999983520508,0|0,3:0|0:0,0:0:0:0:
101,232,55620,2,0,B|163:225|158:152|158:152|129:174|93:167,1,161.999995056153,2|0,0:3|0:0,0:0:0:0:
36,163,55931,70,2,L|38:180,14,18,2|2|2|2|2|2|2|2|2|2|2|2|2|2|2,3:3|0:3|0:3|0:3|0:3|0:3|0:3|0:3|0:3|0:3|0:3|0:3|0:3|0:3|0:3,0:3:0:0:
41,138,56553,22,0,L|32:191,1,53.9999983520508,4|0,3:1|0:0,0:0:0:0:
2,344,56708,2,0,L|164:319,1,161.999995056153,2|0,0:3|0:0,0:0:0:0:
162,319,57019,2,0,L|153:265,1,53.9999983520508,0|0,3:2|0:0,0:0:0:0:
110,91,57175,6,0,L|272:116,1,161.999995056153,2|0,0:3|0:0,0:0:0:0:
270,116,57486,2,0,L|261:170,1,53.9999983520508,0|0,3:0|0:0,0:0:0:0:
238,322,57641,70,0,L|400:297,1,161.999995056153,2|0,0:3|0:0,0:0:0:0:
398,297,57952,2,0,L|389:243,1,53.9999983520508,0|0,3:2|0:0,0:0:0:0:
362,101,58107,1,2,0:3:0:0:
510,190,58263,1,2,0:3:0:0:
507,75,58418,2,0,L|453:83,1,53.9999983520508,0|0,3:2|0:0,0:0:0:0:
270,116,58574,1,2,0:3:0:0:
371,47,58729,2,0,L|361:108,1,53.9999983520508,0|0,3:2|0:0,0:0:0:0:
197,188,58885,2,0,L|187:126,1,53.9999983520508,2|0,3:3|0:0,0:0:0:0:
169,2,59040,5,0,3:2:0:0:
64,123,59196,1,8,0:0:0:0:
64,123,59273,1,8,0:0:0:0:
64,123,59351,1,8,0:0:0:0:
42,32,59506,69,0,3:2:0:0:
196,142,59662,1,8,0:0:0:0:
196,142,59740,1,8,0:0:0:0:
196,142,59817,1,8,0:0:0:0:
149,74,59973,5,0,3:2:0:0:
38,201,60128,1,8,0:0:0:0:
38,201,60206,1,8,0:0:0:0:
38,201,60283,1,8,0:0:0:0:
64,123,60439,69,0,3:2:0:0:
187,227,60594,1,8,0:0:0:0:
187,227,60672,1,8,0:0:0:0:
187,227,60750,1,8,0:0:0:0:
196,142,60905,5,0,3:2:0:0:
84,275,61061,1,8,0:0:0:0:
84,275,61139,1,8,0:0:0:0:
84,275,61216,2,2,L|89:308,6,22.5,2|2|2|2|2|2|2,3:2|0:3|0:3|0:3|0:3|0:3|0:3,0:3:0:0:
151,366,61527,21,8,3:2:0:0:
183,372,61604,1,8,0:0:0:0:
217,366,61682,1,8,0:0:0:0:
246,350,61760,1,8,0:0:0:0:
268,325,61837,1,8,0:0:0:0:
386,285,61994,69,8,3:2:0:0:
353,278,62071,1,8,0:0:0:0:
319,284,62149,1,8,0:0:0:0:
290,300,62227,1,8,0:0:0:0:
268,325,62304,1,8,0:0:0:0:
176,274,62460,5,8,3:2:0:0:
176,287,62538,1,8,0:0:0:0:
189,292,62616,1,8,0:0:0:0:
196,281,62693,1,8,0:0:0:0:
189,270,62770,1,8,0:0:0:0:
357,374,62926,69,8,3:2:0:0:
357,361,63004,1,8,0:0:0:0:
344,356,63082,1,8,0:0:0:0:
337,367,63159,1,8,0:0:0:0:
344,378,63236,1,8,0:0:0:0:
386,285,63392,5,8,3:2:0:0:
353,278,63469,1,8,0:0:0:0:
319,284,63547,1,8,0:0:0:0:
290,300,63625,1,8,0:0:0:0:
268,325,63702,1,8,3:2:0:0:
246,350,63781,1,8,0:0:0:0:
217,366,63859,1,8,3:2:0:0:
183,372,63937,1,8,0:0:0:0:
151,366,64014,69,8,3:2:0:0:
173,341,64092,1,8,0:0:0:0:
202,325,64170,1,8,3:2:0:0:
236,319,64248,1,8,0:0:0:0:
268,325,64325,1,8,3:2:0:0:
386,285,64481,5,8,3:2:0:0:
364,310,64559,1,8,0:0:0:0:
335,326,64637,1,8,3:2:0:0:
301,332,64715,1,8,0:0:0:0:
268,325,64792,69,8,3:2:0:0:
263,288,64869,1,8,3:2:0:0:
272,252,64947,1,8,3:2:0:0:
295,222,65025,1,8,3:2:0:0:
328,204,65102,1,8,3:2:0:0:
365,200,65180,1,8,3:2:0:0:
401,211,65258,6,0,L|392:154,1,45,12|0,3:2|0:0,0:0:0:0:
495,44,65413,1,8,3:2:0:0:
495,44,65491,1,8,3:2:0:0:
495,44,65569,2,0,L|486:101,1,45,0|0,3:2|0:0,0:0:0:0:
476,189,65724,1,0,3:2:0:0:
476,189,65802,1,0,3:2:0:0:
255,193,66501,69,4,3:2:0:0:
190,352,76449,22,0,B|146:337|140:287|140:287|150:390|26:425|-56:351|-18:245|29:221|86:232,1,440.999986541748,4|0,3:2|0:0,0:0:0:0:
299,219,77693,2,0,B|281:140|178:136|142:210|142:210|210:216|217:289,1,314.999990386963,2|2,0:0|0:0,0:0:0:0:
273,352,78626,1,2,0:0:0:0:
345,294,78781,1,2,0:0:0:0:
440,369,78936,6,0,B|468:356|492:371|492:371|470:350|464:320,2,108,2|2|2,0:0|0:0|0:0,0:0:0:0:
345,294,80180,70,0,B|356:216|311:164|311:164|353:210|423:203,1,251.999992309571,2|2,0:0|0:0,0:0:0:0:
413,204,81424,6,0,B|329:210|284:125|284:125|220:57|135:104,1,314.999990386963,2|2,0:0|0:0,0:0:0:0:
65,152,82356,1,2,0:0:0:0:
61,61,82512,1,2,0:0:0:0:
155,188,82667,70,0,B|164:295|58:303|58:303|39:255|85:216,1,251.999992309571,2|2,0:0|0:0,0:0:0:0:
71,229,83911,5,2,0:0:0:0:
248,169,84377,1,2,0:0:0:0:
425,109,84843,1,2,0:0:0:0:
425,109,85154,69,2,0:0:0:0:
425,109,85776,1,2,0:0:0:0:
425,109,86398,5,6,3:2:0:0:
348,168,86553,2,0,L|352:197,2,26.9999991760254,2|2|2,0:0|0:0|0:0,0:0:0:0:
327,74,87019,1,2,0:0:0:0:
327,74,87642,69,2,0:0:0:0:
311,45,87797,1,2,0:0:0:0:
279,52,87953,1,2,0:0:0:0:
275,84,88108,1,2,0:0:0:0:
305,98,88263,1,2,0:0:0:0:
305,98,88885,5,2,0:0:0:0:
275,84,89040,1,2,0:0:0:0:
242,86,89196,1,2,0:0:0:0:
215,104,89351,1,2,0:0:0:0:
86,61,89506,1,2,0:0:0:0:
86,61,92615,6,0,L|96:125,1,58.4999973220826,4|0,3:1|0:0,0:0:0:0:
117,263,92771,1,2,0:3:0:0:
89,249,92848,1,2,0:3:0:0:
82,221,92926,1,8,0:0:0:0:
98,196,93004,1,2,0:3:0:0:
127,193,93082,2,0,P|160:208|197:204,1,58.4999973220826,2|0,0:0|0:0,0:0:0:0:
316,160,93237,5,2,0:3:0:0:
319,140,93315,1,2,0:3:0:0:
322,121,93392,2,0,L|261:131,1,58.4999973220826,2|0,3:2|0:0,0:0:0:0:
86,61,93548,1,8,0:0:0:0:
83,41,93626,1,2,0:3:0:0:
80,22,93703,2,0,L|141:32,1,58.4999973220826,2|0,0:0|0:0,0:0:0:0:
278,53,93859,21,0,3:2:0:0:
181,208,94014,2,0,L|190:147,1,58.4999973220826,2|0,3:2|0:0,0:0:0:0:
251,290,94170,2,0,L|260:229,1,58.4999973220826,10|0,0:0|0:0,0:0:0:0:
321,372,94325,2,0,L|330:311,1,58.4999973220826,2|0,0:0|0:0,0:0:0:0:
335,178,94481,69,2,0:2:0:0:
363,211,94558,1,2,0:3:0:0:
404,227,94636,1,2,3:2:0:0:
447,223,94714,1,2,0:3:0:0:
483,200,94791,1,10,0:2:0:0:
505,162,94869,1,2,0:3:0:0:
507,119,94947,1,2,0:2:0:0:
488,79,95025,1,2,0:3:0:0:
454,53,95102,54,0,L|375:65,1,58.4999973220826,2|0,3:2|0:0,0:0:0:0:
249,37,95258,1,2,0:3:0:0:
244,19,95335,1,2,0:3:0:0:
240,0,95413,2,0,L|318:12,1,58.4999973220826,10|0,0:0|0:0,0:0:0:0:
269,128,95569,1,2,0:0:0:0:
240,132,95646,1,2,0:3:0:0:
211,125,95724,1,2,0:3:0:0:
188,108,95802,1,2,0:3:0:0:
172,83,95879,6,0,P|167:120|161:151,1,58.4999973220826,2|0,3:2|0:0,0:0:0:0:
67,198,96035,2,0,P|93:214|120:241,1,58.4999973220826,10|0,0:0|0:0,0:0:0:0:
114,346,96190,2,0,P|142:331|178:321,1,58.4999973220826,2|0,0:0|0:0,0:0:0:0:
265,379,96346,22,0,P|266:347|276:311,1,58.4999973220826,0|0,3:2|0:0,0:0:0:0:
324,214,96501,1,2,3:2:0:0:
343,195,96579,1,2,0:0:0:0:
371,184,96657,1,10,0:0:0:0:
404,183,96734,1,2,0:0:0:0:
439,193,96812,1,2,0:0:0:0:
466,217,96890,1,2,0:0:0:0:
481,250,96968,69,2,0:0:0:0:
447,234,97045,1,2,0:0:0:0:
439,193,97123,1,2,3:2:0:0:
457,159,97201,1,2,0:0:0:0:
486,143,97278,1,10,0:0:0:0:
512,111,97356,1,2,0:0:0:0:
511,61,97434,1,2,3:2:0:0:
479,20,97512,1,2,0:0:0:0:
425,20,97589,54,0,L|416:77,1,58.4999973220826,6|0,3:2|0:0,0:0:0:0:
289,144,97745,1,2,0:3:0:0:
267,121,97822,1,2,0:3:0:0:
269,91,97900,1,8,0:2:0:0:
292,72,97978,1,2,0:3:0:0:
322,75,98056,2,0,L|262:65,1,58.4999973220826,2|0,0:0|0:0,0:0:0:0:
124,33,98211,5,2,0:3:0:0:
116,49,98289,1,2,0:3:0:0:
109,66,98367,2,0,L|169:56,1,58.4999973220826,2|0,3:2|0:0,0:0:0:0:
289,144,98522,1,8,0:0:0:0:
297,160,98600,1,2,0:3:0:0:
304,177,98678,2,0,L|244:167,1,58.4999973220826,2|0,0:0|0:0,0:0:0:0:
76,136,98833,21,0,3:2:0:0:
195,239,98988,2,0,L|137:229,1,58.4999973220826,2|0,3:2|0:0,0:0:0:0:
271,343,99144,2,0,L|213:333,1,58.4999973220826,10|0,0:0|0:0,0:0:0:0:
382,276,99299,2,0,L|324:266,1,58.4999973220826,2|0,0:0|0:0,0:0:0:0:
403,369,99455,1,2,0:0:0:0:
421,368,99532,1,2,0:3:0:0:
439,365,99610,2,0,P|461:343|474:305,1,58.4999973220826,2|0,3:2|0:0,0:0:0:0:
409,167,99765,1,10,0:0:0:0:
402,184,99843,1,2,0:3:0:0:
396,201,99921,2,0,L|454:191,1,58.4999973220826,2|0,0:0|0:0,0:0:0:0:
512,71,100076,70,0,L|454:81,1,58.4999973220826,2|0,3:2|0:0,0:0:0:0:
315,49,100232,1,2,0:3:0:0:
329,37,100310,1,2,0:3:0:0:
343,26,100387,2,0,L|352:88,1,58.4999973220826,8|0,0:0|0:0,0:0:0:0:
287,180,100543,1,2,0:0:0:0:
262,164,100620,1,2,0:3:0:0:
234,155,100698,1,2,0:3:0:0:
205,154,100776,1,2,0:3:0:0:
176,160,100854,54,0,P|182:133|185:98,1,58.4999973220826,2|0,3:2|0:0,0:0:0:0:
145,260,101009,2,0,P|123:239|96:220,1,58.4999973220826,10|0,0:0|0:0,0:0:0:0:
216,336,101164,2,0,P|184:344|158:358,1,58.4999973220826,2|0,0:0|0:0,0:0:0:0:
34,384,101320,6,0,L|23:314,1,58.4999973220826,0|0,3:2|0:0,0:0:0:0:
12,192,101475,1,2,3:2:0:0:
38,159,101553,1,2,0:0:0:0:
72,140,101631,1,10,0:0:0:0:
104,134,101708,1,2,0:0:0:0:
132,135,101786,1,2,0:0:0:0:
155,143,101864,1,2,0:0:0:0:
176,160,101942,21,2,0:0:0:0:
153,175,102019,1,2,0:0:0:0:
118,165,102097,1,2,3:2:0:0:
104,134,102175,1,2,0:0:0:0:
111,95,102253,1,10,0:0:0:0:
134,55,102330,1,2,0:0:0:0:
113,11,102408,1,2,3:2:0:0:
66,2,102486,1,2,0:0:0:0:
23,27,102563,70,0,L|33:95,1,67.5,6|0,0:0|0:0,0:0:0:0:
11,113,103185,53,8,3:2:0:0:
61,104,103262,1,8,3:2:0:0:
111,95,103340,1,8,3:2:0:0:
163,87,103418,1,8,3:2:0:0:
214,79,103495,1,8,3:2:0:0:
264,71,103573,1,8,3:2:0:0:
316,62,103651,1,8,3:2:0:0:
367,55,103729,1,8,3:2:0:0:
415,46,103807,6,0,B|383:23|383:23|304:35,1,116.999994644165,2|0,3:0|0:0,0:0:0:0:
357,132,104040,2,0,B|389:155|389:155|468:143,1,116.999994644165,2|0,3:0|0:0,0:0:0:0:
501,9,104273,2,0,L|489:79,1,58.4999973220826,2|0,3:0|0:0,0:0:0:0:
451,225,104429,1,8,3:2:0:0:
357,132,104584,22,2,L|332:112,2,29.2499986610413,2|2|2,0:3|0:3|0:3,0:3:0:0:
463,236,104740,1,0,3:2:0:0:
317,260,104895,70,2,L|288:271,2,29.2499986610413,2|2|2,0:3|0:3|0:3,0:3:0:0:
468,218,105050,54,0,B|516:180|479:108|434:105|434:105|441:128|434:149,1,175.499991966248,4|0,3:1|0:0,0:0:0:0:
385,203,105361,2,0,L|395:268,1,58.4999973220826,8|0,0:0|0:0,0:0:0:0:
495,352,105517,2,0,B|455:311|409:345|409:345|380:381|339:374,1,175.499991966248,2|0,0:0|0:0,0:0:0:0:
268,320,105828,2,0,P|287:297|280:255,1,58.4999973220826,2|0,3:2|0:0,0:0:0:0:
127,286,105983,2,0,P|136:314|176:329,1,58.4999973220826,10|0,0:0|0:0,0:0:0:0:
226,180,106139,2,0,P|196:173|163:201,1,58.4999973220826,2|0,0:0|0:0,0:0:0:0:
28,274,106294,6,0,L|37:212,1,58.4999973220826,0|0,3:2|0:0,0:0:0:0:
81,63,106449,1,2,3:2:0:0:
93,72,106527,1,2,0:0:0:0:
105,81,106605,21,10,0:0:0:0:
110,61,106683,1,2,0:0:0:0:
93,41,106760,1,2,0:0:0:0:
62,32,106838,1,2,0:0:0:0:
28,48,106916,1,2,0:0:0:0:
17,85,106993,1,2,0:0:0:0:
33,127,107071,1,2,3:2:0:0:
75,158,107149,1,2,0:0:0:0:
117,187,107227,1,10,0:0:0:0:
134,235,107304,1,2,0:0:0:0:
127,286,107382,1,2,3:2:0:0:
97,330,107460,1,2,0:0:0:0:
44,342,107538,70,0,B|69:296|132:284|174:325|174:325|185:363|227:368,1,202.500007724762,4|0,3:2|0:0,0:0:0:0:
280,374,107848,1,8,0:0:0:0:
278,255,108004,1,2,0:0:0:0:
261,247,108082,1,2,0:3:0:0:
244,240,108159,2,0,L|254:307,1,58.4999973220826,2|0,0:3|0:0,0:0:0:0:
364,164,108315,1,2,3:2:0:0:
381,156,108393,1,2,0:3:0:0:
398,149,108470,2,0,L|388:216,1,58.4999973220826,8|0,0:0|0:0,0:0:0:0:
278,73,108626,1,2,0:0:0:0:
261,65,108704,1,2,0:3:0:0:
244,58,108781,54,0,L|254:125,1,58.4999973220826,2|0,3:2|0:0,0:0:0:0:
244,240,108936,2,0,L|186:230,1,58.4999973220826,2|0,3:2|0:0,0:0:0:0:
34,193,109092,2,0,L|91:183,1,58.4999973220826,10|0,0:0|0:0,0:0:0:0:
172,84,109247,2,0,L|114:74,1,58.4999973220826,2|0,0:0|0:0,0:0:0:0:
0,7,109403,6,0,L|9:67,1,58.4999973220826,2|0,0:0|0:0,0:0:0:0:
36,80,109558,2,0,L|26:19,1,58.4999973220826,2|0,3:2|0:0,0:0:0:0:
45,174,109714,2,0,L|102:164,1,58.4999973220826,10|0,0:0|0:0,0:0:0:0:
188,68,109869,2,0,L|130:58,1,58.4999973220826,2|0,0:0|0:0,0:0:0:0:
242,162,110025,22,0,B|290:181|331:148|331:148|356:100|410:109,1,175.499991966248,2|0,3:2|0:0,0:0:0:0:
468,144,110335,1,10,0:0:0:0:
476,6,110491,2,0,L|465:75,1,58.4999973220826,2|0,0:0|0:0,0:0:0:0:
432,213,110646,1,2,0:3:0:0:
417,201,110724,1,2,0:3:0:0:
401,190,110802,70,0,L|411:259,1,58.4999973220826,2|0,3:2|0:0,0:0:0:0:
440,364,110957,2,0,L|375:338,1,58.4999973220826,10|0,0:0|0:0,0:0:0:0:
269,310,111113,2,0,L|323:266,1,58.4999973220826,2|0,0:0|0:0,0:0:0:0:
468,144,111268,54,0,L|404:111,1,58.4999973220826,6|0,3:2|0:0,0:0:0:0:
304,23,111424,1,2,3:2:0:0:
280,15,111501,1,2,0:0:0:0:
247,19,111579,1,10,0:0:0:0:
218,36,111657,1,2,0:0:0:0:
201,67,111734,1,2,0:0:0:0:
184,101,111812,1,2,0:0:0:0:
152,125,111890,1,6,0:0:0:0:
112,134,111968,1,2,0:0:0:0:
75,130,112045,1,2,3:2:0:0:
41,108,112123,1,2,0:0:0:0:
26,69,112201,5,10,0:0:0:0:
35,114,112278,1,2,0:0:0:0:
44,159,112356,1,2,0:0:0:0:
53,204,112434,1,2,0:0:0:0:
62,249,112512,22,0,B|116:208|172:248|173:298|173:298|136:288|101:314,1,202.500007724762,4|0,3:1|0:0,0:0:0:0:
50,331,112822,1,10,0:0:0:0:
150,379,112978,2,0,L|218:368,1,58.4999973220826,2|0,0:0|0:0,0:0:0:0:
348,300,113133,1,2,0:3:0:0:
355,317,113211,1,2,0:3:0:0:
362,334,113289,2,0,L|294:323,1,58.4999973220826,2|0,0:0|0:0,0:0:0:0:
198,219,113444,2,0,L|266:208,1,58.4999973220826,10|0,0:0|0:0,0:0:0:0:
345,130,113600,2,0,L|388:183,1,58.4999973220826,2|0,0:0|0:0,0:0:0:0:
495,212,113755,70,0,L|470:276,1,58.4999973220826,2|0,3:2|0:0,0:0:0:0:
348,299,113910,1,2,3:2:0:0:
361,258,113987,1,2,0:3:0:0:
397,234,114065,1,10,0:0:0:0:
440,237,114143,1,2,0:3:0:0:
473,266,114221,2,0,L|495:212,1,58.4999973220826,2|0,0:0|0:0,0:0:0:0:
496,49,114377,1,0,0:0:0:0:
504,66,114455,1,2,0:3:0:0:
512,82,114532,54,0,L|439:71,1,58.4999973220826,2|0,3:2|0:0,0:0:0:0:
360,0,114688,2,0,L|313:57,1,58.4999973220826,10|0,0:2|0:0,0:0:0:0:
213,90,114843,2,0,L|238:159,1,58.4999973220826,2|0,0:2|0:0,0:0:0:0:
274,271,114999,6,0,L|217:262,1,58.4999973220826,2|0,0:2|0:0,0:0:0:0:
86,173,115154,1,2,0:3:0:0:
76,188,115232,1,2,0:3:0:0:
67,204,115310,2,0,L|124:194,1,58.4999973220826,10|0,0:2|0:0,0:0:0:0:
243,17,115465,1,2,0:0:0:0:
200,9,115542,1,2,0:3:0:0:
160,25,115620,1,2,0:3:0:0:
135,61,115698,1,2,0:3:0:0:
133,104,115776,22,0,L|122:40,1,58.4999973220826,2|0,3:2|0:0,0:0:0:0:
222,147,115931,2,0,L|211:83,1,58.4999973220826,10|0,0:0|0:0,0:0:0:0:
311,190,116087,2,0,L|300:126,1,58.4999973220826,2|0,0:0|0:0,0:0:0:0:
414,57,116242,70,0,L|404:114,1,58.4999973220826,2|0,3:2|0:0,0:0:0:0:
369,269,116398,1,2,3:2:0:0:
382,260,116475,1,2,0:0:0:0:
406,258,116553,1,10,0:0:0:0:
425,269,116631,1,2,0:0:0:0:
436,291,116708,1,2,0:0:0:0:
434,322,116786,1,2,0:0:0:0:
408,341,116864,53,2,0:0:0:0:
369,351,116942,1,2,0:0:0:0:
331,344,117019,1,2,3:2:0:0:
302,331,117097,1,2,0:0:0:0:
278,302,117175,1,10,0:0:0:0:
236,280,117253,1,2,0:0:0:0:
183,273,117330,1,2,3:2:0:0:
132,289,117408,1,2,0:0:0:0:
95,329,117486,6,0,B|49:283|31:243|31:243|44:284|46:327,1,175.499991966248,4|0,3:1|0:0,0:0:0:0:
40,384,117797,1,10,0:0:0:0:
19,172,117952,2,0,P|52:172|81:193,1,58.4999973220826,2|0,0:0|0:0,0:0:0:0:
183,273,118107,1,2,0:3:0:0:
198,285,118185,1,2,0:3:0:0:
214,295,118263,2,0,L|203:231,1,58.4999973220826,2|0,3:2|0:0,0:0:0:0:
298,131,118418,2,0,L|287:194,1,58.4999973220826,10|0,0:0|0:0,0:0:0:0:
148,186,118574,2,0,P|175:162|206:160,1,58.4999973220826,2|0,0:0|0:0,0:0:0:0:
364,218,118729,22,0,P|391:242|422:244,1,58.4999973220826,2|0,3:2|0:0,0:0:0:0:
472,104,118885,1,2,3:2:0:0:
428,110,118962,1,2,0:3:0:0:
385,117,119040,1,2,0:0:0:0:
341,124,119118,1,2,0:3:0:0:
298,131,119196,2,0,L|308:67,1,58.4999973220826,2|0,0:0|0:0,0:0:0:0:
181,11,119351,1,2,0:3:0:0:
163,6,119429,1,2,0:3:0:0:
144,2,119507,70,0,L|154:66,1,58.4999973220826,2|0,3:2|0:0,0:0:0:0:
93,164,119662,2,0,L|153:187,1,58.4999973220826,10|0,0:0|0:0,0:0:0:0:
207,289,119817,2,0,L|257:248,1,58.4999973220826,2|0,0:0|0:0,0:0:0:0:
362,194,119973,54,0,L|372:252,1,58.4999973220826,2|0,3:2|0:0,0:0:0:0:
458,361,120128,1,2,0:0:0:0:
471,373,120206,1,2,0:3:0:0:
485,384,120284,2,0,L|494:326,1,58.4999973220826,10|0,0:0|0:0,0:0:0:0:
509,163,120439,1,2,0:0:0:0:
471,142,120516,1,2,0:3:0:0:
428,141,120594,1,2,0:3:0:0:
388,159,120672,1,2,0:3:0:0:
362,194,120750,6,0,L|371:136,1,58.4999973220826,2|0,3:2|0:0,0:0:0:0:
314,301,120905,2,0,L|368:279,1,58.4999973220826,8|0,0:0|0:0,0:0:0:0:
197,312,121061,2,0,L|242:348,1,58.4999973220826,2|0,0:0|0:0,0:0:0:0:
128,216,121216,22,0,L|119:274,1,58.4999973220826,2|0,3:2|0:0,0:0:0:0:
75,384,121372,1,2,3:2:0:0:
48,369,121449,1,2,0:0:0:0:
35,340,121527,1,10,3:2:0:0:
44,302,121605,1,2,0:0:0:0:
76,276,121683,1,2,0:0:0:0:
119,273,121760,1,2,0:0:0:0:
158,304,121839,69,2,0:0:0:0:
196,354,121916,1,2,0:0:0:0:
258,374,121994,1,2,3:2:0:0:
318,352,122072,1,2,0:0:0:0:
356,299,122149,1,10,0:0:0:0:
353,234,122227,1,2,0:0:0:0:
313,183,122305,1,2,3:2:0:0:
251,166,122383,1,2,0:0:0:0:
190,189,122460,22,0,L|200:123,1,53.9999983520508,6|0,3:2|0:0,0:0:0:0:
220,1,122615,1,2,0:3:0:0:
73,41,122771,2,0,L|83:107,1,53.9999983520508,2|0,3:2|0:0,0:0:0:0:
101,245,122926,2,0,B|48:215|22:176|22:176|45:217|50:263,1,188.999994232178,4|0,3:2|0:0,0:0:0:0:
89,322,123237,2,0,L|148:312,1,53.9999983520508,0|0,3:2|0:0,0:0:0:0:
341,267,123392,2,0,L|170:241,1,161.999995056153,4|0,3:2|0:0,0:0:0:0:
181,242,123703,6,0,L|190:184,1,53.9999983520508,0|0,3:2|0:0,0:0:0:0:
212,20,123859,2,0,P|147:64|73:41,1,161.999995056153,4|0,3:2|0:0,0:0:0:0:
5,17,124170,1,0,3:2:0:0:
25,125,124325,2,0,L|34:179,1,53.9999983520508,2|0,3:0|0:0,0:0:0:0:
181,242,124481,2,0,L|189:188,1,53.9999983520508,0|0,3:0|0:0,0:0:0:0:
49,273,124636,2,0,L|58:327,1,53.9999983520508,2|0,3:0|0:0,0:0:0:0:
159,384,124791,2,0,L|167:330,1,53.9999983520508,0|0,3:0|0:0,0:0:0:0:
280,209,124947,70,0,L|288:262,1,53.9999983520508,4|0,3:2|0:0,0:0:0:0:
307,384,125102,2,0,P|356:327|446:337,1,161.999995056153,2|0,0:3|0:0,0:0:0:0:
512,350,125413,2,0,L|503:296,1,53.9999983520508,0|0,3:2|0:0,0:0:0:0:
488,160,125569,1,8,0:0:0:0:
488,160,125646,1,8,0:0:0:0:
488,160,125724,1,8,0:0:0:0:
366,237,125879,2,0,L|374:183,1,53.9999983520508,0|0,3:2|0:0,0:0:0:0:
395,33,126035,1,8,0:0:0:0:
395,33,126112,1,8,0:0:0:0:
395,33,126190,1,8,0:0:0:0:
128,190,126346,5,4,3:2:0:0:
180,178,126423,1,8,0:0:0:0:
233,167,126501,1,8,0:0:0:0:
286,156,126579,1,8,0:0:0:0:
339,145,126656,1,8,0:0:0:0:
402,188,126812,5,2,3:3:0:0:
374,184,126889,1,2,0:3:0:0:
298,173,126968,5,2,3:3:0:0:
270,169,127045,1,2,0:3:0:0:
194,158,127124,21,2,3:3:0:0:
166,154,127201,1,2,0:3:0:0:
90,143,127278,69,2,3:3:0:0:
62,139,127356,1,2,0:3:0:0:
402,188,127745,22,0,L|398:168,2,18,6|2|2,3:2|0:0|0:0,0:0:0:0:
413,267,128211,5,2,0:0:0:0:
413,267,128988,5,2,0:0:0:0:
336,284,129144,5,2,0:0:0:0:
259,301,129299,21,2,0:0:0:0:
181,318,129455,69,2,0:0:0:0:
