osu file format v14

[General]
AudioFilename: audio.mp3
AudioLeadIn: 0
PreviewTime: 66512
Countdown: 0
SampleSet: Soft
StackLeniency: 0.5
Mode: 0
LetterboxInBreaks: 0
WidescreenStoryboard: 0

[Editor]
Bookmarks: 606,5580,11797,16771,21745,26719,31694,36668,41642,46616,51590,56564,61538,66512,71486,76460,81435,86409,92626,102574,103196,104440,105061,112212,112523,122471,127756,129466
DistanceSpacing: 0.8
BeatDivisor: 4
GridSize: 32
TimelineZoom: 3.199998

[Metadata]
Title:Disorder
TitleUnicode:Disorder
Artist:HyuN feat. YURI
ArtistUnicode:HyuN feat. YURI
Creator:eiri-
Version:Normal
Source:Muse Dash
Tags:Ayyri BMS MaridiuS Plaudible Skytuna Acylica Acyl Sylas TheKoala Featured Artist FA Depressive Electronic Video Game English Phigros G2R2018 GO BACK 2 YOUR ROOTS 2018
BeatmapID:2563912
BeatmapSetID:1229471

[Difficulty]
HPDrainRate:4
CircleSize:3
OverallDifficulty:5
ApproachRate:6
SliderMultiplier:1.2
SliderTickRate:1

[Events]
//Background and Video events
0,0,"Disorder.jpg",0,0
//Break Periods
//Storyboard Layer 0 (Background)
//Storyboard Layer 1 (Fail)
//Storyboard Layer 2 (Pass)
//Storyboard Layer 3 (Foreground)
//Storyboard Layer 4 (Overlay)
//Storyboard Sound Samples

[TimingPoints]
606,310.880829015544,4,2,1,50,1,0
11797,-100,4,2,1,75,0,0
21745,-100,4,2,1,90,0,0
26719,-100,4,2,1,75,0,0
46616,-100,4,2,1,90,0,0
56564,-100,4,2,1,95,0,0
66512,-100,4,2,1,60,0,0
86409,-100,4,2,1,50,0,0
92004,-100,4,2,1,60,0,0
92315,-100,4,2,1,80,0,0
92626,-100,4,2,1,100,0,1
102574,-100,4,2,1,100,0,0
103196,-100,4,2,1,100,0,1
104440,-100,4,2,1,100,0,0
105061,-100,4,2,1,100,0,1
112212,-100,4,2,1,100,0,0
112523,-100,4,2,1,100,0,1
122471,-100,4,2,1,90,0,0
127756,-100,4,2,1,75,0,0
128999,-100,4,2,1,50,0,0

[Colours]
Combo1 : 135,235,243
Combo2 : 101,184,245
Combo3 : 189,138,247
Combo4 : 243,118,184

[HitObjects]
96,288,606,6,0,L|88:220,2,60,14|2|2,0:0|0:0|0:0,0:0:0:0:
133,326,1072,1,2,0:0:0:0:
133,326,1227,1,2,0:0:0:0:
274,196,1849,6,0,L|282:128,2,60,2|2|2,0:0|0:0|0:0,0:0:0:0:
237,234,2315,1,2,0:0:0:0:
237,234,2470,1,2,0:0:0:0:
94,104,3093,6,0,L|26:96,2,60,2|2|2,0:0|0:0|0:0,0:0:0:0:
132,141,3559,1,2,0:0:0:0:
132,141,3714,1,2,0:0:0:0:
311,71,4336,6,0,L|379:63,2,60,2|2|2,0:0|0:0|0:0,0:0:0:0:
273,108,4802,1,2,0:0:0:0:
273,108,4957,1,2,0:0:0:0:
392,258,5580,6,0,L|384:326,2,60,2|2|2,0:0|0:0|0:0,0:0:0:0:
429,220,6046,1,2,0:0:0:0:
429,220,6201,1,2,0:0:0:0:
253,298,6823,6,0,L|261:366,2,60,2|2|2,0:0|0:0|0:0,0:0:0:0:
216,260,7289,1,2,0:0:0:0:
216,260,7444,1,2,0:0:0:0:
279,78,8067,6,0,L|271:10,2,60,2|2|2,0:0|0:0|0:0,0:0:0:0:
316,116,8533,1,2,0:0:0:0:
316,116,8688,1,2,0:0:0:0:
66,365,11797,6,0,P|57:308|36:226,1,120,14|2,0:0|1:2,0:0:0:0:
69,207,12264,2,0,P|78:150|99:68,1,120,2|10,0:0|0:0,0:0:0:0:
118,48,12730,1,2,1:2:0:0:
205,87,13041,2,0,P|245:78|279:74,2,60,14|10|2,0:0|0:0|1:2,0:0:0:0:
206,135,13507,2,0,P|246:144|343:156,1,120,2|10,0:0|0:0,0:0:0:0:
372,151,13973,1,2,1:2:0:0:
433,224,14284,6,0,B|450:267|450:267|424:355,1,120,14|2,0:0|1:2,0:0:0:0:
387,362,14751,2,0,P|330:341|260:333,1,120,2|10,0:0|0:0,0:0:0:0:
226,349,15217,1,2,1:2:0:0:
156,282,15528,2,0,P|167:235|178:204,1,60,14|10,0:0|0:0,0:0:0:0:
198,184,15839,2,0,P|186:137|175:106,1,60,2|2,1:2|0:0,0:0:0:0:
153,87,16150,2,0,P|191:52|274:50,1,120,6|2,0:0|1:2,0:0:0:0:
336,97,16771,6,0,P|389:106|474:114,1,120,14|2,0:0|1:2,0:0:0:0:
490,146,17238,2,0,P|492:193|448:265,1,120,2|10,0:0|0:0,0:0:0:0:
417,281,17704,1,2,1:2:0:0:
332,246,18015,1,14,0:0:0:0:
332,246,18170,2,0,L|320:316,1,60,10|2,0:0|1:2,0:0:0:0:
288,339,18481,2,0,P|236:314|169:303,1,120,2|10,0:0|0:0,0:0:0:0:
128,316,18947,1,2,1:2:0:0:
42,273,19258,6,0,P|26:240|32:200,2,60,14|2|2,0:0|0:0|1:2,0:0:0:0:
77,240,19725,2,0,P|92:192|136:124,1,120,2|10,0:0|0:0,0:0:0:0:
167,104,20191,1,2,1:2:0:0:
253,144,20502,2,0,P|308:131|324:60,1,120,14|2,0:0|1:2,0:0:0:0:
314,35,20968,1,2,0:0:0:0:
314,35,21124,2,0,L|246:25,1,60,6|10,0:0|0:0,0:0:0:0:
212,49,21435,1,2,1:2:0:0:
117,37,21745,6,0,L|134:173,1,120,14|2,0:0|0:0,0:0:0:0:
106,197,22212,1,14,0:0:0:0:
192,249,22523,1,2,0:0:0:0:
192,249,22678,2,0,P|260:232|337:226,1,120,14|2,0:0|0:0,0:0:0:0:
352,248,23144,2,0,L|346:331,2,60,14|2|2,0:0|0:0|0:0,0:0:0:0:
397,230,23611,1,14,0:0:0:0:
455,153,23922,1,14,0:0:0:0:
432,59,24232,6,0,L|292:74,1,120,14|2,0:0|0:0,0:0:0:0:
277,105,24699,2,0,L|137:90,1,120,14|2,0:0|0:0,0:0:0:0:
117,118,25165,1,14,0:0:0:0:
42,177,25476,1,2,0:0:0:0:
42,177,25631,2,0,P|33:229|88:272,1,120,14|2,0:0|0:0,0:0:0:0:
127,271,26098,2,0,L|115:349,1,60,14|10,0:0|0:0,0:0:0:0:
149,366,26409,1,10,0:0:0:0:
239,336,26719,6,0,L|386:345,1,120,14|2,0:0|1:2,0:0:0:0:
407,366,27186,1,2,0:0:0:0:
407,366,27341,2,0,L|421:293,1,60,2|10,0:0|0:0,0:0:0:0:
392,266,27652,2,0,L|378:193,1,60,2|2,1:2|0:0,0:0:0:0:
400,163,27963,5,14,0:0:0:0:
450,81,28274,1,6,1:2:0:0:
365,34,28585,2,0,L|281:41,1,60,6|10,0:0|0:0,0:0:0:0:
257,45,28896,1,6,1:2:0:0:
192,115,29207,6,0,B|217:143|217:143|198:208,2,90,14|2|2,0:0|0:0|0:0,0:0:0:0:
144,123,29828,2,0,L|58:114,1,60,2|10,0:0|0:0,0:0:0:0:
40,136,30139,1,2,1:2:0:0:
14,228,30450,6,0,P|9:268|95:284,1,120,14|2,0:0|1:2,0:0:0:0:
123,295,30916,1,2,0:0:0:0:
123,295,31072,2,0,L|112:381,2,60,2|10|2,0:0|0:0|1:2,0:0:0:0:
193,229,31694,6,0,P|246:212|335:201,1,120,14|2,0:0|1:2,0:0:0:0:
356,213,32160,1,2,0:0:0:0:
356,213,32315,2,0,P|383:178|385:149,1,60,2|10,0:0|0:0,0:0:0:0:
370,117,32626,1,2,1:2:0:0:
307,47,32937,6,0,L|220:63,1,60,14|10,0:0|0:0,0:0:0:0:
211,89,33248,2,0,L|124:73,1,60,6|2,1:2|0:0,0:0:0:0:
115,47,33559,1,6,0:0:0:0:
43,111,33870,1,6,1:2:0:0:
97,190,34181,6,0,L|91:307,2,90,14|2|2,0:0|0:0|0:0,0:0:0:0:
137,162,34802,1,2,0:0:0:0:
215,218,35113,2,0,L|294:207,1,60,2|2,1:2|0:0,0:0:0:0:
318,229,35424,6,0,P|367:205|370:137,1,120,14|2,0:0|1:2,0:0:0:0:
342,108,35890,1,2,0:0:0:0:
342,108,36046,1,6,0:0:0:0:
402,33,36357,1,6,1:2:0:0:
483,83,36668,6,0,P|501:150|496:218,1,120,14|2,0:0|1:2,0:0:0:0:
487,246,37134,1,2,0:0:0:0:
487,246,37289,2,0,P|436:219|406:212,1,60,2|10,0:0|0:0,0:0:0:0:
389,237,37600,1,2,1:2:0:0:
319,303,37911,6,0,L|251:295,1,60,14|10,0:0|0:0,0:0:0:0:
218,321,38222,2,0,L|150:329,1,60,6|2,1:2|0:0,0:0:0:0:
119,356,38533,2,0,P|76:314|84:234,1,120,6|6,0:0|1:2,0:0:0:0:
121,173,39155,6,0,L|106:58,2,90,14|2|2,0:0|0:0|0:0,0:0:0:0:
161,198,39776,1,2,0:0:0:0:
250,162,40087,2,0,L|324:168,1,60,0|2,1:2|0:0,0:0:0:0:
360,153,40398,5,14,0:0:0:0:
360,153,40554,1,10,0:0:0:0:
360,153,40709,2,0,L|348:272,1,120,2|6,1:2|0:0,0:0:0:0:
423,333,41331,1,2,1:2:0:0:
498,273,41642,6,0,P|506:236|499:203,1,60,14|2,0:0|0:0,0:0:0:0:
482,170,41953,1,2,1:2:0:0:
504,76,42264,2,0,L|373:86,1,120,2|2,0:0|1:2,0:0:0:0:
352,57,42730,1,2,0:0:0:0:
352,57,42885,6,0,L|269:51,1,60,14|10,0:0|0:0,0:0:0:0:
256,85,43196,2,0,L|173:91,1,60,6|2,1:2|0:0,0:0:0:0:
160,57,43507,1,6,0:0:0:0:
89,119,43818,1,6,1:2:0:0:
89,119,43973,1,2,0:0:0:0:
89,119,44129,6,0,L|100:228,2,90,14|2|2,0:0|0:0|0:0,0:0:0:0:
49,91,44751,1,2,0:0:0:0:
115,22,45061,1,2,1:2:0:0:
201,64,45372,6,0,L|332:54,1,120,14|2,0:0|1:2,0:0:0:0:
368,38,45839,1,2,0:0:0:0:
368,38,45994,2,0,L|360:110,1,60,6|10,0:0|0:0,0:0:0:0:
389,136,46305,1,10,0:0:0:0:
342,219,46616,6,0,L|266:227,2,60,14|2|2,0:0|0:0|0:0,0:0:0:0:
382,255,47082,1,14,0:0:0:0:
382,255,47238,2,0,B|402:294|402:294|371:379,1,120,2|14,0:0|0:0,0:0:0:0:
328,371,47704,1,2,0:0:0:0:
246,320,48015,2,0,L|259:189,1,120,14|2,0:0|0:0,0:0:0:0:
244,154,48481,1,14,0:0:0:0:
312,87,48793,1,14,0:0:0:0:
312,87,48947,1,10,0:0:0:0:
312,87,49103,6,0,L|397:76,2,60,14|2|2,0:0|0:0|0:0,0:0:0:0:
277,62,49569,1,14,0:0:0:0:
277,62,49725,2,0,L|150:46,1,120,2|14,0:0|0:0,0:0:0:0:
120,77,50191,1,2,0:0:0:0:
172,157,50502,2,0,L|158:302,1,120,14|2,0:0|0:0,0:0:0:0:
153,324,50968,2,0,L|75:340,1,60,14|10,0:0|0:0,0:0:0:0:
47,324,51279,1,14,0:0:0:0:
37,228,51590,6,0,L|20:162,2,60,14|2|2,0:0|0:0|0:0,0:0:0:0:
87,243,52056,1,14,0:0:0:0:
87,243,52212,2,0,B|133:219|133:219|223:238,1,120,2|14,0:0|0:0,0:0:0:0:
244,249,52678,1,2,0:0:0:0:
306,176,52989,2,0,L|286:38,1,120,14|2,0:0|0:0,0:0:0:0:
306,12,53455,1,14,0:0:0:0:
408,38,53766,1,14,0:0:0:0:
408,38,53922,1,10,0:0:0:0:
408,38,54077,6,0,L|494:23,2,60,14|2|2,0:0|0:0|0:0,0:0:0:0:
396,87,54543,1,14,0:0:0:0:
396,87,54699,2,0,L|416:225,1,120,2|14,0:0|0:0,0:0:0:0:
421,253,55165,1,2,0:0:0:0:
368,333,55476,2,0,P|308:319|300:246,1,120,14|2,0:0|0:0,0:0:0:0:
309,223,55942,1,14,0:0:0:0:
252,145,56253,1,2,0:0:0:0:
305,65,56564,6,0,L|378:55,2,60,14|2|2,0:0|0:0|0:0,0:0:0:0:
264,39,57030,1,14,0:0:0:0:
264,39,57186,2,0,B|222:12|222:12|127:29,1,120,2|14,0:0|0:0,0:0:0:0:
124,62,57652,1,2,0:0:0:0:
198,122,57963,2,0,L|214:264,1,120,14|2,0:0|0:0,0:0:0:0:
199,288,58429,1,14,0:0:0:0:
277,343,58740,2,0,L|336:336,1,60,14|10,0:0|0:0,0:0:0:0:
364,297,59051,6,0,L|351:220,2,60,14|2|2,0:0|0:0|0:0,0:0:0:0:
414,315,59517,1,14,0:0:0:0:
414,315,59673,2,0,P|445:270|432:187,1,120,2|14,0:0|0:0,0:0:0:0:
419,164,60139,1,2,0:0:0:0:
345,101,60450,2,0,P|283:119|224:125,1,120,14|2,0:0|0:0,0:0:0:0:
189,123,60916,1,14,0:0:0:0:
189,123,61072,1,10,0:0:0:0:
189,123,61227,2,0,L|205:207,1,60,14|10,0:0|0:0,0:0:0:0:
171,220,61538,6,0,L|96:210,2,60,14|2|2,0:0|0:0|0:0,0:0:0:0:
191,269,62004,1,14,0:0:0:0:
191,269,62160,2,0,P|149:313|129:381,1,120,2|14,0:0|0:0,0:0:0:0:
82,374,62626,1,2,0:0:0:0:
19,301,62937,2,0,L|36:167,1,120,14|2,0:0|0:0,0:0:0:0:
15,137,63403,1,14,0:0:0:0:
106,98,63714,1,14,0:0:0:0:
106,98,63870,1,10,0:0:0:0:
106,98,64025,6,0,L|95:17,2,60,14|10|10,0:0|0:0|0:0,0:0:0:0:
133,138,64492,2,0,L|122:219,2,60,14|10|10,0:0|0:0|0:0,0:0:0:0:
178,121,64958,2,0,L|259:110,1,60,14|10,0:0|0:0,0:0:0:0:
275,82,65269,2,0,L|356:93,1,60,14|10,0:0|0:0,0:0:0:0:
372,121,65580,2,0,L|485:105,1,90,10|10,0:0|0:0,0:0:0:0:
461,108,66512,5,14,0:0:0:0:
376,152,66823,2,0,L|240:133,2,120,2|0|2,0:0|0:0|0:0,0:0:0:0:
457,204,67756,2,0,L|465:285,1,60,2|0,0:0|0:0,0:0:0:0:
468,311,68067,2,0,P|431:335|401:328,1,60,2|0,0:0|0:0,0:0:0:0:
372,314,68378,2,0,L|178:332,1,180,2|0,0:0|0:0,0:0:0:0:
146,317,68999,5,2,0:0:0:0:
85,242,69310,2,0,P|27:232|22:167,2,120,2|0|2,0:0|0:0|0:0,0:0:0:0:
171,199,70243,2,0,L|247:209,1,60,2|0,0:0|0:0,0:0:0:0:
272,230,70554,2,0,P|304:203|304:179,1,60,2|0,0:0|0:0,0:0:0:0:
292,140,70865,2,0,P|352:111|473:149,1,180,2|0,0:0|0:0,0:0:0:0:
486,174,71486,5,2,0:0:0:0:
432,254,71797,2,0,L|448:384,2,120,2|0|2,0:0|0:0|0:0,0:0:0:0:
355,195,72730,2,0,L|366:115,1,60,2|0,0:0|0:0,0:0:0:0:
388,94,73041,2,0,P|352:58|327:53,1,60,2|0,0:0|0:0,0:0:0:0:
301,77,73352,2,0,L|172:88,1,120,2|2,0:0|0:0,0:0:0:0:
100,35,73973,5,2,0:0:0:0:
16,152,74440,1,2,0:0:0:0:
16,152,74595,2,0,L|33:269,2,90,2|2|2,0:0|0:0|0:0,0:0:0:0:
45,113,75217,1,2,0:0:0:0:
136,141,75528,1,2,0:0:0:0:
172,52,75839,2,0,L|357:35,1,180,2|0,0:0|0:0,0:0:0:0:
391,61,76460,5,14,0:0:0:0:
482,229,77082,1,2,0:0:0:0:
399,278,77393,2,0,L|321:272,1,60,2|0,0:0|0:0,0:0:0:0:
300,245,77704,2,0,L|315:114,1,120,2|2,0:0|0:0,0:0:0:0:
273,38,78326,1,0,0:0:0:0:
185,76,78637,2,0,L|104:67,1,60,2|0,0:0|0:0,0:0:0:0:
91,103,78947,6,0,P|93:161|198:161,2,180,2|2|2,0:0|0:0|0:0,0:0:0:0:
170,49,80191,2,0,L|318:63,1,120,2|0,0:0|0:0,0:0:0:0:
373,108,80813,2,0,L|521:94,1,120,2|0,0:0|0:0,0:0:0:0:
465,189,81435,5,2,0:0:0:0:
382,237,81745,2,0,L|234:223,2,120,2|2|2,0:0|0:0|0:0,0:0:0:0:
462,289,82678,1,2,0:0:0:0:
382,342,82989,1,2,0:0:0:0:
305,283,83300,2,0,L|157:297,1,120,2|2,0:0|0:0,0:0:0:0:
102,343,83922,6,0,B|48:302|48:302|71:169,2,180,2|2|0,0:0|0:0|0:0,0:0:0:0:
150,260,85165,1,2,0:0:0:0:
240,227,85476,1,2,0:0:0:0:
296,304,85787,1,2,0:0:0:0:
391,137,86409,6,0,L|475:132,2,60,10|2|2,0:0|0:0|0:0,0:0:0:0:
364,178,86875,1,2,0:0:0:0:
364,178,87030,1,2,0:0:0:0:
174,207,87652,6,0,L|90:202,2,60,2|2|2,0:0|0:0|0:0,0:0:0:0:
201,248,88118,1,2,0:0:0:0:
201,248,88273,1,2,0:0:0:0:
379,319,88896,6,0,L|463:314,2,60,2|2|2,0:0|0:0|0:0,0:0:0:0:
352,360,89362,1,2,0:0:0:0:
352,360,89517,1,2,0:0:0:0:
121,137,92004,5,2,0:0:0:0:
192,73,92315,1,2,0:0:0:0:
269,129,92626,6,0,L|257:254,1,120,14|2,0:0|1:2,0:0:0:0:
282,289,93093,2,0,P|328:265|421:262,1,120,2|10,0:0|0:0,0:0:0:0:
493,278,93714,1,2,0:0:0:0:
493,278,93870,2,0,P|504:239|497:206,1,60,14|10,0:0|0:0,0:0:0:0:
474,180,94181,2,0,P|463:141|470:108,1,60,2|2,1:2|0:0,0:0:0:0:
493,82,94492,1,2,0:0:0:0:
418,21,94802,1,2,1:2:0:0:
328,56,95113,6,0,P|266:44|192:40,1,120,14|2,0:0|1:2,0:0:0:0:
173,73,95580,2,0,P|187:125|198:207,1,120,6|10,0:0|0:0,0:0:0:0:
197,242,96046,1,6,1:2:0:0:
197,242,96201,1,6,0:0:0:0:
127,308,96512,1,10,0:0:0:0:
127,308,96668,2,0,L|47:300,1,60,2|2,1:2|0:0,0:0:0:0:
26,276,96979,2,0,L|54:141,1,120,2|2,0:0|1:2,0:0:0:0:
15,69,97600,6,0,B|44:32|44:32|140:43,1,120,14|2,0:0|1:2,0:0:0:0:
162,23,98067,1,2,0:0:0:0:
179,117,98378,1,10,0:0:0:0:
201,215,98688,1,2,0:0:0:0:
201,215,98844,2,0,L|269:210,1,60,14|10,0:0|0:0,0:0:0:0:
291,173,99155,2,0,L|359:178,1,60,2|2,1:2|0:0,0:0:0:0:
381,215,99466,1,2,0:0:0:0:
466,165,99776,1,2,1:2:0:0:
416,82,100087,6,0,P|392:41|303:40,1,120,14|2,0:0|1:2,0:0:0:0:
295,66,100554,2,0,P|249:78|157:78,1,120,6|10,0:0|0:0,0:0:0:0:
135,67,101020,1,6,1:2:0:0:
135,67,101175,1,6,0:0:0:0:
62,129,101486,1,10,0:0:0:0:
62,129,101642,2,0,L|70:199,1,60,2|2,1:2|0:0,0:0:0:0:
54,234,101953,2,0,P|76:271|152:259,1,120,2|2,0:0|1:2,0:0:0:0:
216,201,102574,1,14,0:0:0:0:
364,325,103196,6,0,P|402:317|426:285,1,60,14|10,0:0|0:0,0:0:0:0:
439,260,103507,2,0,L|434:189,1,60,14|10,0:0|0:0,0:0:0:0:
402,164,103818,2,0,L|409:48,2,90,14|14|14,0:0|0:0|0:0,0:0:0:0:
359,186,104440,1,14,0:0:0:0:
290,118,104751,1,10,0:0:0:0:
206,164,105061,6,0,L|66:154,1,120,14|2,0:0|1:2,0:0:0:0:
44,131,105528,2,0,L|64:254,1,120,2|10,0:0|0:0,0:0:0:0:
60,301,105994,1,2,1:2:0:0:
60,301,106150,1,2,0:0:0:0:
153,339,106460,1,10,0:0:0:0:
153,339,106616,2,0,L|240:328,1,60,2|2,1:2|0:0,0:0:0:0:
255,353,106927,2,0,P|305:318|301:241,1,120,2|2,0:0|1:2,0:0:0:0:
231,208,107549,6,0,P|181:173|185:96,1,120,14|2,0:0|1:2,0:0:0:0:
196,75,108015,1,2,0:0:0:0:
282,32,108326,1,10,0:0:0:0:
356,101,108637,1,2,0:0:0:0:
356,101,108792,2,0,L|437:94,1,60,10|10,0:0|0:0,0:0:0:0:
458,73,109103,2,0,L|448:206,1,120,2|2,1:2|0:0,0:0:0:0:
502,272,109725,1,2,1:2:0:0:
435,341,110036,6,0,P|384:307|309:312,1,120,14|2,0:0|1:2,0:0:0:0:
284,328,110502,2,0,P|235:361|175:363,1,120,6|10,0:0|0:0,0:0:0:0:
133,352,110968,2,0,L|150:280,1,60,6|6,1:2|0:0,0:0:0:0:
133,247,111279,1,14,0:0:0:0:
39,270,111590,1,2,1:2:0:0:
17,176,111901,1,6,0:0:0:0:
111,153,112212,1,2,1:2:0:0:
89,59,112523,6,0,L|234:39,1,120,14|2,0:0|1:2,0:0:0:0:
245,13,112989,2,0,P|284:47|271:130,1,120,2|10,0:0|0:0,0:0:0:0:
254,149,113455,1,2,1:2:0:0:
162,153,113766,1,14,0:0:0:0:
162,153,113922,2,0,L|173:221,1,60,10|2,0:0|1:2,0:0:0:0:
152,256,114232,2,0,P|229:252|296:266,1,120,2|10,0:0|0:0,0:0:0:0:
316,276,114699,1,2,1:2:0:0:
394,220,115010,6,0,L|378:87,1,120,14|2,0:0|1:2,0:0:0:0:
399,57,115476,1,2,0:0:0:0:
314,11,115787,1,10,0:0:0:0:
314,11,115942,2,0,L|234:20,1,60,2|2,1:2|0:0,0:0:0:0:
224,55,116253,1,14,0:0:0:0:
136,15,116564,1,2,1:2:0:0:
61,76,116875,2,0,L|76:159,1,60,6|10,0:0|0:0,0:0:0:0:
51,178,117186,2,0,L|36:261,1,60,2|10,1:2|0:0,0:0:0:0:
66,277,117497,6,0,P|116:275|170:205,1,120,14|2,0:0|1:2,0:0:0:0:
195,191,117963,2,0,P|245:193|299:263,1,120,2|10,0:0|0:0,0:0:0:0:
310,284,118429,1,2,1:2:0:0:
245,355,118740,1,14,0:0:0:0:
245,355,118896,2,0,L|171:346,1,60,10|2,0:0|1:2,0:0:0:0:
142,369,119207,2,0,P|104:335|126:250,1,120,2|10,0:0|0:0,0:0:0:0:
142,237,119673,1,2,1:2:0:0:
69,173,119984,6,0,L|84:27,1,120,14|2,0:0|1:2,0:0:0:0:
116,20,120450,1,2,0:0:0:0:
207,64,120761,1,10,0:0:0:0:
207,64,120916,2,0,L|287:55,1,60,2|2,1:2|0:0,0:0:0:0:
314,49,121227,1,14,0:0:0:0:
292,142,121538,1,2,1:2:0:0:
385,164,121849,2,0,L|400:247,1,60,6|10,0:0|0:0,0:0:0:0:
375,266,122160,2,0,L|360:349,1,60,2|10,1:2|0:0,0:0:0:0:
355,372,122471,6,0,B|320:350|320:350|216:365,1,120,14|10,0:0|0:0,0:0:0:0:
194,370,122938,1,14,0:0:0:0:
115,326,123248,1,10,0:0:0:0:
115,326,123403,2,0,P|89:285|99:198,1,120,14|10,0:0|0:0,0:0:0:0:
108,170,123870,2,0,L|33:176,2,60,14|2|10,0:0|0:0|0:0,0:0:0:0:
149,145,124337,1,14,0:0:0:0:
231,194,124648,1,14,0:0:0:0:
281,112,124958,6,0,L|421:97,1,120,14|2,0:0|0:0,0:0:0:0:
436,67,125424,2,0,P|421:23|336:16,1,120,14|2,0:0|0:0,0:0:0:0:
312,28,125891,1,14,0:0:0:0:
217,8,126202,1,2,0:0:0:0:
217,8,126357,2,0,L|236:144,1,120,14|2,0:0|0:0,0:0:0:0:
257,168,126823,2,0,L|245:250,1,60,14|10,0:0|0:0,0:0:0:0:
224,270,127134,1,10,0:0:0:0:
224,270,127289,1,10,0:0:0:0:
337,359,127756,5,14,0:0:0:0:
337,359,128999,6,0,L|202:369,1,120,2|2,0:0|0:0,0:0:0:0:
174,345,129466,1,2,0:0:0:0:
