osu file format v14

[General]
AudioFilename: audio.mp3
AudioLeadIn: 0
PreviewTime: 66512
Countdown: 0
SampleSet: Soft
StackLeniency: 0.5
Mode: 0
LetterboxInBreaks: 0
WidescreenStoryboard: 0

[Editor]
Bookmarks: 606,36668,46616,56564,66512,92626,122471,129466
DistanceSpacing: 1.4
BeatDivisor: 4
GridSize: 32
TimelineZoom: 3.800004

[Metadata]
Title:Disorder
TitleUnicode:Disorder
Artist:HyuN feat. YURI
ArtistUnicode:HyuN feat. YURI
Creator:eiri-
Version:Eternity
Source:Muse Dash
Tags:Ayyri BMS MaridiuS Plaudible Skytuna Acylica Acyl Sylas TheKoala Featured Artist FA Depressive Electronic Video Game English Phigros G2R2018 GO BACK 2 YOUR ROOTS 2018
BeatmapID:2556238
BeatmapSetID:1229471

[Difficulty]
HPDrainRate:6
CircleSize:4.5
OverallDifficulty:9
ApproachRate:9.7
SliderMultiplier:1.8
SliderTickRate:1

[Events]
//Background and Video events
0,0,"Disorder.jpg",0,0
//Break Periods
//Storyboard Layer 0 (Background)
//Storyboard Layer 1 (Fail)
//Storyboard Layer 2 (Pass)
//Storyboard Layer 3 (Foreground)
//Storyboard Layer 4 (Overlay)
//Storyboard Sound Samples

[TimingPoints]
606,310.880829015544,4,2,1,50,1,0
11797,-83.3333333333333,4,2,1,75,0,0
21745,-83.3333333333333,4,2,1,90,0,0
26719,-83.3333333333333,4,2,1,75,0,0
46616,-83.3333333333333,4,2,1,90,0,0
56564,-83.3333333333333,4,2,1,95,0,0
61227,-58.8235294117647,4,2,1,95,0,0
61538,-83.3333333333333,4,2,1,95,0,0
66512,-133.333333333333,4,2,1,60,0,0
86409,-133.333333333333,4,2,1,50,0,0
92004,-400,4,2,1,60,0,0
92315,-200,4,2,1,80,0,0
92626,-74.0740740740741,4,2,1,100,0,1
102574,-100,4,2,1,100,0,0
103196,-66.6666666666667,4,2,1,100,0,1
104440,-66.6666666666667,4,2,1,100,0,0
105061,-74.0740740740741,4,2,1,100,0,1
112212,-74.0740740740741,4,2,1,100,0,0
112523,-74.0740740740741,4,2,1,100,0,1
122471,-66.6666666666667,4,2,1,90,0,0
127756,-66.6666666666667,4,2,1,75,0,0
128999,-66.6666666666667,4,2,1,50,0,0

[Colours]
Combo1 : 135,235,243
Combo2 : 101,184,245
Combo3 : 189,138,247
Combo4 : 243,118,184

[HitObjects]
96,320,606,5,14,0:0:0:0:
105,286,761,1,2,0:0:0:0:
130,263,916,1,2,0:0:0:0:
164,257,1072,1,2,0:0:0:0:
196,271,1227,1,2,0:0:0:0:
96,320,1849,5,2,0:0:0:0:
90,292,2004,1,2,0:0:0:0:
101,266,2159,1,2,0:0:0:0:
123,251,2315,1,2,0:0:0:0:
151,249,2470,1,2,0:0:0:0:
96,320,3093,5,2,0:0:0:0:
82,301,3248,1,2,0:0:0:0:
81,279,3403,1,2,0:0:0:0:
92,260,3559,1,2,0:0:0:0:
111,249,3714,1,2,0:0:0:0:
96,320,4336,5,2,0:0:0:0:
79,310,4491,1,2,0:0:0:0:
71,295,4646,1,2,0:0:0:0:
72,277,4802,1,2,0:0:0:0:
82,263,4957,1,2,0:0:0:0:
96,320,5580,5,2,0:0:0:0:
80,318,5735,1,2,0:0:0:0:
69,310,5890,1,2,0:0:0:0:
64,296,6046,1,2,0:0:0:0:
66,283,6201,1,2,0:0:0:0:
96,320,6823,5,2,0:0:0:0:
83,323,6978,1,2,0:0:0:0:
73,321,7133,1,2,0:0:0:0:
64,313,7289,1,2,0:0:0:0:
61,303,7444,1,2,0:0:0:0:
96,320,8067,5,2,0:0:0:0:
87,326,8222,1,2,0:0:0:0:
79,328,8377,1,2,0:0:0:0:
70,325,8533,1,2,0:0:0:0:
64,319,8688,1,2,0:0:0:0:
96,320,11797,6,0,P|139:246|233:236,1,161.999995056153,14|0,0:0|0:0,0:0:0:0:
212,323,12108,2,0,B|191:338|191:338|182:302,1,53.9999983520508,2|0,1:2|0:0,0:0:0:0:
378,247,12264,1,2,0:0:0:0:
401,276,12341,1,2,0:0:0:0:
375,318,12419,1,2,0:0:0:0:
409,381,12497,1,2,0:0:0:0:
409,381,12574,2,0,L|422:293,1,53.9999983520508,10|0,0:0|0:0,0:0:0:0:
444,146,12730,1,2,1:2:0:0:
193,195,12885,1,2,0:0:0:0:
145,140,12963,1,2,0:0:0:0:
191,86,13041,6,0,P|213:117|210:164,1,53.9999983520508,14|0,0:0|0:0,0:0:0:0:
99,194,13196,2,0,P|77:163|80:116,1,53.9999983520508,10|0,0:0|0:0,0:0:0:0:
185,216,13352,1,2,1:2:0:0:
187,1,13507,2,0,P|257:30|375:25,1,161.999995056153,2|0,0:0|0:0,0:0:0:0:
442,11,13818,1,10,0:0:0:0:
438,41,13896,1,2,0:0:0:0:
416,86,13973,2,0,L|430:170,1,53.9999983520508,2|0,1:2|0:0,0:0:0:0:
504,227,14129,2,0,L|490:311,1,53.9999983520508,2|0,0:0|0:0,0:0:0:0:
320,352,14284,6,0,P|241:315|200:311,1,107.999996704102,14|2,0:0|0:0,0:0:0:0:
20,349,14517,1,2,0:0:0:0:
52,363,14595,2,0,L|129:351,1,53.9999983520508,2|0,1:2|0:0,0:0:0:0:
185,216,14751,2,0,L|65:236,1,107.999996704102,2|2,0:0|0:0,0:0:0:0:
47,264,14984,1,2,0:0:0:0:
95,312,15061,2,0,P|116:272|110:249,1,53.9999983520508,10|0,0:0|0:0,0:0:0:0:
56,129,15217,1,2,1:2:0:0:
320,192,15372,1,2,0:0:0:0:
320,192,15450,1,2,0:0:0:0:
320,192,15528,6,0,L|336:125,1,53.9999983520508,14|0,0:0|0:0,0:0:0:0:
286,324,15683,1,10,0:0:0:0:
247,331,15761,1,2,0:0:0:0:
208,338,15839,2,0,L|119:353,1,53.9999983520508,2|2,1:2|0:0,0:0:0:0:
133,190,15994,2,0,L|222:175,1,53.9999983520508,2|2,0:0|0:0,0:0:0:0:
44,275,16150,1,6,0:0:0:0:
27,245,16227,1,2,0:0:0:0:
50,199,16305,1,10,0:0:0:0:
18,142,16383,1,2,0:0:0:0:
78,90,16460,1,2,1:2:0:0:
157,92,16538,1,2,0:0:0:0:
215,146,16616,1,10,0:0:0:0:
223,225,16693,1,2,0:0:0:0:
177,289,16771,6,0,B|224:265|224:265|269:286|269:286|369:287,1,161.999995056153,14|0,0:0|0:0,0:0:0:0:
422,328,17082,2,0,P|403:356|384:323,1,53.9999983520508,2|0,1:2|0:0,0:0:0:0:
405,210,17238,1,2,0:0:0:0:
425,182,17315,1,2,0:0:0:0:
377,135,17393,1,2,0:0:0:0:
318,180,17471,1,2,0:0:0:0:
318,180,17549,2,0,L|298:79,1,53.9999983520508,10|0,0:0|0:0,0:0:0:0:
281,5,17704,1,2,1:2:0:0:
32,96,17859,1,2,0:0:0:0:
81,46,17937,1,2,0:0:0:0:
136,89,18015,6,0,P|138:126|117:169,1,53.9999983520508,14|0,0:0|0:0,0:0:0:0:
44,63,18170,2,0,P|42:26|63:-17,1,53.9999983520508,10|0,0:0|0:0,0:0:0:0:
107,211,18326,1,2,1:2:0:0:
340,143,18481,2,0,B|398:155|398:155|381:271,1,161.999995056153,2|2,0:0|0:0,0:0:0:0:
366,378,18792,1,10,0:0:0:0:
396,372,18870,1,2,0:0:0:0:
426,348,18947,2,0,L|506:362,1,53.9999983520508,2|0,1:2|0:0,0:0:0:0:
267,219,19103,2,0,L|347:205,1,53.9999983520508,2|0,0:0|0:0,0:0:0:0:
96,320,19258,6,0,P|77:250|33:183,1,107.999996704102,14|2,0:0|0:0,0:0:0:0:
27,325,19492,1,2,0:0:0:0:
27,338,19569,2,0,P|69:358|103:349,1,53.9999983520508,2|0,1:2|0:0,0:0:0:0:
145,226,19725,2,0,P|94:233|77:282,1,107.999996704102,2|2,0:0|0:0,0:0:0:0:
123,271,19958,1,2,0:0:0:0:
64,315,20036,2,0,P|26:280|26:263,1,53.9999983520508,10|0,0:0|0:0,0:0:0:0:
256,256,20191,1,2,1:2:0:0:
32,160,20346,1,2,0:0:0:0:
32,160,20424,1,2,0:0:0:0:
32,160,20502,6,0,L|44:67,1,53.9999983520508,14|0,0:0|0:0,0:0:0:0:
229,122,20658,1,10,0:0:0:0:
222,170,20735,1,2,0:0:0:0:
215,218,20813,2,0,L|203:311,1,53.9999983520508,2|2,1:2|0:0,0:0:0:0:
14,140,20968,2,0,L|26:47,1,53.9999983520508,2|2,0:0|0:0,0:0:0:0:
281,215,21124,1,6,0:0:0:0:
304,174,21201,1,2,0:0:0:0:
310,107,21279,1,10,0:0:0:0:
285,42,21357,1,2,0:0:0:0:
221,12,21435,1,2,1:2:0:0:
159,53,21512,1,2,0:0:0:0:
158,125,21590,1,10,0:0:0:0:
222,170,21668,1,2,0:0:0:0:
281,120,21745,6,0,P|286:66|298:13,2,107.999996704102,14|2|2,0:0|0:0|0:0,0:0:0:0:
150,160,22212,2,0,P|115:118|86:72,2,107.999996704102,14|2|2,0:0|0:0|0:0,0:0:0:0:
231,264,22678,2,0,P|226:318|214:371,2,107.999996704102,14|2|2,0:0|0:0|0:0,0:0:0:0:
362,224,23145,2,0,P|396:265|425:311,2,107.999996704102,14|2|2,0:0|0:0|0:0,0:0:0:0:
138,241,23611,6,0,L|53:256,1,53.9999983520508,14|0,0:0|0:0,0:0:0:0:
244,281,23766,1,10,0:0:0:0:
374,143,23922,6,0,L|459:128,1,53.9999983520508,14|0,0:0|0:0,0:0:0:0:
268,103,24077,1,10,0:0:0:0:
231,264,24232,6,0,P|226:318|214:371,2,107.999996704102,14|2|2,0:0|0:0|0:0,0:0:0:0:
362,224,24699,2,0,P|397:266|426:312,2,107.999996704102,14|2|2,0:0|0:0|0:0,0:0:0:0:
281,120,25165,2,0,P|286:66|298:13,2,107.999996704102,14|2|2,0:0|0:0|0:0,0:0:0:0:
150,160,25632,2,0,P|116:119|87:73,2,107.999996704102,14|2|2,0:0|0:0|0:0,0:0:0:0:
374,241,26098,6,0,L|459:256,1,53.9999983520508,14|0,0:0|0:0,0:0:0:0:
268,281,26253,1,10,0:0:0:0:
138,143,26409,6,0,L|53:128,1,53.9999983520508,10|0,0:0|0:0,0:0:0:0:
244,103,26564,2,0,L|220:184,1,53.9999983520508,10|0,0:0|0:0,0:0:0:0:
174,325,26719,6,0,P|140:284|88:280,1,107.999996704102,14|2,0:0|0:0,0:0:0:0:
298,256,27030,1,2,1:2:0:0:
224,64,27186,1,2,0:0:0:0:
172,341,27341,1,2,0:0:0:0:
273,148,27497,1,10,0:0:0:0:
247,168,27574,1,2,0:0:0:0:
183,155,27652,1,2,1:2:0:0:
116,176,27730,1,2,0:0:0:0:
48,145,27808,1,2,0:0:0:0:
314,37,27963,6,0,L|322:154,1,107.999996704102,14|10,0:0|0:0,0:0:0:0:
138,162,28196,1,2,0:0:0:0:
137,151,28274,2,0,L|129:34,1,107.999996704102,6|2,1:2|0:0,0:0:0:0:
348,32,28507,1,2,0:0:0:0:
349,43,28585,2,0,L|357:160,1,107.999996704102,6|10,0:0|0:0,0:0:0:0:
111,130,28818,1,2,0:0:0:0:
107,115,28896,2,0,P|150:88|196:95,1,53.9999983520508,6|2,1:2|0:0,0:0:0:0:
88,252,29051,2,0,P|62:242|42:224,1,53.9999983520508,2|0,0:0|0:0,0:0:0:0:
256,192,29207,6,0,B|287:218|287:218|262:318,1,107.999996704102,14|0,0:0|0:0,0:0:0:0:
241,377,29440,2,0,B|210:351|210:351|235:251,1,107.999996704102,2|0,0:0|0:0,0:0:0:0:
416,320,29673,1,2,0:0:0:0:
452,296,29751,1,2,0:0:0:0:
436,231,29828,2,0,L|451:135,1,53.9999983520508,2|2,0:0|0:0,0:0:0:0:
379,67,29984,2,0,L|394:163,1,53.9999983520508,10|2,0:0|0:0,0:0:0:0:
458,42,30139,1,2,1:2:0:0:
416,29,30216,1,2,0:0:0:0:
363,18,30295,1,2,0:0:0:0:
299,11,30372,1,2,0:0:0:0:
224,17,30450,5,14,0:0:0:0:
288,224,30605,1,10,0:0:0:0:
297,191,30683,1,2,0:0:0:0:
289,141,30761,2,0,L|270:65,1,53.9999983520508,2|2,1:2|0:0,0:0:0:0:
123,131,30916,2,0,L|142:207,1,53.9999983520508,2|2,0:0|0:0,0:0:0:0:
416,224,31072,5,2,0:0:0:0:
446,246,31149,1,2,0:0:0:0:
463,279,31227,1,10,0:0:0:0:
465,316,31305,1,2,0:0:0:0:
451,351,31382,1,2,1:2:0:0:
398,337,31460,1,2,0:0:0:0:
334,326,31538,1,10,0:0:0:0:
259,320,31616,1,2,0:0:0:0:
173,323,31694,6,0,P|187:252|229:146,1,161.999995056153,14|0,0:0|0:0,0:0:0:0:
301,110,32004,2,0,B|338:122|338:122|294:136,1,53.9999983520508,2|0,1:2|0:0,0:0:0:0:
123,162,32160,1,2,0:0:0:0:
94,121,32238,1,2,0:0:0:0:
111,71,32315,2,0,P|129:40|157:16,1,53.9999983520508,2|0,0:0|0:0,0:0:0:0:
311,3,32471,1,10,0:0:0:0:
317,32,32549,1,2,0:0:0:0:
328,76,32626,2,0,L|345:151,1,53.9999983520508,2|2,1:2|0:0,0:0:0:0:
251,201,32782,2,0,L|234:276,1,53.9999983520508,2|0,0:0|0:0,0:0:0:0:
368,356,32937,6,0,L|355:239,1,107.999996704102,14|10,0:0|0:0,0:0:0:0:
172,263,33170,1,2,0:0:0:0:
173,274,33248,2,0,L|185:390,1,107.999996704102,6|2,1:2|0:0,0:0:0:0:
402,355,33481,1,2,0:0:0:0:
401,344,33559,2,0,L|388:227,1,107.999996704102,6|10,0:0|0:0,0:0:0:0:
151,299,33792,1,0,0:0:0:0:
150,315,33870,2,0,P|197:334|241:319,1,53.9999983520508,6|2,1:2|0:0,0:0:0:0:
108,183,34025,2,0,P|84:197|67:218,1,53.9999983520508,2|0,0:0|0:0,0:0:0:0:
283,213,34181,6,0,B|309:182|309:182|267:87,1,107.999996704102,14|0,0:0|0:0,0:0:0:0:
135,172,34414,2,0,B|165:198|165:198|260:156,1,107.999996704102,2|0,0:0|0:0,0:0:0:0:
177,114,34647,1,2,0:0:0:0:
131,97,34725,1,2,0:0:0:0:
69,130,34802,2,0,L|45:231,1,53.9999983520508,2|2,0:0|0:0,0:0:0:0:
190,287,34958,2,0,L|166:186,1,53.9999983520508,10|0,0:0|0:0,0:0:0:0:
136,44,35113,1,2,1:2:0:0:
178,31,35190,1,2,0:0:0:0:
231,20,35269,1,2,0:0:0:0:
295,13,35346,1,0,0:0:0:0:
370,19,35424,5,14,0:0:0:0:
276,242,35579,1,10,0:0:0:0:
243,207,35657,1,2,0:0:0:0:
287,150,35735,2,0,L|385:135,1,53.9999983520508,2|0,1:2|0:0,0:0:0:0:
364,300,35890,2,0,L|266:315,1,53.9999983520508,2|2,0:0|0:0,0:0:0:0:
141,327,36046,5,6,0:0:0:0:
111,305,36123,1,2,0:0:0:0:
94,272,36201,1,10,0:0:0:0:
92,235,36279,1,2,0:0:0:0:
106,200,36356,1,2,1:2:0:0:
159,214,36434,1,2,0:0:0:0:
223,225,36512,1,10,0:0:0:0:
298,231,36590,1,2,0:0:0:0:
384,224,36668,6,0,P|443:232|454:289,1,107.999996704102,14|0,0:0|0:0,0:0:0:0:
366,116,36979,1,2,1:2:0:0:
460,288,37134,1,2,0:0:0:0:
459,27,37289,1,2,0:0:0:0:
235,141,37445,1,10,0:0:0:0:
185,143,37523,1,2,0:0:0:0:
138,124,37600,1,2,1:2:0:0:
70,100,37678,1,2,0:0:0:0:
0,132,37756,1,2,0:0:0:0:
209,274,37911,6,0,P|243:277|287:254,1,53.9999983520508,14|0,0:0|0:0,0:0:0:0:
130,208,38067,2,0,P|100:224|73:265,1,53.9999983520508,10|2,0:0|0:0,0:0:0:0:
237,171,38222,2,0,L|225:30,1,107.999996704102,6|2,1:2|0:0,0:0:0:0:
403,84,38455,1,2,0:0:0:0:
401,102,38533,2,0,L|365:213,1,107.999996704102,6|10,0:0|0:0,0:0:0:0:
221,206,38766,1,2,0:0:0:0:
209,188,38844,2,0,L|197:47,1,107.999996704102,6|2,1:2|0:0,0:0:0:0:
45,32,39077,5,2,0:0:0:0:
77,96,39155,2,0,B|101:137|101:137|70:209,1,107.999996704102,14|0,0:0|0:0,0:0:0:0:
0,299,39388,2,0,B|12:253|12:253|84:224,1,107.999996704102,2|0,0:0|0:0,0:0:0:0:
164,302,39621,1,2,0:0:0:0:
168,248,39699,1,2,0:0:0:0:
177,165,39776,5,2,0:0:0:0:
224,153,39854,1,2,0:0:0:0:
267,167,39932,1,10,0:0:0:0:
305,202,40010,1,2,0:0:0:0:
349,274,40087,1,2,1:2:0:0:
381,287,40165,1,2,0:0:0:0:
419,288,40243,1,2,0:0:0:0:
451,280,40321,1,2,0:0:0:0:
496,243,40398,6,0,P|500:162|486:115,1,107.999996704102,14|10,0:0|0:0,0:0:0:0:
487,125,40631,1,2,0:0:0:0:
416,141,40710,1,2,1:2:0:0:
360,119,40788,1,2,0:0:0:0:
316,146,40865,1,2,0:0:0:0:
266,122,40942,1,2,0:0:0:0:
209,154,41020,2,0,L|106:132,1,53.9999983520508,6|2,0:0|0:0,0:0:0:0:
225,265,41175,2,0,L|233:350,1,53.9999983520508,10|2,0:0|0:0,0:0:0:0:
141,131,41331,5,2,1:2:0:0:
125,80,41409,1,2,0:0:0:0:
162,21,41486,1,10,0:0:0:0:
234,25,41564,1,2,0:0:0:0:
282,93,41642,5,14,0:0:0:0:
142,219,41797,1,2,0:0:0:0:
328,265,41953,1,2,1:2:0:0:
104,357,42108,1,2,0:0:0:0:
347,384,42264,6,0,P|364:332|349:257,1,107.999996704102,2|10,0:0|0:0,0:0:0:0:
318,194,42497,1,2,0:0:0:0:
383,217,42574,1,2,1:2:0:0:
442,184,42652,1,2,0:0:0:0:
500,220,42730,1,2,0:0:0:0:
240,255,42885,6,0,L|182:283,1,53.9999983520508,14|0,0:0|0:0,0:0:0:0:
176,186,43041,1,10,0:0:0:0:
171,157,43118,1,2,0:0:0:0:
164,100,43196,2,0,L|190:33,1,53.9999983520508,6|0,1:2|0:0,0:0:0:0:
97,194,43352,1,2,0:0:0:0:
93,242,43429,1,2,0:0:0:0:
110,315,43507,2,0,L|116:389,1,53.9999983520508,6|0,0:0|0:0,0:0:0:0:
292,355,43662,5,10,0:0:0:0:
274,340,43740,1,2,0:0:0:0:
257,301,43818,1,6,1:2:0:0:
267,240,43896,1,2,0:0:0:0:
303,179,43973,1,2,0:0:0:0:
302,108,44051,1,2,0:0:0:0:
265,49,44129,6,0,B|220:42|220:42|144:98,1,107.999996704102,14|0,0:0|0:0,0:0:0:0:
354,120,44362,2,0,B|388:141|388:141|469:126,1,107.999996704102,2|0,0:0|0:0,0:0:0:0:
450,0,44595,2,0,P|460:22|452:53,1,53.9999983520508,2|2,0:0|0:0,0:0:0:0:
443,275,44751,5,2,0:0:0:0:
389,307,44828,1,2,0:0:0:0:
329,309,44906,1,10,0:0:0:0:
272,290,44984,1,2,0:0:0:0:
214,237,45061,1,2,1:2:0:0:
169,226,45139,1,2,0:0:0:0:
126,234,45217,1,2,0:0:0:0:
89,254,45295,1,2,0:0:0:0:
15,289,45372,6,0,L|27:148,1,107.999996704102,14|10,0:0|0:0,0:0:0:0:
212,384,45683,1,2,1:2:0:0:
303,205,45839,1,2,0:0:0:0:
368,156,45916,1,2,0:0:0:0:
438,186,45994,1,6,0:0:0:0:
464,250,46072,1,2,0:0:0:0:
456,298,46150,1,10,0:0:0:0:
430,329,46227,1,2,0:0:0:0:
367,384,46305,5,10,0:0:0:0:
355,314,46383,1,2,0:0:0:0:
343,245,46460,1,10,0:0:0:0:
331,175,46538,1,2,0:0:0:0:
328,160,46616,6,0,P|417:202|458:194,2,107.999996704102,14|2|2,0:0|0:0|0:0,0:0:0:0:
224,283,47082,2,0,P|135:325|94:317,2,107.999996704102,14|2|2,0:0|0:0|0:0,0:0:0:0:
219,58,47549,2,0,P|261:25|314:16,2,107.999996704102,14|2|2,0:0|0:0|0:0,0:0:0:0:
114,180,48015,2,0,P|71:147|18:138,2,107.999996704102,14|2|2,0:0|0:0|0:0,0:0:0:0:
352,288,48481,6,0,L|376:145,1,107.999996704102,14|0,0:0|0:0,0:0:0:0:
160,288,48792,6,0,L|147:211,1,53.9999983520508,14|0,0:0|0:0,0:0:0:0:
129,103,48947,2,0,L|111:156,1,53.9999983520508,10|0,0:0|0:0,0:0:0:0:
373,258,49103,6,0,P|464:244|492:243,2,107.999996704102,14|2|2,0:0|0:0|0:0,0:0:0:0:
208,342,49569,2,0,P|117:328|89:327,2,107.999996704102,14|2|2,0:0|0:0|0:0,0:0:0:0:
284,203,50036,2,0,P|375:217|403:218,2,107.999996704102,14|2|2,0:0|0:0|0:0,0:0:0:0:
119,119,50502,2,0,P|28:133|0:134,2,107.999996704102,14|2|2,0:0|0:0|0:0,0:0:0:0:
361,50,50968,6,0,L|372:-12,1,53.9999983520508,14|0,0:0|0:0,0:0:0:0:
330,257,51124,1,10,0:0:0:0:
69,219,51279,2,2,L|74:245,6,26.9999991760254,14|2|2|2|2|2|2,0:0|0:0|0:0|0:0|0:0|0:0|0:0,0:1:0:0:
93,231,51590,6,0,P|157:259|161:297,2,107.999996704102,14|2|2,0:0|0:0|0:0,0:0:0:0:
320,128,52056,2,0,P|384:100|388:62,2,107.999996704102,14|2|2,0:0|0:0|0:0,0:0:0:0:
85,36,52523,2,0,P|149:64|153:102,2,107.999996704102,14|2|2,0:0|0:0|0:0,0:0:0:0:
323,202,52989,2,0,P|387:174|391:136,2,107.999996704102,14|2|2,0:0|0:0|0:0,0:0:0:0:
348,6,53455,6,0,L|364:124,1,107.999996704102,14|0,0:0|0:0,0:0:0:0:
386,299,53766,6,0,L|460:278,1,53.9999983520508,14|0,0:0|0:0,0:0:0:0:
293,221,53922,2,0,L|219:200,1,53.9999983520508,10|0,0:0|0:0,0:0:0:0:
400,55,54077,6,0,P|442:7|490:15,2,107.999996704102,14|2|2,0:0|0:0|0:0,0:0:0:0:
194,110,54543,2,0,P|152:62|104:70,2,107.999996704102,14|2|2,0:0|0:0|0:0,0:0:0:0:
325,241,55010,2,0,P|367:193|415:201,2,107.999996704102,14|2|2,0:0|0:0|0:0,0:0:0:0:
119,296,55476,2,0,P|77:248|29:256,2,107.999996704102,14|2|2,0:0|0:0|0:0,0:0:0:0:
416,352,55942,6,2,L|457:342,6,26.9999991760254,14|2|2|2|2|2|2,0:0|0:0|0:0|0:0|0:0|0:0|0:0,0:1:0:0:
328,326,56253,2,2,L|287:316,6,26.9999991760254,2|2|2|2|2|2|2,0:0|0:0|0:0|0:0|0:0|0:0|0:0,0:1:0:0:
396,270,56564,5,14,0:0:0:0:
154,368,56719,2,0,P|202:326|194:278,1,107.999996704102,2|2,0:0|0:0,0:0:0:0:
133,110,57030,1,14,0:0:0:0:
340,194,57185,2,0,P|292:152|300:104,1,107.999996704102,2|2,0:0|0:0,0:0:0:0:
88,28,57497,2,0,P|130:57|132:109,2,107.999996704102,14|2|0,0:0|0:0|0:0,0:0:0:0:
262,282,57963,2,0,P|219:252|217:200,2,107.999996704102,14|0|2,0:0|0:0|0:0,0:0:0:0:
362,41,58429,2,0,L|347:172,1,107.999996704102,14|2,0:0|0:0,0:0:0:0:
72,115,58740,6,0,L|3:102,1,53.9999983520508,14|0,0:0|0:0,0:0:0:0:
163,283,58896,2,0,L|205:337,1,53.9999983520508,10|2,0:0|0:0,0:0:0:0:
265,106,59051,5,14,0:0:0:0:
186,166,59207,1,2,0:0:0:0:
186,166,59284,1,2,0:0:0:0:
186,166,59362,1,2,0:0:0:0:
486,156,59517,5,14,0:0:0:0:
381,123,59673,1,2,0:0:0:0:
381,123,59751,1,2,0:0:0:0:
381,123,59828,1,2,0:0:0:0:
307,311,59984,1,14,0:0:0:0:
290,258,60061,1,2,0:0:0:0:
275,206,60139,1,2,0:0:0:0:
262,158,60217,1,2,0:0:0:0:
246,98,60295,1,2,0:0:0:0:
92,313,60450,5,14,0:0:0:0:
126,186,60605,1,2,0:0:0:0:
126,186,60683,1,2,0:0:0:0:
126,186,60761,1,2,0:0:0:0:
372,328,60916,6,0,L|453:326,1,53.9999983520508,14|2,0:0|0:0,0:0:0:0:
279,187,61072,2,0,L|254:99,1,53.9999983520508,10|2,0:0|0:0,0:0:0:0:
183,296,61227,2,0,L|132:275,1,38.2500007295609,14|10,0:0|0:0,0:0:0:0:
139,308,61305,2,0,L|88:287,1,38.2500007295609,10|10,0:0|0:0,0:0:0:0:
96,321,61383,2,0,L|45:300,1,38.2500007295609,10|10,0:0|0:0,0:0:0:0:
53,333,61460,2,0,L|2:312,1,38.2500007295609,10|10,0:0|0:0,0:0:0:0:
36,376,61538,5,14,0:0:0:0:
44,214,61694,1,2,0:0:0:0:
46,178,61771,1,2,0:0:0:0:
48,135,61849,1,2,0:0:0:0:
193,162,62004,5,14,0:0:0:0:
218,182,62082,1,2,0:0:0:0:
262,209,62160,1,2,0:0:0:0:
315,207,62238,1,2,0:0:0:0:
367,201,62315,1,2,0:0:0:0:
494,345,62471,6,0,L|483:291,1,53.9999983520508,14|2,0:0|0:0,0:0:0:0:
463,192,62626,1,2,0:0:0:0:
456,154,62704,1,2,0:0:0:0:
448,106,62782,1,2,0:0:0:0:
281,57,62937,5,14,0:0:0:0:
251,80,63015,1,2,0:0:0:0:
194,111,63093,1,2,0:0:0:0:
130,102,63170,1,2,0:0:0:0:
65,94,63248,1,2,0:0:0:0:
123,321,63403,5,14,0:0:0:0:
114,261,63481,1,2,0:0:0:0:
162,225,63559,1,2,0:0:0:0:
221,225,63637,1,2,0:0:0:0:
267,261,63714,2,0,L|279:350,1,53.9999983520508,14|2,0:0|0:0,0:0:0:0:
382,102,63870,2,0,L|393:15,1,53.9999983520508,10|2,0:0|0:0,0:0:0:0:
453,284,64025,6,0,L|390:241,1,53.9999983520508,14|2,0:0|0:0,0:0:0:0:
187,146,64181,1,10,0:0:0:0:
251,154,64258,1,2,0:0:0:0:
320,161,64336,2,0,L|334:234,1,53.9999983520508,10|0,0:0|0:0,0:0:0:0:
223,293,64492,2,0,L|285:246,1,53.9999983520508,14|0,0:0|0:0,0:0:0:0:
250,65,64647,5,10,0:0:0:0:
182,50,64725,1,10,0:0:0:0:
111,37,64802,2,0,L|109:111,1,53.9999983520508,10|2,0:0|0:0,0:0:0:0:
136,307,64958,5,14,0:0:0:0:
124,256,65036,1,10,0:0:0:0:
112,185,65113,1,10,0:0:0:0:
189,197,65191,1,10,0:0:0:0:
265,216,65269,1,14,0:0:0:0:
459,69,65424,6,0,L|466:38,3,26.9999991760254,10|10|10|10,0:0|0:0|0:0|0:0,0:0:0:0:
489,138,65580,2,0,L|504:192,1,53.9999983520508,14|10,0:0|0:0,0:0:0:0:
156,107,65735,2,0,L|102:111,1,53.9999983520508,10|10,0:0|0:0,0:0:0:0:
275,138,66512,5,14,0:0:0:0:
275,138,66823,2,0,L|256:-6,2,135.000005149842,2|0|2,0:0|0:0|0:0,0:0:0:0:
222,221,67756,2,0,P|177:189|138:175,1,67.5000025749208,2|0,0:0|0:0,0:0:0:0:
144,280,68067,2,0,P|89:289|52:306,1,67.5000025749208,2|0,0:0|0:0,0:0:0:0:
130,376,68378,2,0,P|165:295|287:287,1,202.500007724762,2|0,0:0|0:0,0:0:0:0:
352,320,68999,5,2,0:0:0:0:
352,320,69310,2,0,L|365:171,2,135.000005149842,2|0|2,0:0|0:0|0:0,0:0:0:0:
469,377,70243,2,0,L|461:301,1,67.5000025749208,2|0,0:0|0:0,0:0:0:0:
339,292,70554,2,0,L|347:216,1,67.5000025749208,2|0,0:0|0:0,0:0:0:0:
489,212,70865,2,0,L|465:2,1,202.500007724762,2|0,0:0|0:0,0:0:0:0:
256,32,71486,5,2,0:0:0:0:
256,32,71797,2,0,P|271:87|359:84,2,135.000005149842,2|0|2,0:0|0:0|0:0,0:0:0:0:
146,93,72730,2,0,P|87:76|64:75,1,67.5000025749208,2|0,0:0|0:0,0:0:0:0:
169,178,73041,2,0,P|215:137|235:127,1,67.5000025749208,2|0,0:0|0:0,0:0:0:0:
270,241,73352,2,0,P|228:207|156:222,1,101.250003862381,2|0,0:0|0:0,0:0:0:0:
185,218,73662,2,0,L|200:302,1,67.5000025749208,2|0,0:0|0:0,0:0:0:0:
133,368,73973,6,0,P|68:367|62:288,1,135.000005149842,2|0,0:0|0:0,0:0:0:0:
224,320,74440,1,2,0:0:0:0:
278,251,74595,1,2,0:0:0:0:
114,219,74828,2,0,L|120:95,1,101.250003862381,2|2,0:0|0:0,0:0:0:0:
192,64,75217,5,2,0:0:0:0:
192,64,75528,2,0,P|224:52|277:45,1,67.5000025749208,2|0,0:0|0:0,0:0:0:0:
418,65,75839,2,0,B|398:21|398:21|378:194,1,202.500007724762,2|0,0:0|0:0,0:0:0:0:
361,329,76460,5,14,0:0:0:0:
361,329,77082,2,0,P|399:302|449:298,1,67.5000025749208,2|0,0:0|0:0,0:0:0:0:
416,223,77393,2,0,P|378:196|328:192,1,67.5000025749208,2|0,0:0|0:0,0:0:0:0:
219,281,77704,6,0,P|272:257|275:197,1,101.250003862381,2|0,0:0|0:0,0:0:0:0:
255,187,78015,2,0,P|252:113|257:40,1,135.000005149842,2|0,0:0|0:0,0:0:0:0:
335,8,78637,1,2,0:0:0:0:
102,33,78947,6,0,L|109:-6,1,33.7500012874604,2|0,0:0|0:0,0:0:0:0:
122,105,79414,2,0,L|115:66,1,33.7500012874604,2|0,0:0|0:0,0:0:0:0:
102,177,79880,2,0,L|109:138,1,33.7500012874604,2|0,0:0|0:0,0:0:0:0:
147,303,80191,6,0,L|119:169,1,135.000005149842,2|0,0:0|0:0,0:0:0:0:
147,303,80813,1,2,0:0:0:0:
161,80,81435,5,2,0:0:0:0:
161,80,81745,2,0,P|207:92|256:93,1,67.5000025749208,2|0,0:0|0:0,0:0:0:0:
300,162,82056,2,0,P|263:192|219:213,1,67.5000025749208,2|0,0:0|0:0,0:0:0:0:
162,277,82367,2,0,P|186:318|219:353,1,67.5000025749208,2|0,0:0|0:0,0:0:0:0:
328,374,82678,5,2,0:0:0:0:
328,374,82989,2,0,L|314:275,1,67.5000025749208,2|0,0:0|0:0,0:0:0:0:
267,211,83300,2,0,P|297:259|373:242,1,135.000005149842,2|2,0:0|0:0,0:0:0:0:
483,126,83922,2,0,P|432:135|341:131,1,135.000005149842,2|0,0:0|0:0,0:0:0:0:
251,108,84388,1,2,0:0:0:0:
352,32,84543,1,2,0:0:0:0:
362,238,84751,2,0,L|368:345,1,90.0000034332277,2|2,0:0|0:0,0:0:0:0:
464,272,85165,5,2,0:0:0:0:
464,272,85476,2,0,P|436:213|368:209,1,135.000005149842,2|2,0:0|0:0,0:0:0:0:
64,288,86409,5,10,0:0:0:0:
73,254,86564,1,2,0:0:0:0:
98,231,86719,1,2,0:0:0:0:
132,225,86875,1,2,0:0:0:0:
164,239,87030,1,2,0:0:0:0:
64,288,87652,5,2,0:0:0:0:
58,260,87807,1,2,0:0:0:0:
69,234,87962,1,2,0:0:0:0:
91,219,88118,1,2,0:0:0:0:
119,217,88273,1,2,0:0:0:0:
64,288,88896,5,2,0:0:0:0:
50,269,89051,1,2,0:0:0:0:
49,247,89206,1,2,0:0:0:0:
60,228,89362,1,2,0:0:0:0:
79,217,89517,1,2,0:0:0:0:
64,288,92004,6,2,L|69:257,1,22.5,2|0,0:0|0:0,0:1:0:0:
136,193,92315,6,2,L|127:138,1,45,2|0,0:0|0:0,0:1:0:0:
109,56,92626,6,0,B|206:116|245:-5|362:45,1,243.000000926971,14|2,0:0|1:2,0:0:0:0:
367,256,93093,2,0,B|344:227|344:227|362:109,1,121.500000463486,2|0,0:0|0:0,0:0:0:0:
153,277,93403,2,0,B|215:239|215:239|258:351,1,182.250000695229,10|0,0:0|0:0,0:0:0:0:
175,352,93714,1,2,0:0:0:0:
274,287,93870,2,0,L|357:269,1,60.7500002317429,14|0,0:0|0:0,0:0:0:0:
178,182,94025,2,0,L|82:172,1,60.7500002317429,10|0,0:0|0:0,0:0:0:0:
317,39,94181,6,0,L|330:189,1,121.500000463486,2|2,1:2|0:0,0:0:0:0:
178,182,94414,1,2,0:0:0:0:
163,145,94492,2,0,L|150:-5,1,121.500000463486,2|10,0:0|0:0,0:0:0:0:
332,54,94725,1,2,0:0:0:0:
347,91,94803,2,0,L|360:241,1,121.500000463486,2|2,1:2|0:0,0:0:0:0:
212,356,95036,5,0,0:0:0:0:
264,304,95113,2,0,L|160:263,1,60.7500002317429,14|0,0:0|0:0,0:0:0:0:
128,255,95269,1,2,0:0:0:0:
128,255,95346,1,2,0:0:0:0:
128,255,95424,1,2,1:2:0:0:
342,197,95580,6,0,P|410:194|517:126,1,182.250000695229,6|2,0:0|0:0,0:0:0:0:
354,43,95890,2,0,P|323:27|277:48,1,60.7500002317429,10|0,0:0|0:0,0:0:0:0:
432,78,96046,2,0,P|464:66|482:20,1,60.7500002317429,6|0,1:2|0:0,0:0:0:0:
263,47,96201,1,6,0:0:0:0:
433,260,96357,6,0,L|451:322,1,60.7500002317429,10|0,0:0|0:0,0:0:0:0:
268,195,96512,2,0,L|273:125,1,60.7500002317429,10|2,0:0|0:0,0:0:0:0:
355,242,96668,1,2,1:2:0:0:
321,215,96745,1,2,0:0:0:0:
268,217,96823,1,2,0:0:0:0:
212,246,96901,1,2,0:0:0:0:
168,295,96979,2,0,L|156:358,1,60.7500002317429,2|2,0:0|0:0,0:0:0:0:
62,232,97134,5,10,0:0:0:0:
51,187,97212,1,2,0:0:0:0:
73,125,97289,1,2,1:2:0:0:
96,169,97367,1,2,0:0:0:0:
100,222,97445,1,10,0:0:0:0:
77,294,97523,1,2,0:0:0:0:
19,339,97600,5,14,0:0:0:0:
177,174,97756,1,2,0:0:0:0:
234,375,97911,1,2,1:2:0:0:
347,191,98067,2,0,P|308:251|225:247,1,121.500000463486,2|0,0:0|0:0,0:0:0:0:
9,57,98378,2,0,P|36:71|203:71,1,182.250000695229,10|0,0:0|0:0,0:0:0:0:
307,37,98688,1,2,0:0:0:0:
319,54,98766,1,2,0:0:0:0:
309,112,98844,5,14,0:0:0:0:
168,210,98999,1,10,0:0:0:0:
436,233,99155,1,2,1:2:0:0:
162,230,99310,1,2,0:0:0:0:
441,148,99466,1,2,0:0:0:0:
262,334,99621,1,10,0:0:0:0:
302,84,99776,1,2,1:2:0:0:
435,384,99932,1,2,0:0:0:0:
255,215,100087,6,0,P|219:174|126:170,1,121.500000463486,14|2,0:0|0:0,0:0:0:0:
64,197,100321,1,2,0:0:0:0:
73,143,100398,1,2,1:2:0:0:
258,311,100554,2,0,L|270:245,1,60.7500002317429,6|0,0:0|0:0,0:0:0:0:
369,154,100709,1,2,0:0:0:0:
389,189,100787,1,2,0:0:0:0:
367,232,100865,1,10,0:0:0:0:
222,41,101020,1,6,1:2:0:0:
472,132,101175,1,6,0:0:0:0:
167,207,101331,6,0,L|68:214,1,60.7500002317429,10|0,0:0|0:0,0:0:0:0:
273,344,101486,1,10,0:0:0:0:
243,319,101564,1,2,0:0:0:0:
231,285,101642,1,2,1:2:0:0:
248,239,101719,1,2,0:0:0:0:
281,220,101797,1,2,0:0:0:0:
332,221,101875,1,2,0:0:0:0:
379,272,101953,1,2,0:0:0:0:
447,289,102030,1,2,0:0:0:0:
505,240,102108,1,10,0:0:0:0:
512,171,102186,1,2,0:0:0:0:
463,118,102264,5,2,1:2:0:0:
467,186,102341,1,2,0:0:0:0:
470,252,102419,1,10,0:0:0:0:
471,318,102497,1,2,0:0:0:0:
470,384,102574,2,0,P|337:303|261:377,1,270,14|0,0:0|0:0,0:0:0:0:
101,384,103196,5,14,0:0:0:0:
55,325,103274,1,10,0:0:0:0:
55,250,103352,1,10,0:0:0:0:
103,191,103429,1,10,0:0:0:0:
185,188,103507,1,14,0:0:0:0:
233,247,103584,1,10,0:0:0:0:
233,322,103662,1,10,0:0:0:0:
187,381,103740,1,10,0:0:0:0:
155,313,103818,6,0,B|215:289|215:289|294:320,1,135.000005149842,14|0,0:0|0:0,0:0:0:0:
509,227,104051,2,0,B|446:199|446:199|373:233,1,135.000005149842,14|0,0:0|0:0,0:0:0:0:
160,147,104284,2,0,L|245:134,1,67.5000025749208,14|0,0:0|0:0,0:0:0:0:
477,60,104440,2,0,L|397:51,1,67.5000025749208,14|0,0:0|0:0,0:0:0:0:
328,159,104595,2,2,L|329:175,6,16.8750006437302,10|2|2|2|2|2|2,0:0|0:0|0:0|0:0|0:0|0:0|0:0,0:1:0:0:
325,108,104751,1,10,0:0:0:0:
228,258,104906,2,2,L|229:274,6,16.8750006437302,10|2|2|2|2|2|2,0:0|0:0|0:0|0:0|0:0|0:0|0:0,0:1:0:0:
225,186,105061,5,14,0:0:0:0:
96,353,105217,1,2,0:0:0:0:
96,353,105295,1,2,0:0:0:0:
96,353,105372,1,2,1:2:0:0:
93,115,105528,2,0,L|83:250,1,121.500000463486,2|0,0:0|0:0,0:0:0:0:
286,150,105839,2,0,P|309:130|325:105,1,60.7500002317429,10|0,0:0|0:0,0:0:0:0:
164,100,105994,2,0,P|133:97|104:103,1,60.7500002317429,2|0,1:2|0:0,0:0:0:0:
256,177,106150,1,2,0:0:0:0:
457,14,106305,6,0,L|469:77,1,60.7500002317429,14|0,0:0|0:0,0:0:0:0:
466,208,106460,1,10,0:0:0:0:
462,250,106538,1,2,0:0:0:0:
447,319,106616,1,2,1:2:0:0:
406,331,106694,1,2,0:0:0:0:
357,332,106771,1,2,0:0:0:0:
308,313,106849,1,2,0:0:0:0:
262,266,106927,2,0,P|235:259|194:269,1,60.7500002317429,2|2,0:0|0:0,0:0:0:0:
74,320,107082,2,0,P|97:305|119:269,1,60.7500002317429,10|2,0:0|0:0,0:0:0:0:
65,146,107238,5,2,1:2:0:0:
133,168,107315,1,2,0:0:0:0:
205,161,107393,1,10,0:0:0:0:
277,130,107471,1,2,0:0:0:0:
326,60,107549,5,14,0:0:0:0:
376,280,107704,1,2,0:0:0:0:
205,74,107859,1,2,1:2:0:0:
459,180,108015,2,0,B|411:146|411:146|308:167,1,121.500000463486,2|0,0:0|0:0,0:0:0:0:
122,342,108326,2,0,P|93:270|98:181,1,121.500000463486,10|2,0:0|1:2,0:0:0:0:
165,3,108637,1,2,0:0:0:0:
272,270,108792,6,0,L|258:108,1,121.500000463486,10|10,0:0|0:0,0:0:0:0:
454,225,109025,1,2,0:0:0:0:
461,262,109103,2,0,L|472:102,1,121.500000463486,2|2,1:2|0:0,0:0:0:0:
265,299,109336,1,2,0:0:0:0:
258,336,109414,2,0,L|247:176,1,121.500000463486,2|10,0:0|0:0,0:0:0:0:
342,65,109647,1,2,0:0:0:0:
341,137,109725,2,0,P|314:149|264:144,1,60.7500002317429,2|0,1:2|0:0,0:0:0:0:
463,132,109880,2,0,P|490:142|522:181,1,60.7500002317429,2|0,0:0|0:0,0:0:0:0:
371,247,110036,5,14,0:0:0:0:
443,45,110191,1,2,0:0:0:0:
465,85,110269,1,2,0:0:0:0:
463,132,110346,1,2,1:2:0:0:
209,260,110502,2,0,P|267:260|298:211,1,121.500000463486,6|0,0:0|0:0,0:0:0:0:
132,40,110813,2,0,L|149:132,1,60.7500002317429,10|0,0:0|0:0,0:0:0:0:
81,251,110968,1,6,1:2:0:0:
318,28,111124,1,6,0:0:0:0:
430,329,111279,6,0,L|447:242,1,60.7500002317429,14|0,0:0|0:0,0:0:0:0:
316,150,111435,2,0,L|314:222,1,60.7500002317429,10|2,0:0|0:0,0:0:0:0:
205,286,111590,1,2,1:2:0:0:
248,248,111668,1,2,0:0:0:0:
314,236,111745,1,2,0:0:0:0:
379,265,111823,1,2,0:0:0:0:
428,316,111901,6,0,L|445:232,1,60.7500002317429,6|2,0:0|0:0,0:0:0:0:
314,137,112056,2,0,L|312:209,1,60.7500002317429,10|2,0:0|0:0,0:0:0:0:
194,332,112212,1,2,1:2:0:0:
251,297,112289,1,2,0:0:0:0:
283,229,112367,1,2,0:0:0:0:
288,148,112445,1,2,0:0:0:0:
258,65,112523,6,0,P|214:46|114:54,1,121.500000463486,14|2,0:0|0:0,0:0:0:0:
47,139,112757,1,2,0:0:0:0:
37,83,112834,1,2,1:2:0:0:
228,161,112990,2,0,L|291:147,1,60.7500002317429,2|0,0:0|0:0,0:0:0:0:
170,210,113145,1,2,0:0:0:0:
161,265,113223,1,2,0:0:0:0:
151,325,113301,1,10,0:0:0:0:
323,228,113456,1,2,1:2:0:0:
38,251,113611,1,2,0:0:0:0:
364,340,113766,6,0,L|255:330,1,60.7500002317429,14|0,0:0|0:0,0:0:0:0:
239,152,113922,2,0,L|254:86,1,60.7500002317429,10|0,0:0|0:0,0:0:0:0:
233,271,114077,1,2,1:2:0:0:
426,277,114232,1,2,0:0:0:0:
469,256,114310,1,2,0:0:0:0:
456,208,114388,2,0,P|416:182|315:167,1,121.500000463486,2|10,0:0|0:0,0:0:0:0:
302,56,114621,1,2,0:0:0:0:
338,96,114699,2,0,P|326:130|295:155,1,60.7500002317429,2|0,1:2|0:0,0:0:0:0:
204,72,114854,2,0,P|187:39|192:0,1,60.7500002317429,2|0,0:0|0:0,0:0:0:0:
253,210,115010,6,0,L|272:301,1,60.7500002317429,14|0,0:0|0:0,0:0:0:0:
292,369,115165,1,2,0:0:0:0:
125,304,115321,2,0,L|144:212,1,60.7500002317429,2|0,1:2|0:0,0:0:0:0:
165,130,115476,1,2,0:0:0:0:
28,254,115631,1,2,0:0:0:0:
30,288,115709,1,2,0:0:0:0:
31,344,115787,1,10,0:0:0:0:
194,217,115942,1,2,1:2:0:0:
324,311,116098,1,2,0:0:0:0:
372,101,116253,6,0,L|388:25,1,60.7500002317429,14|0,0:0|0:0,0:0:0:0:
430,235,116409,2,0,L|452:311,1,60.7500002317429,10|2,0:0|0:0,0:0:0:0:
512,150,116564,2,0,P|479:161|423:148,1,60.7500002317429,2|2,1:2|0:0,0:0:0:0:
272,26,116719,1,2,0:0:0:0:
245,13,116797,1,2,0:0:0:0:
198,19,116875,1,6,0:0:0:0:
167,53,116953,1,2,0:0:0:0:
173,101,117030,1,10,0:0:0:0:
192,138,117108,1,2,0:0:0:0:
244,187,117186,1,2,1:2:0:0:
259,264,117264,1,2,0:0:0:0:
212,330,117341,1,10,0:0:0:0:
122,322,117419,1,2,0:0:0:0:
85,240,117497,6,0,B|157:231|157:231|180:242|180:242|296:230,1,182.250000695229,14|0,0:0|0:0,0:0:0:0:
383,283,117808,2,0,P|395:304|421:283,1,60.7500002317429,2|0,1:2|0:0,0:0:0:0:
439,152,117963,1,2,0:0:0:0:
399,101,118041,1,2,0:0:0:0:
339,127,118118,2,0,P|334:155|333:203,1,60.7500002317429,2|2,0:0|0:0,0:0:0:0:
434,284,118274,2,0,P|439:256|440:208,1,60.7500002317429,10|0,0:0|0:0,0:0:0:0:
229,142,118429,5,2,1:2:0:0:
180,149,118507,1,2,0:0:0:0:
147,185,118585,1,2,0:0:0:0:
99,193,118662,1,2,0:0:0:0:
50,199,118740,2,0,L|150:219,1,60.7500002317429,14|0,0:0|0:0,0:0:0:0:
311,262,118896,2,0,L|236:273,1,60.7500002317429,10|0,0:0|0:0,0:0:0:0:
125,227,119051,1,2,1:2:0:0:
437,137,119207,6,0,P|448:75|428:1,1,121.500000463486,2|0,0:0|0:0,0:0:0:0:
177,80,119517,2,0,L|252:89,1,60.7500002317429,10|0,0:0|0:0,0:0:0:0:
318,168,119673,1,2,1:2:0:0:
324,209,119751,1,2,0:0:0:0:
277,255,119828,1,2,0:0:0:0:
212,236,119906,1,2,0:0:0:0:
212,236,119984,6,0,L|220:307,1,60.7500002317429,14|0,0:0|0:0,0:0:0:0:
298,357,120139,1,2,0:0:0:0:
118,224,120295,2,0,L|126:153,1,60.7500002317429,2|0,1:2|0:0,0:0:0:0:
204,103,120450,1,2,0:0:0:0:
61,50,120605,1,2,0:0:0:0:
22,66,120683,1,2,0:0:0:0:
6,134,120761,2,0,L|-2:204,1,60.7500002317429,10|0,0:0|0:0,0:0:0:0:
56,324,120916,2,0,L|52:245,1,60.7500002317429,2|0,1:2|0:0,0:0:0:0:
92,121,121072,1,2,0:0:0:0:
262,270,121227,6,0,L|340:277,1,60.7500002317429,14|0,0:0|0:0,0:0:0:0:
407,215,121383,1,10,0:0:0:0:
407,215,121460,1,2,0:0:0:0:
407,215,121538,2,0,P|374:199|333:204,1,60.7500002317429,2|2,1:2|0:0,0:0:0:0:
136,336,121694,1,2,0:0:0:0:
118,308,121771,1,2,0:0:0:0:
112,268,121849,1,6,0:0:0:0:
131,224,121927,1,2,0:0:0:0:
166,178,122004,1,10,0:0:0:0:
212,137,122082,1,2,0:0:0:0:
227,54,122160,1,2,1:2:0:0:
156,9,122238,1,2,0:0:0:0:
74,47,122315,1,10,0:0:0:0:
81,142,122393,1,2,0:0:0:0:
142,90,122471,6,0,L|131:224,1,135.000005149842,14|2,0:0|0:0,0:0:0:0:
118,376,122782,1,10,0:0:0:0:
338,52,122937,6,0,L|349:186,1,135.000005149842,14|2,0:0|0:0,0:0:0:0:
362,339,123248,1,10,0:0:0:0:
125,28,123403,6,0,L|114:162,1,135.000005149842,14|2,0:0|0:0,0:0:0:0:
101,315,123714,1,10,0:0:0:0:
433,8,123870,6,0,L|444:142,1,135.000005149842,14|2,0:0|0:0,0:0:0:0:
457,295,124181,1,10,0:0:0:0:
23,3,124336,6,0,L|17:100,1,67.5000025749208,14|0,0:0|0:0,0:0:0:0:
150,182,124492,2,0,L|144:85,1,67.5000025749208,10|0,0:0|0:0,0:0:0:0:
37,35,124647,6,0,L|31:132,1,67.5000025749208,14|0,0:0|0:0,0:0:0:0:
164,214,124803,2,0,L|158:117,1,67.5000025749208,10|0,0:0|0:0,0:0:0:0:
24,264,124958,6,0,P|31:329|97:351,2,135.000005149842,14|2|2,0:0|0:0|0:0,0:0:0:0:
352,224,125424,2,0,P|345:288|279:310,2,135.000005149842,14|2|2,0:0|0:0|0:0,0:0:0:0:
73,114,125890,2,0,P|80:49|146:27,2,135.000005149842,14|2|2,0:0|0:0|0:0,0:0:0:0:
401,154,126357,2,0,P|394:90|328:68,2,135.000005149842,14|2|2,0:0|0:0|0:0,0:0:0:0:
207,303,126823,6,0,L|216:369,1,67.5000025749208,14|0,0:0|0:0,0:0:0:0:
66,225,126979,2,0,L|56:291,1,67.5000025749208,10|0,0:0|0:0,0:0:0:0:
309,148,127134,2,0,L|318:214,1,67.5000025749208,10|0,0:0|0:0,0:0:0:0:
18,70,127289,2,0,L|8:136,1,67.5000025749208,10|0,0:0|0:0,0:0:0:0:
15,150,127756,5,14,0:0:0:0:
112,127,127911,1,2,0:0:0:0:
136,226,128067,1,2,0:0:0:0:
39,249,128222,1,2,0:0:0:0:
264,32,128999,5,2,0:0:0:0:
142,3,129154,1,2,0:0:0:0:
112,127,129310,1,2,0:0:0:0:
234,155,129465,1,2,0:0:0:0:
