osu file format v14

[General]
AudioFilename: audio.mp3
AudioLeadIn: 0
PreviewTime: 66512
Countdown: 0
SampleSet: Soft
StackLeniency: 0.5
Mode: 0
LetterboxInBreaks: 0
WidescreenStoryboard: 0

[Editor]
Bookmarks: 606,5580,11797,16771,21745,26719,31694,36668,41642,46616,51590,56564,61538,66512,71486,76460,81435,86409,92626,102574,103196,104440,105061,112212,112523,122471,127756,129466
DistanceSpacing: 1
BeatDivisor: 4
GridSize: 32
TimelineZoom: 3.199998

[Metadata]
Title:Disorder
TitleUnicode:Disorder
Artist:HyuN feat. YURI
ArtistUnicode:HyuN feat. YURI
Creator:eiri-
Version:Easy
Source:Muse Dash
Tags:Ayyri BMS MaridiuS Plaudible Skytuna Acylica Acyl Sylas TheKoala Featured Artist FA Depressive Electronic Video Game English Phigros G2R2018 GO BACK 2 YOUR ROOTS 2018
BeatmapID:2586573
BeatmapSetID:1229471

[Difficulty]
HPDrainRate:3
CircleSize:2.5
OverallDifficulty:4
ApproachRate:5
SliderMultiplier:1
SliderTickRate:0.5

[Events]
//Background and Video events
0,0,"Disorder.jpg",0,0
//Break Periods
//Storyboard Layer 0 (Background)
//Storyboard Layer 1 (Fail)
//Storyboard Layer 2 (Pass)
//Storyboard Layer 3 (Foreground)
//Storyboard Layer 4 (Overlay)
//Storyboard Sound Samples

[TimingPoints]
606,310.880829015544,4,2,1,50,1,0
11797,-100,4,2,1,75,0,0
21745,-100,4,2,1,90,0,0
26719,-100,4,2,1,75,0,0
46616,-100,4,2,1,90,0,0
56564,-100,4,2,1,95,0,0
66512,-100,4,2,1,60,0,0
86409,-100,4,2,1,50,0,0
92004,-100,4,2,1,60,0,0
92315,-100,4,2,1,80,0,0
92626,-100,4,2,1,100,0,1
102574,-100,4,2,1,100,0,0
103196,-100,4,2,1,100,0,1
104440,-100,4,2,1,100,0,0
105061,-100,4,2,1,100,0,1
112212,-100,4,2,1,100,0,0
112523,-100,4,2,1,100,0,1
122471,-100,4,2,1,90,0,0
127756,-100,4,2,1,75,0,0
128999,-100,4,2,1,50,0,0

[Colours]
Combo1 : 135,235,243
Combo2 : 101,184,245
Combo3 : 189,138,247
Combo4 : 243,118,184

[HitObjects]
352,64,606,6,0,L|460:51,2,100,14|2|2,0:0|0:0|0:0,0:0:0:0:
237,175,1849,2,0,L|129:162,2,100,2|2|2,0:0|0:0|0:0,0:0:0:0:
370,263,3093,6,0,L|383:371,2,100,2|2|2,0:0|0:0|0:0,0:0:0:0:
237,175,4336,2,0,L|250:67,2,100,2|2|2,0:0|0:0|0:0,0:0:0:0:
101,261,5580,6,0,L|1:249,2,100,2|2|2,0:0|0:0|0:0,0:0:0:0:
227,358,6823,2,0,L|326:346,2,100,2|2|2,0:0|0:0|0:0,0:0:0:0:
101,261,8067,6,0,L|88:153,2,100,2|2|2,0:0|0:0|0:0,0:0:0:0:
101,261,11797,6,0,P|162:258|209:343,1,150,14|2,0:0|0:0,0:0:0:0:
353,369,12730,1,2,1:2:0:0:
442,324,13041,2,0,B|475:286|475:286|454:171,1,150,14|2,0:0|0:0,0:0:0:0:
428,40,13973,1,2,1:2:0:0:
336,80,14284,6,0,P|290:59|186:45,1,150,14|2,0:0|0:0,0:0:0:0:
51,97,15217,1,2,1:2:0:0:
98,185,15528,2,0,L|80:304,1,100,14|2,0:0|1:2,0:0:0:0:
169,335,16150,2,0,L|187:216,1,100,6|2,0:0|1:2,0:0:0:0:
268,183,16771,6,0,B|330:163|330:163|403:224,1,150,14|2,0:0|0:0,0:0:0:0:
293,327,17704,1,2,1:2:0:0:
198,293,18015,2,0,P|145:281|34:274,1,150,14|2,0:0|0:0,0:0:0:0:
159,171,18947,1,2,1:2:0:0:
122,77,19258,6,0,L|289:63,1,150,14|2,0:0|0:0,0:0:0:0:
413,14,20191,1,2,1:2:0:0:
470,95,20502,2,0,P|486:135|469:205,1,100,14|2,0:0|1:2,0:0:0:0:
391,241,21124,2,0,L|279:230,1,100,6|2,0:0|1:2,0:0:0:0:
192,218,21745,5,14,0:0:0:0:
257,82,22212,1,14,0:0:0:0:
320,218,22678,1,14,0:0:0:0:
257,354,23144,1,14,0:0:0:0:
119,294,23611,2,0,L|52:299,2,50,14|10|14,0:0|0:0|0:0,0:0:0:0:
192,224,24232,5,14,0:0:0:0:
334,272,24699,1,14,0:0:0:0:
382,130,25165,1,14,0:0:0:0:
240,82,25631,1,14,0:0:0:0:
192,224,26098,2,0,L|202:285,2,50,14|10|10,0:0|0:0|0:0,0:0:0:0:
113,161,26719,6,0,L|130:61,1,100,14|2,0:0|1:2,0:0:0:0:
220,19,27341,2,0,P|261:29|275:91,1,100,2|2,0:0|1:2,0:0:0:0:
249,175,27963,1,14,0:0:0:0:
343,208,28274,1,6,1:2:0:0:
415,139,28585,2,0,P|465:148|483:197,1,100,6|6,0:0|1:2,0:0:0:0:
462,287,29207,6,0,P|363:277|246:269,1,200,14|2,0:0|0:0,0:0:0:0:
199,347,30139,1,2,1:2:0:0:
110,301,30450,2,0,P|78:264|84:203,1,100,14|2,0:0|1:2,0:0:0:0:
175,192,31072,2,0,P|207:155|201:94,1,100,2|2,0:0|1:2,0:0:0:0:
136,34,31694,6,0,P|195:50|331:2,1,200,14|2,0:0|0:0,0:0:0:0:
419,37,32626,1,2,1:2:0:0:
372,125,32937,2,0,L|388:232,1,100,14|6,0:0|1:2,0:0:0:0:
295,266,33559,2,0,L|279:159,1,100,6|6,0:0|1:2,0:0:0:0:
267,67,34181,6,0,B|207:45|207:45|68:81,1,200,14|2,0:0|0:0,0:0:0:0:
17,160,35113,1,2,1:2:0:0:
93,223,35424,2,0,L|75:342,1,100,14|2,0:0|1:2,0:0:0:0:
175,343,36046,2,0,L|193:224,1,100,6|6,0:0|1:2,0:0:0:0:
213,146,36668,6,0,B|358:130|358:130|316:186,1,200,14|2,0:0|0:0,0:0:0:0:
295,268,37600,1,2,1:2:0:0:
371,332,37911,2,0,P|433:329|462:304,1,100,14|6,0:0|1:2,0:0:0:0:
472,206,38533,1,6,0:0:0:0:
410,126,38844,1,6,1:2:0:0:
462,40,39155,6,0,B|410:17|410:17|248:36,1,200,14|2,0:0|0:0,0:0:0:0:
169,53,40087,1,0,1:2:0:0:
233,131,40398,2,0,L|223:237,1,100,14|2,0:0|1:2,0:0:0:0:
209,329,41020,2,0,P|154:321|124:280,1,100,6|2,0:0|1:2,0:0:0:0:
40,237,41642,6,0,P|90:183|109:57,1,200,14|2,0:0|0:0,0:0:0:0:
203,26,42574,1,2,1:2:0:0:
291,72,42885,2,0,P|350:57|411:55,1,100,14|6,0:0|1:2,0:0:0:0:
405,153,43507,2,0,P|346:168|285:170,1,100,6|6,0:0|1:2,0:0:0:0:
211,139,44129,6,0,B|153:107|153:107|2:131,1,200,14|2,0:0|0:0,0:0:0:0:
77,210,45061,1,2,1:2:0:0:
20,292,45372,2,0,P|39:334|107:342,1,100,14|2,0:0|1:2,0:0:0:0:
177,304,45994,2,0,P|247:302|292:322,1,100,6|10,0:0|0:0,0:0:0:0:
357,370,46616,5,14,0:0:0:0:
498,321,47082,1,14,0:0:0:0:
449,180,47549,1,14,0:0:0:0:
308,229,48015,1,14,0:0:0:0:
259,88,48481,2,0,L|145:111,1,100,14|14,0:0|0:0,0:0:0:0:
63,130,49103,5,14,0:0:0:0:
159,15,49569,1,14,0:0:0:0:
255,130,50036,1,14,0:0:0:0:
176,253,50502,1,14,0:0:0:0:
311,316,50968,2,0,L|377:308,2,50,14|10|14,0:0|0:0|0:0,0:0:0:0:
226,369,51590,5,14,0:0:0:0:
85,320,52056,1,14,0:0:0:0:
134,179,52523,1,14,0:0:0:0:
275,228,52989,1,14,0:0:0:0:
385,126,53455,2,0,L|370:16,1,100,14|14,0:0|0:0,0:0:0:0:
273,6,54077,5,14,0:0:0:0:
130,52,54543,1,14,0:0:0:0:
164,172,55010,1,14,0:0:0:0:
21,218,55476,1,14,0:0:0:0:
58,363,55942,2,2,P|118:343|167:333,1,100,14|2,0:0|0:0,0:1:0:0:
254,340,56564,5,14,0:0:0:0:
222,193,57030,1,14,0:0:0:0:
369,166,57497,1,14,0:0:0:0:
337,19,57963,1,14,0:0:0:0:
487,39,58429,2,0,L|470:158,1,100,14|14,0:0|0:0,0:0:0:0:
453,236,59051,5,14,0:0:0:0:
311,185,59517,1,14,0:0:0:0:
186,269,59984,1,14,0:0:0:0:
328,320,60450,1,14,0:0:0:0:
453,236,60916,2,0,L|464:309,2,50,14|10|14,0:0|0:0|0:0,0:0:0:0:
374,173,61538,6,0,L|400:26,1,150,14|14,0:0|0:0,0:0:0:0:
254,61,62471,2,0,L|88:29,1,150,14|14,0:0|0:0,0:0:0:0:
48,170,63403,1,14,0:0:0:0:
146,151,63714,1,14,0:0:0:0:
165,249,64025,6,0,L|331:217,1,150,14|14,0:0|0:0,0:0:0:0:
454,267,64958,1,14,0:0:0:0:
497,176,65269,2,0,L|462:-5,1,175,14|10,0:0|0:0,0:0:0:0:
238,9,66512,5,14,0:0:0:0:
165,77,66823,2,0,P|126:60|53:55,2,100,2|0|2,0:0|0:0|0:0,0:0:0:0:
238,146,67756,1,2,0:0:0:0:
178,226,68067,1,2,0:0:0:0:
248,296,68378,2,0,P|347:282|458:275,1,200,2|2,0:0|0:0,0:0:0:0:
490,185,69310,6,0,L|474:76,2,100,2|0|2,0:0|0:0|0:0,0:0:0:0:
415,251,70243,1,2,0:0:0:0:
319,219,70554,1,2,0:0:0:0:
240,281,70865,2,0,B|199:253|199:253|45:299,1,200,2|2,0:0|0:0,0:0:0:0:
57,196,71797,6,0,P|9:152|10:104,2,100,2|0|2,0:0|0:0|0:0,0:0:0:0:
143,145,72730,1,2,0:0:0:0:
216,212,73041,1,2,0:0:0:0:
306,168,73352,2,0,P|365:161|423:160,1,100,2|2,0:0|0:0,0:0:0:0:
479,91,73973,6,0,P|394:41|273:41,1,200,2|2,0:0|0:0,0:0:0:0:
108,111,75217,1,2,0:0:0:0:
173,186,75528,2,0,L|168:294,1,100,2|2,0:0|0:0,0:0:0:0:
352,364,76460,5,14,0:0:0:0:
465,199,77082,2,0,L|473:78,2,100,2|2|2,0:0|0:0|0:0,0:0:0:0:
376,245,78015,2,0,P|334:222|176:191,1,200,2|2,0:0|0:0,0:0:0:0:
95,233,78947,5,2,0:0:0:0:
203,337,79414,1,2,0:0:0:0:
337,271,79880,1,2,0:0:0:0:
429,308,80191,2,0,P|458:281|458:210,1,100,2|0,0:0|0:0,0:0:0:0:
401,145,80813,2,0,P|372:172|372:243,1,100,2|0,0:0|0:0,0:0:0:0:
326,321,81435,5,2,0:0:0:0:
234,361,81745,2,0,P|190:337|124:326,2,100,2|2|2,0:0|0:0|0:0,0:0:0:0:
326,321,82678,1,2,0:0:0:0:
255,249,82989,1,2,0:0:0:0:
322,175,83300,2,0,L|312:64,1,100,2|2,0:0|0:0,0:0:0:0:
230,18,83922,6,0,P|162:27|121:151,1,200,2|2,0:0|0:0,0:0:0:0:
160,333,85165,2,0,P|213:314|278:309,1,100,2|2,0:0|0:0,0:0:0:0:
350,344,85787,1,2,0:0:0:0:
480,192,86409,5,10,0:0:0:0:
32,192,87652,5,2,0:0:0:0:
256,192,88896,5,2,0:0:0:0:
256,192,92004,5,2,0:0:0:0:
311,108,92315,1,2,0:0:0:0:
241,36,92626,6,0,L|76:27,1,150,14|2,0:0|0:0,0:0:0:0:
19,97,93403,1,10,0:0:0:0:
77,178,93714,2,0,P|116:237|122:326,1,150,2|2,0:0|1:2,0:0:0:0:
209,366,94492,2,0,P|259:354|315:350,1,100,2|2,0:0|1:2,0:0:0:0:
405,370,95113,6,0,P|458:340|458:238,1,150,14|6,0:0|0:0,0:0:0:0:
407,178,95890,1,10,0:0:0:0:
486,116,96201,2,0,B|442:68|442:68|339:95,1,150,6|2,0:0|1:2,0:0:0:0:
264,121,96979,2,0,L|152:107,1,100,2|2,0:0|1:2,0:0:0:0:
79,56,97600,6,0,P|116:126|114:207,1,150,14|2,0:0|0:0,0:0:0:0:
63,280,98378,1,10,0:0:0:0:
129,354,98688,2,0,P|214:343|269:288,1,150,2|2,0:0|1:2,0:0:0:0:
290,206,99466,2,0,P|234:186|185:184,1,100,2|2,0:0|1:2,0:0:0:0:
95,200,100087,6,0,B|54:173|54:173|67:63,1,150,14|6,0:0|0:0,0:0:0:0:
147,14,100865,1,10,0:0:0:0:
227,73,101175,2,0,P|304:62|395:57,1,150,6|2,0:0|1:2,0:0:0:0:
456,117,101953,2,0,L|442:229,1,100,2|2,0:0|1:2,0:0:0:0:
477,310,102574,5,14,0:0:0:0:
284,364,103196,6,0,P|210:301|97:287,1,200,14|14,0:0|0:0,0:0:0:0:
6,113,104440,1,14,0:0:0:0:
62,30,104751,1,10,0:0:0:0:
161,39,105061,6,0,P|139:134|135:209,1,150,14|2,0:0|0:0,0:0:0:0:
160,283,105839,1,10,0:0:0:0:
256,311,106150,2,0,P|356:297|421:281,1,150,2|2,0:0|1:2,0:0:0:0:
467,209,106927,1,2,0:0:0:0:
384,151,107238,1,2,1:2:0:0:
445,72,107549,6,0,P|410:29|318:23,1,150,14|2,0:0|0:0,0:0:0:0:
239,80,108326,1,10,0:0:0:0:
143,49,108637,1,2,0:0:0:0:
32,150,109103,2,0,L|49:271,1,100,2|2,1:2|0:0,0:0:0:0:
128,305,109725,1,2,1:2:0:0:
212,251,110036,6,0,P|286:267|315:331,2,150,14|6|6,0:0|0:0|1:2,0:0:0:0:
234,153,111279,1,14,0:0:0:0:
331,175,111590,1,2,1:2:0:0:
404,106,111901,2,0,P|409:55|371:1,1,100,6|2,0:0|1:2,0:0:0:0:
288,35,112523,6,0,P|232:21|121:20,2,150,14|2|2,0:0|0:0|1:2,0:0:0:0:
234,119,113766,2,0,P|252:174|270:285,1,150,14|2,0:0|0:0,0:0:0:0:
156,364,114699,1,2,1:2:0:0:
68,315,115010,6,0,L|87:153,1,150,14|2,0:0|0:0,0:0:0:0:
45,21,115942,1,2,1:2:0:0:
142,1,116253,2,0,P|176:17|205:85,1,100,14|2,0:0|1:2,0:0:0:0:
274,142,116875,2,0,P|240:158|211:226,1,100,6|2,0:0|1:2,0:0:0:0:
253,302,117497,6,0,P|316:288|416:284,1,150,14|2,0:0|0:0,0:0:0:0:
504,174,118429,1,2,1:2:0:0:
451,88,118740,2,0,P|400:75|290:75,1,150,14|2,0:0|0:0,0:0:0:0:
163,17,119673,1,2,1:2:0:0:
97,92,119984,6,0,L|122:262,1,150,14|2,0:0|0:0,0:0:0:0:
257,298,120916,1,2,1:2:0:0:
333,233,121227,2,0,L|456:241,1,100,14|2,0:0|1:2,0:0:0:0:
441,139,121849,2,0,L|318:131,1,100,6|2,0:0|1:2,0:0:0:0:
241,126,122471,5,14,0:0:0:0:
292,266,122937,1,14,0:0:0:0:
152,317,123403,1,14,0:0:0:0:
101,177,123870,1,14,0:0:0:0:
241,126,124336,2,0,L|238:195,2,50,14|10|14,0:0|0:0|0:0,0:0:0:0:
288,37,124958,5,14,0:0:0:0:
435,64,125424,1,14,0:0:0:0:
408,211,125890,1,14,0:0:0:0:
261,184,126357,1,14,0:0:0:0:
288,37,126823,2,0,L|308:189,1,150,14|10,0:0|0:0,0:0:0:0:
243,321,127756,5,14,0:0:0:0:
243,321,128999,6,0,B|179:306|179:306|191:200,1,150,2|2,0:0|0:0,0:0:0:0:
