osu file format v14

[General]
AudioFilename: audio.mp3
AudioLeadIn: 0
PreviewTime: 90439
Countdown: 0
SampleSet: Normal
StackLeniency: 0.7
Mode: 1
LetterboxInBreaks: 0
EpilepsyWarning: 1
WidescreenStoryboard: 0

[Editor]
Bookmarks: 11786,21734,26708,36657,46605,66501,92615,112512,122460
DistanceSpacing: 1
BeatDivisor: 4
GridSize: 32
TimelineZoom: 1.8

[Metadata]
Title:Disorder
TitleUnicode:Disorder
Artist:HyuN feat. YURI
ArtistUnicode:HyuN feat. YURI
Creator:Faputa
Version:Futsuu
Source:osu!
Tags:G2R2018 Go Back 2 To Your Roots 2018 climax depressive Team Double Phase mg mappers' guild fa featured artist bms muse dash English video game instrumental electronic
BeatmapID:2241099
BeatmapSetID:1062977

[Difficulty]
HPDrainRate:7
CircleSize:2
OverallDifficulty:4.5
ApproachRate:10
SliderMultiplier:1.4
SliderTickRate:1

[Events]
//Background and Video events
0,0,"light.jpg",0,0
//Break Periods
2,86598,89367
//Storyboard Layer 0 (Background)
//Storyboard Layer 1 (Fail)
//Storyboard Layer 2 (Pass)
//Storyboard Layer 3 (Foreground)
//Storyboard Layer 4 (Overlay)
//Storyboard Sound Samples

[TimingPoints]
595,310.880829015544,4,1,0,80,1,0
595,-100,4,1,0,80,0,0
8833,-100,4,1,0,30,0,0
9299,-100,4,1,0,35,0,0
9610,-100,4,1,0,40,0,0
9921,-100,4,1,0,45,0,0
10232,-100,4,1,0,50,0,0
10543,-100,4,1,0,55,0,0
10854,-100,4,1,0,60,0,0
11164,-100,4,1,0,65,0,0
11475,-100,4,1,0,70,0,0
11631,-100,4,1,0,100,0,0
12019,-100,4,1,0,90,0,0
16760,-100,4,1,0,100,0,0
16916,-100,4,1,0,90,0,0
21734,-100,4,1,0,100,0,0
26864,-100,4,1,0,90,0,0
31683,-100,4,1,0,100,0,0
31838,-100,4,1,0,90,0,0
36657,-100,4,1,0,100,0,0
36812,-100,4,1,0,90,0,0
41631,-100,4,1,0,100,0,0
41786,-100,4,1,0,90,0,0
45361,-100,4,1,0,100,0,0
45517,-100,4,1,0,90,0,0
45983,-100,4,1,0,100,0,0
46139,-100,4,1,0,90,0,0
46605,-100,4,1,0,100,0,0
66501,-100,4,1,0,85,0,0
86553,-100,4,1,0,30,0,0
90128,-100,4,1,0,35,0,0
90439,-100,4,1,0,40,0,0
90750,-100,4,1,0,45,0,0
91061,-100,4,1,0,50,0,0
91372,-100,4,1,0,55,0,0
91683,-100,4,1,0,60,0,0
91838,-100,4,1,0,65,0,0
92460,-100,4,1,0,100,0,0
92615,-100,4,1,0,100,0,1
92771,-100,4,1,0,95,0,1
97589,-100,4,1,0,100,0,1
97745,-100,4,1,0,95,0,1
102563,-100,4,1,0,95,0,0
102641,-100,4,1,0,100,0,0
105050,-100,4,1,0,100,0,1
105206,-100,4,1,0,95,0,1
112512,-100,4,1,0,100,0,0
112667,-100,4,1,0,95,0,0
117486,-100,4,1,0,100,0,0
117641,-100,4,1,0,95,0,0
122460,-100,4,1,0,100,0,0
127589,-100,4,1,0,65,0,0

[HitObjects]
256,192,595,5,4,0:0:0:0:
256,192,1838,1,8,0:0:0:0:
256,192,3082,1,0,0:0:0:0:
256,192,4325,1,8,0:0:0:0:
256,192,5569,1,8,0:0:0:0:
256,192,6812,1,0,0:0:0:0:
256,192,8056,1,8,0:0:0:0:
256,192,8988,8,8,11475,0:0:0:0:
256,192,11786,5,12,0:0:0:0:
256,192,12253,1,8,0:0:0:0:
256,192,12563,1,0,0:0:0:0:
256,192,12719,1,8,0:0:0:0:
256,192,12874,1,8,0:0:0:0:
256,192,13030,1,0,0:0:0:0:
256,192,13496,1,8,0:0:0:0:
256,192,13807,1,8,0:0:0:0:
256,192,13962,1,0,0:0:0:0:
256,192,14118,1,0,0:0:0:0:
256,192,14273,1,8,0:0:0:0:
256,192,14740,1,0,0:0:0:0:
256,192,15517,1,8,0:0:0:0:
256,192,15828,1,0,0:0:0:0:
256,192,16139,1,8,0:0:0:0:
256,192,16294,1,0,0:0:0:0:
256,192,16449,1,8,0:0:0:0:
256,192,16760,1,12,0:0:0:0:
256,192,17227,1,8,0:0:0:0:
256,192,17538,1,0,0:0:0:0:
256,192,17693,1,8,0:0:0:0:
256,192,17848,1,8,0:0:0:0:
256,192,18004,1,0,0:0:0:0:
256,192,18470,1,8,0:0:0:0:
256,192,18781,1,8,0:0:0:0:
256,192,18936,1,0,0:0:0:0:
256,192,19092,1,0,0:0:0:0:
256,192,19247,1,8,0:0:0:0:
256,192,19714,1,0,0:0:0:0:
256,192,20491,1,8,0:0:0:0:
256,192,20802,1,0,0:0:0:0:
256,192,21113,1,8,0:0:0:0:
256,192,21424,1,0,0:0:0:0:
256,192,21579,1,0,0:0:0:0:
256,192,21734,1,12,0:0:0:0:
256,192,22201,1,4,0:0:0:0:
256,192,22667,1,12,0:0:0:0:
256,192,23133,1,4,0:0:0:0:
256,192,23600,1,12,0:0:0:0:
256,192,23911,1,4,0:0:0:0:
256,192,24221,1,12,0:0:0:0:
256,192,24688,1,4,0:0:0:0:
256,192,25154,1,12,0:0:0:0:
256,192,25620,1,4,0:0:0:0:
256,192,26087,1,8,0:0:0:0:
256,192,26242,1,8,0:0:0:0:
256,192,26398,1,0,0:0:0:0:
256,192,26553,1,0,0:0:0:0:
256,192,26708,1,12,0:0:0:0:
256,192,27330,1,8,0:0:0:0:
256,192,27641,1,8,0:0:0:0:
256,192,27952,1,0,0:0:0:0:
256,192,28263,1,8,0:0:0:0:
256,192,28574,1,0,0:0:0:0:
256,192,28885,1,8,0:0:0:0:
256,192,29040,1,0,0:0:0:0:
256,192,29196,1,8,0:0:0:0:
256,192,29817,1,8,0:0:0:0:
256,192,30128,1,0,0:0:0:0:
256,192,30284,1,0,0:0:0:0:
256,192,30439,1,8,0:0:0:0:
256,192,31061,1,8,0:0:0:0:
256,192,31216,1,0,0:0:0:0:
256,192,31372,1,0,0:0:0:0:
256,192,31683,1,12,0:0:0:0:
256,192,32304,1,8,0:0:0:0:
256,192,32615,1,8,0:0:0:0:
256,192,32926,1,8,0:0:0:0:
256,192,33237,1,0,0:0:0:0:
256,192,33548,1,8,0:0:0:0:
256,192,33859,1,0,0:0:0:0:
256,192,34014,1,8,0:0:0:0:
256,192,34170,1,8,0:0:0:0:
256,192,34791,1,8,0:0:0:0:
256,192,35102,1,0,0:0:0:0:
256,192,35258,1,0,0:0:0:0:
256,192,35413,1,8,0:0:0:0:
256,192,36035,1,8,0:0:0:0:
256,192,36346,1,8,0:0:0:0:
256,192,36501,1,0,0:0:0:0:
256,192,36657,1,12,0:0:0:0:
256,192,37278,1,8,0:0:0:0:
256,192,37589,1,8,0:0:0:0:
256,192,37900,1,0,0:0:0:0:
256,192,38211,1,8,0:0:0:0:
256,192,38522,1,0,0:0:0:0:
256,192,38833,1,8,0:0:0:0:
256,192,38988,1,0,0:0:0:0:
256,192,39144,1,8,0:0:0:0:
256,192,39765,1,8,0:0:0:0:
256,192,40076,1,0,0:0:0:0:
256,192,40232,1,0,0:0:0:0:
256,192,40387,1,8,0:0:0:0:
256,192,41009,1,8,0:0:0:0:
256,192,41164,1,8,0:0:0:0:
256,192,41320,1,0,0:0:0:0:
256,192,41631,1,12,0:0:0:0:
256,192,42253,1,0,0:0:0:0:
256,192,42563,1,8,0:0:0:0:
256,192,42874,1,0,0:0:0:0:
256,192,43185,1,0,0:0:0:0:
256,192,43496,1,8,0:0:0:0:
256,192,43651,1,0,0:0:0:0:
256,192,43807,1,8,0:0:0:0:
256,192,44118,1,0,0:0:0:0:
256,192,44740,1,8,0:0:0:0:
256,192,45050,1,0,0:0:0:0:
256,192,45206,1,0,0:0:0:0:
256,192,45361,1,12,0:0:0:0:
256,192,45983,1,4,0:0:0:0:
256,192,46294,1,0,0:0:0:0:
256,192,46605,1,12,0:0:0:0:
256,192,47071,1,4,0:0:0:0:
256,192,47538,1,12,0:0:0:0:
256,192,48004,1,4,0:0:0:0:
256,192,48470,1,12,0:0:0:0:
256,192,49092,1,12,0:0:0:0:
256,192,49558,1,4,0:0:0:0:
256,192,50025,1,12,0:0:0:0:
256,192,50491,1,4,0:0:0:0:
256,192,50957,1,12,0:0:0:0:
256,192,51579,1,4,0:0:0:0:
256,192,52045,1,12,0:0:0:0:
256,192,52512,1,4,0:0:0:0:
256,192,52978,1,12,0:0:0:0:
256,192,53444,1,4,0:0:0:0:
256,192,54066,1,4,0:0:0:0:
256,192,54532,1,12,0:0:0:0:
256,192,54999,1,4,0:0:0:0:
256,192,55465,1,12,0:0:0:0:
256,192,55931,1,0,0:0:0:0:
256,192,56242,1,8,0:0:0:0:
256,192,56553,1,12,0:0:0:0:
256,192,57019,1,4,0:0:0:0:
256,192,57486,1,12,0:0:0:0:
256,192,57952,1,4,0:0:0:0:
256,192,58418,1,12,0:0:0:0:
256,192,59040,1,12,0:0:0:0:
256,192,59506,1,4,0:0:0:0:
256,192,59973,1,12,0:0:0:0:
256,192,60439,1,4,0:0:0:0:
256,192,60905,1,12,0:0:0:0:
256,192,61216,1,8,0:0:0:0:
256,192,61527,1,4,0:0:0:0:
256,192,61993,1,4,0:0:0:0:
256,192,62460,1,12,0:0:0:0:
256,192,62926,1,12,0:0:0:0:
256,192,63392,1,4,0:0:0:0:
256,192,64014,1,4,0:0:0:0:
256,192,64481,1,8,0:0:0:0:
256,192,64947,1,0,0:0:0:0:
256,192,65413,1,8,0:0:0:0:
256,192,65569,1,0,0:0:0:0:
256,192,65724,1,8,0:0:0:0:
256,192,66501,1,12,0:0:0:0:
256,192,67745,1,0,0:0:0:0:
256,192,68367,1,8,0:0:0:0:
256,192,70232,1,8,0:0:0:0:
256,192,70854,1,0,0:0:0:0:
256,192,72719,1,8,0:0:0:0:
256,192,73341,1,8,0:0:0:0:
256,192,73962,1,0,0:0:0:0:
256,192,75206,1,8,0:0:0:0:
256,192,75828,1,8,0:0:0:0:
256,192,76449,1,4,0:0:0:0:
256,192,77693,1,8,0:0:0:0:
256,192,78936,1,8,0:0:0:0:
256,192,79558,1,0,0:0:0:0:
256,192,80180,1,8,0:0:0:0:
256,192,81424,1,0,0:0:0:0:
256,192,82667,1,8,0:0:0:0:
256,192,83289,1,0,0:0:0:0:
256,192,83911,1,8,0:0:0:0:
256,192,84532,1,8,0:0:0:0:
256,192,85154,1,0,0:0:0:0:
256,192,85776,1,8,0:0:0:0:
256,192,86398,1,4,0:0:0:0:
256,192,89817,12,0,91993,0:0:0:0:
264,194,92615,5,12,0:0:0:0:
264,194,93082,1,8,0:0:0:0:
264,194,93392,1,8,0:0:0:0:
264,194,93703,1,8,0:0:0:0:
264,194,94014,1,0,0:0:0:0:
264,194,94170,1,8,0:0:0:0:
264,194,94481,1,0,0:0:0:0:
264,194,94791,1,8,0:0:0:0:
264,194,94947,1,0,0:0:0:0:
264,194,95102,1,8,0:0:0:0:
264,194,95569,1,8,0:0:0:0:
264,194,95879,1,8,0:0:0:0:
264,194,96035,1,0,0:0:0:0:
264,194,96190,1,8,0:0:0:0:
264,194,96346,1,0,0:0:0:0:
264,194,96657,1,0,0:0:0:0:
264,194,96812,1,8,0:0:0:0:
264,194,96968,1,8,0:0:0:0:
264,194,97589,1,12,0:0:0:0:
264,194,98056,1,8,0:0:0:0:
264,194,98367,1,8,0:0:0:0:
264,194,98677,1,8,0:0:0:0:
264,194,98988,1,0,0:0:0:0:
264,194,99144,1,8,0:0:0:0:
264,194,99455,1,0,0:0:0:0:
264,194,99765,1,8,0:0:0:0:
264,194,99921,1,0,0:0:0:0:
264,194,100076,1,8,0:0:0:0:
264,194,100543,1,8,0:0:0:0:
264,194,100854,1,8,0:0:0:0:
264,194,101009,1,0,0:0:0:0:
264,194,101164,1,8,0:0:0:0:
264,194,101320,1,0,0:0:0:0:
264,194,101631,1,0,0:0:0:0:
264,194,101786,1,8,0:0:0:0:
264,194,101942,1,8,0:0:0:0:
264,194,102253,1,0,0:0:0:0:
264,194,102563,1,4,0:0:0:0:
264,194,103185,1,8,0:0:0:0:
264,194,103341,1,0,0:0:0:0:
264,194,103496,1,8,0:0:0:0:
264,194,103651,1,0,0:0:0:0:
264,194,103807,1,12,0:0:0:0:
264,194,104429,1,8,0:0:0:0:
264,194,104740,1,0,0:0:0:0:
264,194,104895,1,0,0:0:0:0:
264,194,105050,1,12,0:0:0:0:
264,194,105517,1,8,0:0:0:0:
264,194,105828,1,8,0:0:0:0:
264,194,105983,1,0,0:0:0:0:
264,194,106139,1,8,0:0:0:0:
264,194,106294,1,0,0:0:0:0:
264,194,106605,1,8,0:0:0:0:
264,194,106760,1,0,0:0:0:0:
264,194,106916,1,8,0:0:0:0:
264,194,107538,1,12,0:0:0:0:
264,194,108004,1,8,0:0:0:0:
264,194,108315,1,8,0:0:0:0:
264,194,108626,1,8,0:0:0:0:
264,194,108936,1,0,0:0:0:0:
264,194,109092,1,8,0:0:0:0:
264,194,109403,1,0,0:0:0:0:
264,194,109714,1,8,0:0:0:0:
264,194,109869,1,0,0:0:0:0:
264,194,110025,1,8,0:0:0:0:
264,194,110491,1,8,0:0:0:0:
264,194,110802,1,0,0:0:0:0:
264,194,110957,1,8,0:0:0:0:
264,194,111113,1,8,0:0:0:0:
264,194,111268,1,4,0:0:0:0:
264,194,111890,1,12,0:0:0:0:
264,194,112201,1,0,0:0:0:0:
264,194,112356,1,0,0:0:0:0:
256,192,112512,1,12,0:0:0:0:
256,192,112979,1,8,0:0:0:0:
256,192,113289,1,0,0:0:0:0:
256,192,113445,1,8,0:0:0:0:
256,192,113600,1,8,0:0:0:0:
256,192,113756,1,0,0:0:0:0:
256,192,114222,1,8,0:0:0:0:
256,192,114533,1,8,0:0:0:0:
256,192,114688,1,0,0:0:0:0:
256,192,114843,1,0,0:0:0:0:
256,192,114999,1,8,0:0:0:0:
256,192,115466,1,0,0:0:0:0:
256,192,116243,1,8,0:0:0:0:
256,192,116554,1,0,0:0:0:0:
256,192,116865,1,8,0:0:0:0:
256,192,117020,1,0,0:0:0:0:
256,192,117175,1,8,0:0:0:0:
256,192,117486,1,12,0:0:0:0:
256,192,117953,1,8,0:0:0:0:
256,192,118264,1,0,0:0:0:0:
256,192,118419,1,8,0:0:0:0:
256,192,118574,1,8,0:0:0:0:
256,192,118730,1,0,0:0:0:0:
256,192,119196,1,8,0:0:0:0:
256,192,119507,1,8,0:0:0:0:
256,192,119662,1,0,0:0:0:0:
256,192,119817,1,0,0:0:0:0:
256,192,119973,1,8,0:0:0:0:
256,192,120440,1,0,0:0:0:0:
256,192,121217,1,8,0:0:0:0:
256,192,121528,1,0,0:0:0:0:
256,192,121839,1,8,0:0:0:0:
256,192,122150,1,0,0:0:0:0:
256,192,122305,1,0,0:0:0:0:
256,192,122460,1,12,0:0:0:0:
256,192,122926,1,4,0:0:0:0:
256,192,123392,1,12,0:0:0:0:
256,192,123859,1,4,0:0:0:0:
256,192,124325,1,12,0:0:0:0:
256,192,124636,1,4,0:0:0:0:
256,192,124947,1,12,0:0:0:0:
256,192,125413,1,12,0:0:0:0:
256,192,125879,1,4,0:0:0:0:
256,192,126346,1,12,0:0:0:0:
256,192,126812,1,4,0:0:0:0:
256,192,127123,1,8,0:0:0:0:
256,192,127745,1,12,0:0:0:0:
256,192,128988,1,8,0:0:0:0:
