osu file format v14

[General]
AudioFilename: audio.mp3
AudioLeadIn: 0
PreviewTime: 26631
Countdown: 0
SampleSet: Soft
StackLeniency: 0.7
Mode: 3
LetterboxInBreaks: 0
SpecialStyle: 0
WidescreenStoryboard: 0

[Editor]
Bookmarks: 11786,21734,26708,36657,46605,56553,66501,86398,92615,102563,112512,122460
DistanceSpacing: 1
BeatDivisor: 4
GridSize: 32
TimelineZoom: 1.6

[Metadata]
Title:Disorder
TitleUnicode:Disorder
Artist:HyuN feat. YURI
ArtistUnicode:HyuN feat. YURI
Creator:FAMoss
Version:Normal
Source:osu!
Tags:unpredictable bms featured artist fa mappers' guild mg electronic instrumental video games g2r2018 2018 go back 2 to your roots climax depressive team double phase muse dash phigros english
BeatmapID:2442561
BeatmapSetID:1131640

[Difficulty]
HPDrainRate:7.5
CircleSize:4
OverallDifficulty:7.5
ApproachRate:5
SliderMultiplier:1.4
SliderTickRate:1

[Events]
//Background and Video events
0,0,"tim-blandin-relic2.jpg",0,0
//Break Periods
//Storyboard Layer 0 (Background)
//Storyboard Layer 1 (Fail)
//Storyboard Layer 2 (Pass)
//Storyboard Layer 3 (Foreground)
//Storyboard Layer 4 (Overlay)
//Storyboard Sound Samples
Sample,26398,0,"Crash.wav",30
Sample,27719,0,"PNO0_062.wav",100
Sample,27952,0,"PNO0_048.wav",100
Sample,32693,0,"PNO0_062.wav",100
Sample,32926,0,"PNO0_048.wav",100
Sample,37667,0,"PNO0_062.wav",100
Sample,37900,0,"PNO0_048.wav",100
Sample,42641,0,"PNO0_062.wav",100
Sample,42874,0,"PNO0_048.wav",100
Sample,46605,0,"wind.wav",70
Sample,51268,0,"Crash.wav",30
Sample,56553,0,"wind.wav",70
Sample,78936,0,"PNO2_066.wav",100
Sample,79403,0,"PNO2_070.wav",100
Sample,79869,0,"PNO2_072.wav",100
Sample,80180,0,"PNO2_069.wav",100
Sample,80802,0,"PNO2_057.wav",100
Sample,81424,0,"PNO2_068.wav",100
Sample,82667,0,"PNO2_065.wav",100
Sample,83911,0,"PNO2_066.wav",100
Sample,84377,0,"PNO2_063.wav",100
Sample,84843,0,"PNO2_058.wav",100
Sample,85154,0,"PNO2_057.wav",100
Sample,85776,0,"PNO2_062.wav",100
Sample,104040,0,"Crash.wav",30
Sample,104273,0,"Crash.wav",30

[TimingPoints]
595,310.880829015544,4,2,1,50,1,0
26708,-100,4,2,1,50,0,1
46605,-100,4,2,1,50,0,0
66812,-100,4,2,1,30,0,0
92615,-100,4,2,1,50,0,1
122460,-100,4,2,1,50,0,0

[HitObjects]
64,192,595,5,0,0:0:0:100:PNO1_021.wav
192,192,595,1,0,0:0:0:100:HIT_000.wav
320,192,750,1,0,0:0:0:100:PNO1_025.wav
192,192,905,1,0,0:0:0:100:PNO1_024.wav
448,192,1061,1,0,0:0:0:100:PNO1_023.wav
320,192,1216,1,0,0:0:0:100:PNO1_020.wav
64,192,1838,1,0,0:0:0:100:PNO1_021.wav
320,192,1993,1,0,0:0:0:100:PNO1_025.wav
192,192,2149,1,0,0:0:0:100:PNO1_024.wav
448,192,2304,1,0,0:0:0:100:PNO1_023.wav
320,192,2460,1,0,0:0:0:100:PNO1_020.wav
448,192,3082,1,0,0:0:0:100:PNO1_021.wav
192,192,3237,1,0,0:0:0:100:PNO1_025.wav
320,192,3392,1,0,0:0:0:100:PNO1_024.wav
64,192,3548,1,0,0:0:0:100:PNO1_023.wav
192,192,3703,1,0,0:0:0:100:PNO1_020.wav
448,192,4325,1,0,0:0:0:100:PNO1_021.wav
192,192,4481,1,0,0:0:0:100:PNO1_025.wav
320,192,4636,1,0,0:0:0:100:PNO1_024.wav
64,192,4791,1,0,0:0:0:100:PNO1_023.wav
192,192,4947,1,0,0:0:0:100:PNO1_020.wav
64,192,5569,1,0,0:0:0:100:PNO1_021.wav
320,192,5724,1,0,0:0:0:100:PNO1_025.wav
192,192,5879,1,0,0:0:0:100:PNO1_024.wav
448,192,6035,1,0,0:0:0:100:PNO1_023.wav
320,192,6190,1,0,0:0:0:100:PNO1_020.wav
64,192,6812,1,0,0:0:0:100:PNO1_021.wav
320,192,6968,1,0,0:0:0:100:PNO1_025.wav
192,192,7123,1,0,0:0:0:100:PNO1_024.wav
448,192,7278,1,0,0:0:0:100:PNO1_023.wav
320,192,7434,1,0,0:0:0:100:PNO1_020.wav
448,192,8056,1,0,0:0:0:100:PNO1_021.wav
192,192,8211,1,0,0:0:0:100:PNO1_025.wav
320,192,8367,1,0,0:0:0:100:PNO1_024.wav
64,192,8522,1,0,0:0:0:100:PNO1_023.wav
192,192,8677,1,0,0:0:0:100:PNO1_019.wav
64,192,11786,1,6,0:0:0:0:
448,192,11786,1,0,0:0:0:70:wind.wav
320,192,11942,1,0,0:0:0:0:
64,192,12097,1,8,0:0:0:0:
192,192,12097,1,0,0:0:0:0:
448,192,12253,1,0,0:0:0:0:
320,192,12408,1,0,0:0:0:0:
192,192,12563,1,2,0:0:0:0:
64,192,12719,1,8,0:0:0:0:
448,192,12719,1,0,0:0:0:0:
192,192,13030,1,2,0:0:0:0:
192,192,13185,1,2,0:0:0:0:
320,192,13341,1,8,0:0:0:0:
448,192,13341,1,0,0:0:0:0:
64,192,13496,1,0,0:0:0:0:
192,192,13651,1,0,0:0:0:0:
320,192,13807,1,2,0:0:0:0:
64,192,13962,1,8,0:0:0:0:
448,192,13962,1,0,0:0:0:0:
448,192,14273,1,2,0:0:0:0:
320,192,14429,1,0,0:0:0:0:
64,192,14584,1,8,0:0:0:0:
192,192,14584,1,0,0:0:0:0:
448,192,14740,1,0,0:0:0:0:
192,192,14895,1,0,0:0:0:0:
320,192,15050,1,2,0:0:0:0:
64,192,15206,1,8,0:0:0:0:
448,192,15206,1,0,0:0:0:0:
192,192,15517,1,2,0:0:0:0:
192,192,15672,1,2,0:0:0:0:
320,192,15828,1,8,0:0:0:0:
448,192,15828,1,0,0:0:0:0:
64,192,15983,128,0,16139:0:0:0:0:
320,192,16139,1,0,0:0:0:0:
448,192,16294,128,2,16449:0:0:0:0:
64,192,16449,1,8,0:0:0:0:
192,192,16449,1,0,0:0:0:0:
192,192,16605,1,2,0:0:0:0:
320,192,16683,1,0,0:0:0:0:
64,192,16760,1,4,0:0:0:0:
448,192,16760,1,2,0:0:0:0:
192,192,16916,1,0,0:0:0:0:
320,192,17071,1,8,0:0:0:0:
448,192,17071,1,0,0:0:0:0:
64,192,17227,1,0,0:0:0:0:
192,192,17382,1,0,0:0:0:0:
320,192,17538,1,2,0:0:0:0:
64,192,17693,1,8,0:0:0:0:
448,192,17693,1,0,0:0:0:0:
320,192,18004,1,2,0:0:0:0:
320,192,18159,1,2,0:0:0:0:
64,192,18315,1,8,0:0:0:0:
192,192,18315,1,0,0:0:0:0:
448,192,18470,1,0,0:0:0:0:
320,192,18626,1,0,0:0:0:0:
192,192,18781,1,2,0:0:0:0:
64,192,18936,1,8,0:0:0:0:
448,192,18936,1,0,0:0:0:0:
64,192,19247,1,2,0:0:0:0:
192,192,19403,1,0,0:0:0:0:
320,192,19558,1,0,0:0:0:0:
448,192,19558,1,8,0:0:0:0:
64,192,19714,1,0,0:0:0:0:
320,192,19869,1,0,0:0:0:0:
192,192,20025,1,2,0:0:0:0:
64,192,20180,1,0,0:0:0:0:
448,192,20180,1,8,0:0:0:0:
320,192,20491,1,2,0:0:0:0:
320,192,20646,1,2,0:0:0:0:
64,192,20802,1,8,0:0:0:0:
192,192,20802,1,0,0:0:0:0:
448,192,20957,128,0,21113:0:0:0:0:
192,192,21113,1,0,0:0:0:0:
64,192,21268,128,2,21424:0:0:0:0:
320,192,21424,1,8,0:0:0:0:
448,192,21424,1,0,0:0:0:0:
320,192,21579,1,2,0:0:0:0:
192,192,21657,1,0,0:0:0:0:
64,192,21734,1,2,0:0:0:0:
448,192,21734,1,0,0:0:0:30:Crash.wav
320,192,22201,1,2,0:0:0:0:
448,192,22201,1,0,0:0:0:30:Crash.wav
64,192,22667,1,2,0:0:0:0:
192,192,22667,1,0,0:0:0:30:Crash.wav
320,192,23133,1,2,0:0:0:0:
448,192,23133,1,0,0:0:0:30:Crash.wav
64,192,23600,1,2,0:0:0:0:
192,192,23600,1,0,0:0:0:30:Crash.wav
320,192,23755,1,2,0:0:0:0:
64,192,23911,1,2,0:0:0:0:
192,192,23911,1,0,0:0:0:30:Crash.wav
320,192,24066,1,2,0:0:0:0:
64,192,24221,1,2,0:0:0:0:
448,192,24221,1,0,0:0:0:30:Crash.wav
64,192,24688,1,2,0:0:0:0:
192,192,24688,1,0,0:0:0:30:Crash.wav
320,192,25154,1,2,0:0:0:0:
448,192,25154,1,0,0:0:0:30:Crash.wav
64,192,25620,1,2,0:0:0:0:
192,192,25620,1,0,0:0:0:30:Crash.wav
64,192,26087,1,2,0:0:0:0:
448,192,26087,1,0,0:0:0:30:Crash.wav
192,192,26242,1,2,0:0:0:0:
320,192,26320,1,0,0:0:0:0:
448,192,26398,1,2,0:0:0:0:
320,192,26553,1,2,0:0:0:0:
192,192,26631,1,0,0:0:0:0:
64,192,26708,1,6,0:0:0:0:
448,192,26708,1,0,0:0:0:70:wind.wav
320,192,26864,1,0,0:0:0:0:
64,192,27019,1,8,0:0:0:0:
192,192,27019,1,0,0:0:0:0:
320,192,27175,1,0,0:0:0:0:
448,192,27330,1,0,0:0:0:0:
192,192,27486,1,2,0:0:0:0:
320,192,27563,1,0,0:0:0:100:PNO0_062.wav
64,192,27641,1,8,0:0:0:0:
448,192,27641,1,0,0:0:0:100:PNO0_054.wav
192,192,27797,1,0,0:0:0:100:PNO0_054.wav
320,192,27952,1,2,0:0:0:0:
64,192,28107,128,2,28263:0:0:0:0:
320,192,28263,1,8,0:0:0:0:
448,192,28263,1,0,0:0:0:0:
192,192,28418,128,0,28574:0:0:0:0:
448,192,28574,1,0,0:0:0:0:
320,192,28729,128,2,28885:0:0:0:0:
64,192,28885,1,8,0:0:0:0:
448,192,28885,128,0,29196:0:0:0:0:
192,192,29196,1,2,0:0:0:0:
448,192,29351,1,0,0:0:0:0:
64,192,29506,1,8,0:0:0:0:
192,192,29506,1,0,0:0:0:0:
320,192,29662,1,0,0:0:0:0:
448,192,29817,1,0,0:0:0:0:
192,192,29973,1,2,0:0:0:0:
64,192,30128,1,8,0:0:0:0:
448,192,30128,1,0,0:0:0:0:
320,192,30284,1,0,0:0:0:0:
192,192,30361,1,0,0:0:0:0:
64,192,30439,1,2,0:0:0:0:
448,192,30594,128,2,30750:0:0:0:0:
64,192,30750,1,8,0:0:0:0:
192,192,30750,1,0,0:0:0:0:
320,192,30905,128,0,31061:0:0:0:0:
192,192,31061,1,0,0:0:0:0:
64,192,31216,128,2,31372:0:0:0:0:
320,192,31372,1,8,0:0:0:0:
448,192,31372,1,0,0:0:0:0:
192,192,31527,1,2,0:0:0:0:
320,192,31605,1,0,0:0:0:0:
64,192,31683,1,2,0:0:0:0:
448,192,31683,1,4,0:0:0:0:
192,192,31838,1,0,0:0:0:0:
448,192,31993,1,8,0:0:0:0:
320,192,31993,1,0,0:0:0:0:
192,192,32149,1,0,0:0:0:0:
64,192,32304,1,0,0:0:0:0:
320,192,32460,1,2,0:0:0:0:
192,192,32538,1,0,0:0:0:100:PNO0_062.wav
448,192,32615,1,8,0:0:0:0:
64,192,32615,1,0,0:0:0:100:PNO0_054.wav
320,192,32771,1,0,0:0:0:100:PNO0_054.wav
192,192,32926,1,2,0:0:0:0:
448,192,33082,128,2,33237:0:0:0:0:
192,192,33237,1,8,0:0:0:0:
64,192,33237,1,0,0:0:0:0:
320,192,33392,128,0,33548:0:0:0:0:
64,192,33548,1,0,0:0:0:0:
192,192,33703,128,2,33859:0:0:0:0:
448,192,33859,1,8,0:0:0:0:
64,192,33859,128,0,34170:0:0:0:0:
320,192,34170,1,2,0:0:0:0:
64,192,34325,1,0,0:0:0:0:
448,192,34481,1,8,0:0:0:0:
320,192,34481,1,0,0:0:0:0:
192,192,34636,1,0,0:0:0:0:
64,192,34791,1,0,0:0:0:0:
320,192,34947,1,2,0:0:0:0:
448,192,35102,1,8,0:0:0:0:
64,192,35102,1,0,0:0:0:0:
192,192,35258,1,0,0:0:0:0:
320,192,35335,1,0,0:0:0:0:
448,192,35413,1,2,0:0:0:0:
64,192,35569,128,2,35724:0:0:0:0:
448,192,35724,1,8,0:0:0:0:
320,192,35724,1,0,0:0:0:0:
192,192,35879,128,0,36035:0:0:0:0:
320,192,36035,1,0,0:0:0:0:
448,192,36190,128,2,36346:0:0:0:0:
192,192,36346,1,8,0:0:0:0:
64,192,36346,1,0,0:0:0:0:
320,192,36501,1,2,0:0:0:0:
192,192,36579,1,0,0:0:0:0:
64,192,36657,1,2,0:0:0:0:
448,192,36657,1,4,0:0:0:0:
320,192,36812,1,0,0:0:0:0:
192,192,36968,1,0,0:0:0:0:
64,192,36968,1,8,0:0:0:0:
320,192,37123,1,0,0:0:0:0:
448,192,37278,1,0,0:0:0:0:
192,192,37434,1,2,0:0:0:0:
320,192,37512,1,0,0:0:0:100:PNO0_062.wav
448,192,37589,1,0,0:0:0:100:PNO0_054.wav
64,192,37589,1,8,0:0:0:0:
192,192,37745,1,0,0:0:0:100:PNO0_054.wav
320,192,37900,1,2,0:0:0:0:
64,192,38056,128,2,38211:0:0:0:0:
448,192,38211,1,0,0:0:0:0:
320,192,38211,1,8,0:0:0:0:
192,192,38367,128,0,38522:0:0:0:0:
448,192,38522,1,0,0:0:0:0:
320,192,38677,128,2,38833:0:0:0:0:
448,192,38833,128,0,39144:0:0:0:0:
64,192,38833,1,8,0:0:0:0:
192,192,39144,1,2,0:0:0:0:
448,192,39299,1,0,0:0:0:0:
192,192,39455,1,0,0:0:0:0:
64,192,39455,1,8,0:0:0:0:
320,192,39610,1,0,0:0:0:0:
448,192,39765,1,0,0:0:0:0:
192,192,39921,1,2,0:0:0:0:
448,192,40076,1,0,0:0:0:0:
64,192,40076,1,8,0:0:0:0:
320,192,40232,1,0,0:0:0:0:
192,192,40310,1,0,0:0:0:0:
64,192,40387,1,2,0:0:0:0:
448,192,40543,128,2,40698:0:0:0:0:
192,192,40698,1,0,0:0:0:0:
64,192,40698,1,8,0:0:0:0:
320,192,40854,128,0,41009:0:0:0:0:
192,192,41009,1,0,0:0:0:0:
64,192,41164,128,2,41320:0:0:0:0:
448,192,41320,1,0,0:0:0:0:
320,192,41320,1,8,0:0:0:0:
192,192,41475,1,2,0:0:0:0:
320,192,41553,1,0,0:0:0:0:
64,192,41631,1,4,0:0:0:0:
448,192,41631,1,2,0:0:0:0:
192,192,41786,1,0,0:0:0:0:
448,192,41942,1,8,0:0:0:0:
320,192,41942,1,0,0:0:0:0:
192,192,42097,1,0,0:0:0:0:
64,192,42253,1,0,0:0:0:0:
320,192,42408,1,2,0:0:0:0:
192,192,42486,1,0,0:0:0:100:PNO0_062.wav
448,192,42563,1,8,0:0:0:0:
64,192,42563,1,0,0:0:0:100:PNO0_054.wav
320,192,42719,1,0,0:0:0:100:PNO0_054.wav
192,192,42874,1,2,0:0:0:0:
448,192,43030,128,2,43185:0:0:0:0:
192,192,43185,1,8,0:0:0:0:
64,192,43185,1,0,0:0:0:0:
320,192,43341,128,0,43496:0:0:0:0:
64,192,43496,1,0,0:0:0:0:
192,192,43651,128,2,43807:0:0:0:0:
448,192,43807,1,8,0:0:0:0:
64,192,43807,128,0,44118:0:0:0:0:
320,192,44118,1,2,0:0:0:0:
64,192,44273,1,0,0:0:0:0:
448,192,44429,1,8,0:0:0:0:
320,192,44429,1,0,0:0:0:0:
192,192,44584,1,0,0:0:0:0:
64,192,44740,1,0,0:0:0:0:
320,192,44895,1,2,0:0:0:0:
448,192,45050,1,8,0:0:0:0:
64,192,45050,1,0,0:0:0:0:
192,192,45206,1,0,0:0:0:0:
64,192,45284,1,0,0:0:0:0:
448,192,45361,1,2,0:0:0:0:
320,192,45361,1,4,0:0:0:0:
64,192,45517,128,2,45672:0:0:0:0:
448,192,45672,1,8,0:0:0:0:
320,192,45672,1,0,0:0:0:0:
192,192,45828,128,0,45983:0:0:0:0:
320,192,45983,1,4,0:0:0:0:
448,192,46139,128,2,46294:0:0:0:0:
192,192,46294,1,8,0:0:0:0:
64,192,46294,1,0,0:0:0:0:
320,192,46449,1,2,0:0:0:0:
192,192,46527,1,0,0:0:0:0:
64,192,46605,1,2,0:0:0:0:
448,192,46605,1,0,0:0:0:30:Crash.wav
320,192,47071,1,2,0:0:0:0:
448,192,47071,1,0,0:0:0:30:Crash.wav
64,192,47538,1,2,0:0:0:0:
192,192,47538,1,0,0:0:0:30:Crash.wav
320,192,48004,1,2,0:0:0:0:
448,192,48004,1,0,0:0:0:30:Crash.wav
64,192,48470,1,2,0:0:0:0:
192,192,48470,1,0,0:0:0:30:Crash.wav
64,192,48781,1,2,0:0:0:0:
192,192,48781,1,0,0:0:0:30:Crash.wav
320,192,48936,1,2,0:0:0:0:
64,192,49092,1,2,0:0:0:0:
448,192,49092,1,0,0:0:0:30:Crash.wav
64,192,49558,1,2,0:0:0:0:
192,192,49558,1,0,0:0:0:30:Crash.wav
320,192,50025,1,2,0:0:0:0:
448,192,50025,1,0,0:0:0:30:Crash.wav
64,192,50491,1,2,0:0:0:0:
192,192,50491,1,0,0:0:0:30:Crash.wav
320,192,50957,1,2,0:0:0:0:
448,192,50957,1,0,0:0:0:30:Crash.wav
192,192,51113,1,2,0:0:0:0:
320,192,51268,128,0,51424:0:0:0:100:K2_000.wav
192,192,51424,128,0,51579:0:0:0:100:K2_000.wav
64,192,51579,1,2,0:0:0:0:
448,192,51579,1,0,0:0:0:30:Crash.wav
320,192,52045,1,2,0:0:0:0:
448,192,52045,1,0,0:0:0:30:Crash.wav
64,192,52512,1,2,0:0:0:0:
192,192,52512,1,0,0:0:0:30:Crash.wav
320,192,52978,1,2,0:0:0:0:
448,192,52978,1,0,0:0:0:30:Crash.wav
64,192,53444,1,2,0:0:0:0:
192,192,53444,1,0,0:0:0:30:Crash.wav
64,192,53755,1,2,0:0:0:0:
192,192,53755,1,0,0:0:0:30:Crash.wav
320,192,53911,1,2,0:0:0:0:
64,192,54066,1,2,0:0:0:0:
448,192,54066,1,0,0:0:0:30:Crash.wav
64,192,54532,1,2,0:0:0:0:
192,192,54532,1,0,0:0:0:30:Crash.wav
320,192,54999,1,2,0:0:0:0:
448,192,54999,1,0,0:0:0:30:Crash.wav
64,192,55465,1,2,0:0:0:0:
192,192,55465,1,0,0:0:0:30:Crash.wav
320,192,55931,1,8,0:0:0:0:
448,192,55931,128,0,56242:0:0:0:30:Crash.wav
64,192,56087,1,8,0:0:0:0:
192,192,56242,128,8,56398:0:0:0:0:
320,192,56398,128,8,56553:0:0:0:0:
64,192,56553,1,2,0:0:0:0:
448,192,56553,1,0,0:0:0:30:Crash.wav
320,192,57019,1,2,0:0:0:0:
448,192,57019,1,0,0:0:0:30:Crash.wav
64,192,57486,1,2,0:0:0:0:
192,192,57486,1,0,0:0:0:30:Crash.wav
320,192,57952,1,2,0:0:0:0:
448,192,57952,1,0,0:0:0:30:Crash.wav
64,192,58418,1,2,0:0:0:0:
192,192,58418,1,0,0:0:0:30:Crash.wav
64,192,58729,1,2,0:0:0:0:
192,192,58729,1,0,0:0:0:30:Crash.wav
320,192,58885,1,2,0:0:0:0:
64,192,59040,1,2,0:0:0:0:
448,192,59040,1,0,0:0:0:30:Crash.wav
64,192,59506,1,2,0:0:0:0:
192,192,59506,1,0,0:0:0:30:Crash.wav
320,192,59973,1,2,0:0:0:0:
448,192,59973,1,0,0:0:0:30:Crash.wav
64,192,60439,1,2,0:0:0:0:
192,192,60439,1,0,0:0:0:30:Crash.wav
320,192,60905,1,2,0:0:0:0:
448,192,60905,1,0,0:0:0:30:Crash.wav
64,192,61061,1,2,0:0:0:0:
192,192,61139,1,0,0:0:0:0:
320,192,61216,128,2,61372:0:0:0:0:
448,192,61216,1,0,0:0:0:30:Crash.wav
192,192,61372,128,2,61527:0:0:0:0:
64,192,61527,1,2,0:0:0:0:
448,192,61527,1,0,0:0:0:30:Crash.wav
320,192,61993,1,2,0:0:0:0:
448,192,61993,1,0,0:0:0:30:Crash.wav
64,192,62460,1,2,0:0:0:0:
192,192,62460,1,0,0:0:0:30:Crash.wav
320,192,62926,1,2,0:0:0:0:
448,192,62926,1,0,0:0:0:30:Crash.wav
64,192,63392,1,2,0:0:0:0:
192,192,63392,1,0,0:0:0:30:Crash.wav
64,192,63703,1,2,0:0:0:0:
192,192,63703,1,0,0:0:0:30:Crash.wav
320,192,63859,1,2,0:0:0:0:
64,192,64014,1,2,0:0:0:0:
448,192,64014,1,0,0:0:0:30:Crash.wav
64,192,64481,1,2,0:0:0:0:
192,192,64481,1,0,0:0:0:30:Crash.wav
320,192,64636,1,8,0:0:0:0:
192,192,64714,1,8,0:0:0:0:
64,192,64791,1,8,0:0:0:0:
320,192,64947,1,2,0:0:0:0:
448,192,64947,1,0,0:0:0:30:Crash.wav
192,192,65102,1,8,0:0:0:0:
320,192,65180,1,8,0:0:0:0:
64,192,65258,1,4,0:0:0:0:
448,192,65258,1,2,0:0:0:0:
192,192,65413,1,8,0:0:0:0:
320,192,65491,1,8,0:0:0:0:
448,192,65569,1,6,0:0:0:0:
64,192,65724,1,8,0:0:0:0:
192,192,65802,1,8,0:0:0:0:
64,192,66501,1,4,0:0:0:0:
448,192,66501,1,0,0:0:0:100:HIT_000.wav
192,192,66812,128,0,67123:0:0:0:0:
448,192,67123,128,0,67434:0:0:0:0:
64,192,67434,1,0,0:0:0:0:
192,192,67589,1,0,0:0:0:0:
320,192,67745,128,0,68056:0:0:0:0:
192,192,68056,1,0,0:0:0:0:
448,192,68367,128,0,68677:0:0:0:0:
64,192,68677,1,0,0:0:0:0:
192,192,68833,1,0,0:0:0:0:
448,192,68988,1,0,0:0:0:0:
320,192,69299,128,0,69610:0:0:0:0:
64,192,69610,128,0,69921:0:0:0:0:
448,192,69921,1,0,0:0:0:0:
320,192,70076,1,0,0:0:0:0:
192,192,70232,128,0,70543:0:0:0:0:
320,192,70543,1,0,0:0:0:0:
64,192,70854,128,0,71164:0:0:0:0:
448,192,71164,1,0,0:0:0:0:
320,192,71320,1,0,0:0:0:0:
64,192,71475,1,0,0:0:0:0:
192,192,71786,128,0,72097:0:0:0:0:
320,192,72097,128,0,72408:0:0:0:0:
64,192,72408,1,0,0:0:0:0:
192,192,72563,1,0,0:0:0:0:
448,192,72719,128,0,73030:0:0:0:0:
192,192,73030,1,0,0:0:0:0:
320,192,73341,128,0,73651:0:0:0:0:
64,192,73651,1,0,0:0:0:0:
192,192,73807,1,0,0:0:0:0:
448,192,73962,1,0,0:0:0:0:
64,192,74429,1,0,0:0:0:0:
320,192,74584,1,0,0:0:0:0:
192,192,74740,128,0,75050:0:0:0:0:
448,192,75050,1,0,0:0:0:0:
320,192,75206,128,0,75517:0:0:0:0:
64,192,75517,128,0,75828:0:0:0:0:
448,192,75828,128,0,76449:0:0:0:0:
64,192,76449,1,4,0:0:0:0:
192,192,76449,1,0,0:0:0:100:HIT_000.wav
192,192,77071,128,0,77382:0:0:0:0:
448,192,77382,1,0,0:0:0:0:
320,192,77538,1,0,0:0:0:0:
64,192,77693,128,0,78004:0:0:0:0:
320,192,78004,128,0,78470:0:0:0:0:
192,192,78470,1,0,0:0:0:100:PNO2_050.wav
448,192,78626,1,0,0:0:0:100:PNO2_059.wav
320,192,78781,1,0,0:0:0:100:PNO2_064.wav
64,192,78936,128,0,79403:0:0:0:100:PNO2_054.wav
320,192,79403,128,0,79869:0:0:0:100:PNO2_060.wav
192,192,79869,128,0,80180:0:0:0:100:PNO2_061.wav
448,192,80180,128,0,80802:0:0:0:100:PNO2_057.wav
192,192,80802,1,0,0:0:0:100:PNO2_051.wav
64,192,81113,1,0,0:0:0:0:
192,192,81268,1,0,0:0:0:0:
320,192,81424,1,0,0:0:0:100:PNO2_056.wav
448,192,81734,128,0,82045:0:0:0:0:
192,192,82045,1,0,0:0:0:0:
320,192,82201,1,0,0:0:0:100:PNO2_071.wav
64,192,82356,1,0,0:0:0:100:PNO2_067.wav
192,192,82512,1,0,0:0:0:100:PNO2_064.wav
448,192,82667,128,0,82978:0:0:0:100:PNO2_053.wav
192,192,82978,128,0,83289:0:0:0:0:
320,192,83289,128,0,83600:0:0:0:100:PNO2_049.wav
64,192,83600,128,0,83911:0:0:0:0:
448,192,83911,128,0,84377:0:0:0:100:PNO2_052.wav
192,192,84377,1,0,0:0:0:100:PNO2_052.wav
320,192,84532,1,0,0:0:0:0:
64,192,84843,1,0,0:0:0:100:PNO2_046.wav
192,192,84999,1,0,0:0:0:0:
448,192,85154,1,0,0:0:0:100:PNO2_049.wav
320,192,85465,128,0,85776:0:0:0:0:
64,192,85776,128,0,86398:0:0:0:100:PNO2_055.wav
320,192,86398,1,0,0:0:0:100:PNO1_021.wav
448,192,86398,1,0,0:0:0:100:HIT_000.wav
192,192,86553,1,0,0:0:0:100:PNO1_025.wav
320,192,86708,1,0,0:0:0:100:PNO1_024.wav
64,192,86864,1,0,0:0:0:100:PNO1_023.wav
192,192,87019,1,0,0:0:0:100:PNO1_020.wav
448,192,87641,1,0,0:0:0:100:PNO1_021.wav
192,192,87797,1,0,0:0:0:100:PNO1_025.wav
320,192,87952,1,0,0:0:0:100:PNO1_024.wav
64,192,88107,1,0,0:0:0:100:PNO1_023.wav
192,192,88263,1,0,0:0:0:100:PNO1_020.wav
64,192,88885,1,0,0:0:0:100:PNO1_021.wav
320,192,89040,1,0,0:0:0:100:PNO1_025.wav
192,192,89196,1,0,0:0:0:100:PNO1_024.wav
448,192,89351,1,0,0:0:0:100:PNO1_023.wav
320,192,89506,1,0,0:0:0:100:PNO1_019.wav
192,192,91993,1,0,0:0:0:0:
320,192,92304,1,0,0:0:0:0:
64,192,92615,1,6,0:0:0:0:
448,192,92615,1,0,0:0:0:70:wind.wav
192,192,92771,1,0,0:0:0:0:
320,192,92926,1,8,0:0:0:0:
448,192,92926,1,0,0:0:0:0:
192,192,93082,1,0,0:0:0:0:
320,192,93392,1,2,0:0:0:0:
64,192,93548,1,8,0:0:0:0:
448,192,93548,1,0,0:0:0:0:
192,192,93859,1,2,0:0:0:0:
448,192,94014,128,2,94170:0:0:0:0:
64,192,94170,1,8,0:0:0:0:
192,192,94170,1,0,0:0:0:0:
320,192,94325,128,0,94481:0:0:0:0:
64,192,94481,1,0,0:0:0:0:
192,192,94636,128,2,94791:0:0:0:0:
64,192,94791,1,8,0:0:0:0:
448,192,94791,1,0,0:0:0:0:
192,192,94947,1,0,0:0:0:0:
320,192,95025,1,0,0:0:0:0:
448,192,95102,1,2,0:0:0:0:
192,192,95258,1,0,0:0:0:0:
320,192,95413,1,8,0:0:0:0:
448,192,95413,1,0,0:0:0:0:
192,192,95569,1,0,0:0:0:0:
64,192,95724,1,0,0:0:0:0:
320,192,95879,1,2,0:0:0:0:
64,192,96035,1,8,0:0:0:0:
448,192,96035,1,0,0:0:0:0:
320,192,96346,1,2,0:0:0:0:
64,192,96501,128,2,96657:0:0:0:0:
320,192,96657,1,8,0:0:0:0:
448,192,96657,1,0,0:0:0:0:
192,192,96812,128,0,96968:0:0:0:0:
320,192,96968,1,0,0:0:0:0:
448,192,97123,128,2,97278:0:0:0:0:
64,192,97278,1,8,0:0:0:0:
192,192,97278,1,0,0:0:0:0:
320,192,97434,1,2,0:0:0:0:
192,192,97512,1,0,0:0:0:0:
64,192,97589,1,2,0:0:0:0:
448,192,97589,1,4,0:0:0:0:
320,192,97745,1,0,0:0:0:0:
192,192,97900,1,8,0:0:0:0:
64,192,97900,1,0,0:0:0:0:
320,192,98056,1,0,0:0:0:0:
192,192,98367,1,2,0:0:0:0:
448,192,98522,1,8,0:0:0:0:
64,192,98522,1,0,0:0:0:0:
320,192,98833,1,2,0:0:0:0:
64,192,98988,128,2,99144:0:0:0:0:
448,192,99144,1,8,0:0:0:0:
320,192,99144,1,0,0:0:0:0:
192,192,99299,128,0,99455:0:0:0:0:
448,192,99455,1,0,0:0:0:0:
320,192,99610,128,2,99765:0:0:0:0:
448,192,99765,1,8,0:0:0:0:
64,192,99765,1,0,0:0:0:0:
320,192,99921,1,0,0:0:0:0:
192,192,99999,1,0,0:0:0:0:
64,192,100076,1,2,0:0:0:0:
320,192,100232,1,0,0:0:0:0:
192,192,100387,1,8,0:0:0:0:
64,192,100387,1,0,0:0:0:0:
320,192,100543,1,0,0:0:0:0:
448,192,100698,1,0,0:0:0:0:
192,192,100854,1,2,0:0:0:0:
448,192,101009,1,8,0:0:0:0:
64,192,101009,1,0,0:0:0:0:
192,192,101320,1,2,0:0:0:0:
448,192,101475,128,2,101631:0:0:0:0:
192,192,101631,1,8,0:0:0:0:
64,192,101631,1,0,0:0:0:0:
320,192,101786,128,0,101942:0:0:0:0:
192,192,101942,1,0,0:0:0:0:
64,192,102097,128,2,102253:0:0:0:0:
448,192,102253,1,8,0:0:0:0:
320,192,102253,1,0,0:0:0:0:
192,192,102408,1,2,0:0:0:0:
320,192,102486,1,0,0:0:0:0:
64,192,102563,128,2,103030:0:0:0:0:
448,192,102563,128,4,103030:0:0:0:0:
320,192,103185,1,2,0:0:0:0:
448,192,103185,128,4,103496:0:0:0:0:
192,192,103341,1,6,0:0:0:0:
64,192,103496,128,6,103807:0:0:0:0:
320,192,103651,1,6,0:0:0:0:
192,192,103807,1,2,0:0:0:0:
448,192,103807,1,4,0:0:0:0:
320,192,104040,1,2,0:0:0:0:
192,192,104273,1,2,0:0:0:0:
64,192,104429,1,2,0:0:0:0:
448,192,104429,1,4,0:0:0:0:
320,192,104584,128,2,104740:0:0:0:0:
64,192,104740,1,2,0:0:0:0:
192,192,104895,128,2,105050:0:0:0:0:
64,192,105050,1,6,0:0:0:0:
448,192,105050,1,0,0:0:0:70:wind.wav
192,192,105206,1,0,0:0:0:0:
320,192,105361,1,8,0:0:0:0:
448,192,105361,1,0,0:0:0:0:
192,192,105517,1,0,0:0:0:0:
64,192,105672,1,0,0:0:0:0:
320,192,105828,1,2,0:0:0:0:
64,192,105983,1,8,0:0:0:0:
448,192,105983,1,0,0:0:0:0:
320,192,106294,1,2,0:0:0:0:
64,192,106449,128,2,106605:0:0:0:0:
320,192,106605,1,8,0:0:0:0:
448,192,106605,1,0,0:0:0:0:
192,192,106760,128,0,106916:0:0:0:0:
320,192,106916,1,0,0:0:0:0:
448,192,107071,128,2,107227:0:0:0:0:
64,192,107227,1,8,0:0:0:0:
192,192,107227,1,0,0:0:0:0:
320,192,107382,1,2,0:0:0:0:
192,192,107460,1,0,0:0:0:0:
64,192,107538,1,4,0:0:0:0:
448,192,107538,1,2,0:0:0:0:
320,192,107693,1,0,0:0:0:0:
64,192,107848,1,0,0:0:0:0:
192,192,107848,1,8,0:0:0:0:
320,192,108004,1,0,0:0:0:0:
192,192,108315,1,2,0:0:0:0:
64,192,108470,1,0,0:0:0:0:
448,192,108470,1,8,0:0:0:0:
320,192,108781,1,2,0:0:0:0:
64,192,108936,128,2,109092:0:0:0:0:
320,192,109092,1,0,0:0:0:0:
448,192,109092,1,8,0:0:0:0:
192,192,109247,128,0,109403:0:0:0:0:
448,192,109403,1,0,0:0:0:0:
320,192,109558,128,2,109714:0:0:0:0:
64,192,109714,1,0,0:0:0:0:
448,192,109714,1,8,0:0:0:0:
320,192,109869,1,0,0:0:0:0:
192,192,109947,1,0,0:0:0:0:
64,192,110025,1,2,0:0:0:0:
320,192,110180,1,0,0:0:0:0:
64,192,110335,1,0,0:0:0:0:
192,192,110335,1,8,0:0:0:0:
320,192,110491,1,0,0:0:0:0:
448,192,110646,1,0,0:0:0:0:
192,192,110802,1,2,0:0:0:0:
64,192,110957,1,0,0:0:0:0:
448,192,110957,1,8,0:0:0:0:
192,192,111268,1,4,0:0:0:0:
64,192,111268,1,2,0:0:0:0:
448,192,111424,128,2,111579:0:0:0:0:
64,192,111579,1,0,0:0:0:0:
192,192,111579,1,8,0:0:0:0:
320,192,111734,128,0,111890:0:0:0:0:
192,192,111890,1,4,0:0:0:0:
64,192,112045,128,2,112201:0:0:0:0:
320,192,112201,1,0,0:0:0:0:
448,192,112201,1,8,0:0:0:0:
192,192,112356,1,0,0:0:0:0:
320,192,112434,1,0,0:0:0:0:
64,192,112512,1,6,0:0:0:0:
448,192,112512,1,0,0:0:0:70:wind.wav
192,192,112667,1,0,0:0:0:0:
448,192,112822,1,8,0:0:0:0:
320,192,112822,1,0,0:0:0:0:
64,192,112978,1,0,0:0:0:0:
192,192,113133,1,0,0:0:0:0:
320,192,113289,1,2,0:0:0:0:
448,192,113444,1,8,0:0:0:0:
64,192,113444,1,0,0:0:0:0:
320,192,113755,1,2,0:0:0:0:
320,192,113911,1,2,0:0:0:0:
192,192,114066,1,8,0:0:0:0:
64,192,114066,1,0,0:0:0:0:
448,192,114221,1,0,0:0:0:0:
320,192,114377,1,0,0:0:0:0:
192,192,114532,1,2,0:0:0:0:
448,192,114688,1,8,0:0:0:0:
64,192,114688,1,0,0:0:0:0:
64,192,114999,1,2,0:0:0:0:
192,192,115154,1,0,0:0:0:0:
448,192,115310,1,8,0:0:0:0:
320,192,115310,1,0,0:0:0:0:
64,192,115465,1,0,0:0:0:0:
320,192,115620,1,0,0:0:0:0:
192,192,115776,1,2,0:0:0:0:
448,192,115931,1,8,0:0:0:0:
64,192,115931,1,0,0:0:0:0:
320,192,116242,1,2,0:0:0:0:
320,192,116398,1,2,0:0:0:0:
192,192,116553,1,8,0:0:0:0:
64,192,116553,1,0,0:0:0:0:
448,192,116708,128,0,116864:0:0:0:0:
192,192,116864,1,0,0:0:0:0:
64,192,117019,128,2,117175:0:0:0:0:
448,192,117175,1,8,0:0:0:0:
320,192,117175,1,0,0:0:0:0:
320,192,117330,1,2,0:0:0:0:
192,192,117408,1,0,0:0:0:0:
448,192,117486,1,4,0:0:0:0:
64,192,117486,1,2,0:0:0:0:
320,192,117641,1,0,0:0:0:0:
192,192,117797,1,8,0:0:0:0:
64,192,117797,1,0,0:0:0:0:
448,192,117952,1,0,0:0:0:0:
320,192,118107,1,0,0:0:0:0:
192,192,118263,1,2,0:0:0:0:
448,192,118418,1,8,0:0:0:0:
64,192,118418,1,0,0:0:0:0:
192,192,118729,1,2,0:0:0:0:
192,192,118885,1,2,0:0:0:0:
448,192,119040,1,8,0:0:0:0:
320,192,119040,1,0,0:0:0:0:
64,192,119196,1,0,0:0:0:0:
192,192,119351,1,0,0:0:0:0:
320,192,119506,1,2,0:0:0:0:
448,192,119662,1,8,0:0:0:0:
64,192,119662,1,0,0:0:0:0:
448,192,119973,1,2,0:0:0:0:
320,192,120128,1,0,0:0:0:0:
192,192,120284,1,0,0:0:0:0:
64,192,120284,1,8,0:0:0:0:
448,192,120439,1,0,0:0:0:0:
192,192,120594,1,0,0:0:0:0:
320,192,120750,1,2,0:0:0:0:
448,192,120905,1,0,0:0:0:0:
64,192,120905,1,8,0:0:0:0:
192,192,121216,1,2,0:0:0:0:
192,192,121372,1,2,0:0:0:0:
448,192,121527,1,8,0:0:0:0:
320,192,121527,1,0,0:0:0:0:
64,192,121683,128,0,121838:0:0:0:0:
320,192,121838,1,0,0:0:0:0:
448,192,121993,128,2,122149:0:0:0:0:
192,192,122149,1,8,0:0:0:0:
64,192,122149,1,0,0:0:0:0:
192,192,122304,1,2,0:0:0:0:
320,192,122382,1,0,0:0:0:0:
64,192,122460,1,0,0:0:0:30:Crash.wav
448,192,122460,1,2,0:0:0:0:
320,192,122771,1,2,0:0:0:0:
64,192,122926,1,2,0:0:0:0:
192,192,122926,1,0,0:0:0:30:Crash.wav
192,192,123237,1,2,0:0:0:0:
320,192,123392,1,2,0:0:0:0:
448,192,123392,1,0,0:0:0:30:Crash.wav
448,192,123703,1,2,0:0:0:0:
64,192,123859,1,2,0:0:0:0:
192,192,123859,1,0,0:0:0:30:Crash.wav
64,192,124170,1,2,0:0:0:0:
320,192,124325,1,2,0:0:0:0:
448,192,124325,1,0,0:0:0:30:Crash.wav
192,192,124481,1,2,0:0:0:0:
320,192,124636,1,2,0:0:0:0:
448,192,124636,1,0,0:0:0:30:Crash.wav
192,192,124791,1,2,0:0:0:0:
64,192,124947,1,2,0:0:0:0:
448,192,124947,1,0,0:0:0:30:Crash.wav
320,192,125413,1,2,0:0:0:0:
448,192,125413,1,0,0:0:0:30:Crash.wav
64,192,125879,1,2,0:0:0:0:
192,192,125879,1,0,0:0:0:30:Crash.wav
320,192,126346,1,2,0:0:0:0:
448,192,126346,1,0,0:0:0:30:Crash.wav
64,192,126812,1,2,0:0:0:0:
192,192,126812,1,0,0:0:0:30:Crash.wav
448,192,126968,1,2,0:0:0:0:
320,192,127045,1,0,0:0:0:0:
64,192,127123,1,2,0:0:0:0:
192,192,127123,1,0,0:0:0:30:Crash.wav
192,192,127278,1,2,0:0:0:0:
320,192,127356,1,0,0:0:0:0:
64,192,127745,1,4,0:0:0:0:
448,192,127745,1,0,0:0:0:100:HIT0_000.wav
