osu file format v14

[General]
AudioFilename: audio.mp3
AudioLeadIn: 0
PreviewTime: 26631
Countdown: 0
SampleSet: Soft
StackLeniency: 0.7
Mode: 3
LetterboxInBreaks: 0
SpecialStyle: 0
WidescreenStoryboard: 0

[Editor]
Bookmarks: 11786,21734,26708,36657,46605,56553,66501,86398,92615,102563,112512,122460
DistanceSpacing: 1
BeatDivisor: 2
GridSize: 32
TimelineZoom: 1.1

[Metadata]
Title:Disorder
TitleUnicode:Disorder
Artist:HyuN feat. YURI
ArtistUnicode:HyuN feat. YURI
Creator:FAMoss
Version:Easy
Source:osu!
Tags:unpredictable bms featured artist fa mappers' guild mg electronic instrumental video games g2r2018 2018 go back 2 to your roots climax depressive team double phase muse dash phigros english
BeatmapID:2442560
BeatmapSetID:1131640

[Difficulty]
HPDrainRate:7
CircleSize:4
OverallDifficulty:7
ApproachRate:5
SliderMultiplier:1.4
SliderTickRate:1

[Events]
//Background and Video events
0,0,"tim-blandin-relic2.jpg",0,0
//Break Periods
//Storyboard Layer 0 (Background)
//Storyboard Layer 1 (Fail)
//Storyboard Layer 2 (Pass)
//Storyboard Layer 3 (Foreground)
//Storyboard Layer 4 (Overlay)
//Storyboard Sound Samples
Sample,750,0,"PNO1_025.wav",100
Sample,1061,0,"PNO1_023.wav",100
Sample,1993,0,"PNO1_025.wav",100
Sample,2304,0,"PNO1_023.wav",100
Sample,3237,0,"PNO1_025.wav",100
Sample,3548,0,"PNO1_023.wav",100
Sample,4481,0,"PNO1_025.wav",100
Sample,4791,0,"PNO1_023.wav",100
Sample,5724,0,"PNO1_025.wav",100
Sample,6035,0,"PNO1_023.wav",100
Sample,6968,0,"PNO1_025.wav",100
Sample,7278,0,"PNO1_023.wav",100
Sample,8211,0,"PNO1_025.wav",100
Sample,8522,0,"PNO1_023.wav",100
Sample,22201,0,"Crash.wav",30
Sample,23133,0,"Crash.wav",30
Sample,23911,0,"Crash.wav",30
Sample,24688,0,"Crash.wav",30
Sample,25620,0,"Crash.wav",30
Sample,26398,0,"Crash.wav",30
Sample,27563,0,"PNO0_062.wav",100
Sample,27641,0,"PNO0_054.wav",100
Sample,27719,0,"PNO0_062.wav",100
Sample,27952,0,"PNO0_048.wav",100
Sample,32538,0,"PNO0_062.wav",100
Sample,32615,0,"PNO0_054.wav",100
Sample,32693,0,"PNO0_062.wav",100
Sample,32926,0,"PNO0_048.wav",100
Sample,37512,0,"PNO0_062.wav",100
Sample,37589,0,"PNO0_054.wav",100
Sample,37667,0,"PNO0_062.wav",100
Sample,37900,0,"PNO0_048.wav",100
Sample,42486,0,"PNO0_062.wav",100
Sample,42563,0,"PNO0_054.wav",100
Sample,42641,0,"PNO0_062.wav",100
Sample,42874,0,"PNO0_048.wav",100
Sample,46605,0,"wind.wav",70
Sample,47071,0,"Crash.wav",30
Sample,48004,0,"Crash.wav",30
Sample,48781,0,"Crash.wav",30
Sample,49558,0,"Crash.wav",30
Sample,50491,0,"Crash.wav",30
Sample,51268,0,"Crash.wav",30
Sample,52045,0,"Crash.wav",30
Sample,52978,0,"Crash.wav",30
Sample,53755,0,"Crash.wav",30
Sample,54532,0,"Crash.wav",30
Sample,55465,0,"Crash.wav",30
Sample,56553,0,"wind.wav",70
Sample,57019,0,"Crash.wav",30
Sample,57952,0,"Crash.wav",30
Sample,58729,0,"Crash.wav",30
Sample,59506,0,"Crash.wav",30
Sample,60439,0,"Crash.wav",30
Sample,61216,0,"Crash.wav",30
Sample,61993,0,"Crash.wav",30
Sample,62926,0,"Crash.wav",30
Sample,63703,0,"Crash.wav",30
Sample,64481,0,"Crash.wav",30
Sample,78470,0,"PNO2_050.wav",100
Sample,78781,0,"PNO2_064.wav",100
Sample,78936,0,"PNO2_066.wav",100
Sample,79403,0,"PNO2_070.wav",100
Sample,79869,0,"PNO2_072.wav",100
Sample,80180,0,"PNO2_069.wav",100
Sample,80802,0,"PNO2_057.wav",100
Sample,81424,0,"PNO2_068.wav",100
Sample,82201,0,"PNO2_071.wav",100
Sample,82512,0,"PNO2_064.wav",100
Sample,82667,0,"PNO2_065.wav",100
Sample,83911,0,"PNO2_066.wav",100
Sample,84377,0,"PNO2_063.wav",100
Sample,84843,0,"PNO2_058.wav",100
Sample,85154,0,"PNO2_057.wav",100
Sample,85776,0,"PNO2_062.wav",100
Sample,86398,0,"HIT_000.wav",100
Sample,86553,0,"PNO1_025.wav",100
Sample,86864,0,"PNO1_023.wav",100
Sample,87797,0,"PNO1_025.wav",100
Sample,88107,0,"PNO1_023.wav",100
Sample,89040,0,"PNO1_025.wav",100
Sample,89351,0,"PNO1_023.wav",100
Sample,104040,0,"Crash.wav",30
Sample,104273,0,"Crash.wav",30
Sample,122926,0,"Crash.wav",30
Sample,123392,0,"Crash.wav",30
Sample,123859,0,"Crash.wav",30
Sample,124325,0,"Crash.wav",30
Sample,124636,0,"Crash.wav",30
Sample,125413,0,"Crash.wav",30
Sample,126346,0,"Crash.wav",30
Sample,127123,0,"Crash.wav",30

[TimingPoints]
595,310.880829015544,4,2,1,50,1,0
26708,-100,4,2,1,50,0,1
46605,-100,4,2,1,50,0,0
66812,-100,4,2,1,30,0,0
92615,-100,4,2,1,50,0,1
122460,-100,4,2,1,50,0,0

[HitObjects]
64,192,595,5,0,0:0:0:100:PNO1_021.wav
192,192,595,1,0,0:0:0:100:HIT_000.wav
320,192,905,1,0,0:0:0:100:PNO1_024.wav
448,192,1216,1,0,0:0:0:100:PNO1_020.wav
192,192,1838,1,0,0:0:0:100:PNO1_021.wav
320,192,2149,1,0,0:0:0:100:PNO1_024.wav
448,192,2460,1,0,0:0:0:100:PNO1_020.wav
320,192,3082,1,0,0:0:0:100:PNO1_021.wav
192,192,3392,1,0,0:0:0:100:PNO1_024.wav
64,192,3703,1,0,0:0:0:100:PNO1_020.wav
320,192,4325,1,0,0:0:0:100:PNO1_021.wav
192,192,4636,1,0,0:0:0:100:PNO1_024.wav
64,192,4947,1,0,0:0:0:100:PNO1_020.wav
192,192,5569,1,0,0:0:0:100:PNO1_021.wav
320,192,5879,1,0,0:0:0:100:PNO1_024.wav
448,192,6190,1,0,0:0:0:100:PNO1_020.wav
192,192,6812,1,0,0:0:0:100:PNO1_021.wav
320,192,7123,1,0,0:0:0:100:PNO1_024.wav
448,192,7434,1,0,0:0:0:100:PNO1_020.wav
320,192,8056,1,0,0:0:0:100:PNO1_021.wav
192,192,8367,1,0,0:0:0:100:PNO1_024.wav
64,192,8677,1,0,0:0:0:100:PNO1_019.wav
320,192,11786,1,6,0:0:0:0:
448,192,11786,1,0,0:0:0:70:wind.wav
192,192,12097,1,8,0:0:0:0:
448,192,12253,1,0,0:0:0:0:
64,192,12563,1,2,0:0:0:0:
320,192,12719,1,8,0:0:0:0:
64,192,13030,1,2,0:0:0:0:
192,192,13185,1,2,0:0:0:0:
448,192,13341,1,8,0:0:0:0:
320,192,13496,1,0,0:0:0:0:
448,192,13807,1,2,0:0:0:0:
192,192,13962,1,8,0:0:0:0:
320,192,14273,1,2,0:0:0:0:
64,192,14584,1,8,0:0:0:0:
448,192,14740,1,0,0:0:0:0:
192,192,15050,1,2,0:0:0:0:
320,192,15206,1,8,0:0:0:0:
64,192,15517,1,2,0:0:0:0:
192,192,15672,1,2,0:0:0:0:
448,192,15828,128,8,16139:0:0:0:0:
192,192,16139,128,0,16449:0:0:0:0:
448,192,16449,1,8,0:0:0:0:
320,192,16605,1,2,0:0:0:0:
64,192,16760,1,4,0:0:0:0:
192,192,16760,1,2,0:0:0:0:
320,192,17071,1,8,0:0:0:0:
64,192,17227,1,0,0:0:0:0:
448,192,17538,1,2,0:0:0:0:
192,192,17693,1,8,0:0:0:0:
448,192,18004,1,2,0:0:0:0:
320,192,18159,1,2,0:0:0:0:
64,192,18315,1,8,0:0:0:0:
192,192,18470,1,0,0:0:0:0:
64,192,18781,1,2,0:0:0:0:
320,192,18936,1,8,0:0:0:0:
192,192,19247,1,2,0:0:0:0:
448,192,19558,1,8,0:0:0:0:
64,192,19714,1,0,0:0:0:0:
320,192,20025,1,2,0:0:0:0:
192,192,20180,1,8,0:0:0:0:
448,192,20491,1,2,0:0:0:0:
320,192,20646,1,2,0:0:0:0:
64,192,20802,128,8,21113:0:0:0:0:
320,192,21113,128,0,21424:0:0:0:0:
64,192,21424,1,8,0:0:0:0:
192,192,21579,1,2,0:0:0:0:
320,192,21734,1,2,0:0:0:0:
448,192,21734,1,0,0:0:0:30:Crash.wav
192,192,22201,1,2,0:0:0:0:
64,192,22667,1,2,0:0:0:0:
448,192,22667,1,0,0:0:0:30:Crash.wav
320,192,23133,1,2,0:0:0:0:
64,192,23600,1,2,0:0:0:0:
192,192,23600,1,0,0:0:0:30:Crash.wav
320,192,23911,1,2,0:0:0:0:
64,192,24221,1,2,0:0:0:0:
192,192,24221,1,0,0:0:0:30:Crash.wav
320,192,24688,1,2,0:0:0:0:
64,192,25154,1,2,0:0:0:0:
448,192,25154,1,0,0:0:0:30:Crash.wav
192,192,25620,1,2,0:0:0:0:
320,192,26087,1,2,0:0:0:0:
448,192,26087,128,0,26398:0:0:0:30:Crash.wav
192,192,26398,128,2,26708:0:0:0:0:
64,192,26708,1,6,0:0:0:0:
448,192,26708,1,0,0:0:0:70:wind.wav
320,192,27019,1,8,0:0:0:0:
320,192,27330,1,0,0:0:0:0:
64,192,27641,1,8,0:0:0:0:
192,192,27797,1,0,0:0:0:100:PNO0_054.wav
320,192,27952,128,2,28263:0:0:0:0:
64,192,28263,128,8,28574:0:0:0:0:
448,192,28574,128,0,28885:0:0:0:0:
64,192,28885,1,8,0:0:0:0:
192,192,29040,1,0,0:0:0:0:
320,192,29196,128,2,29506:0:0:0:0:
64,192,29506,1,8,0:0:0:0:
448,192,29662,1,0,0:0:0:0:
192,192,29817,128,0,30128:0:0:0:0:
448,192,30128,1,8,0:0:0:0:
320,192,30284,1,0,0:0:0:0:
64,192,30439,128,2,30750:0:0:0:0:
192,192,30750,1,8,0:0:0:0:
320,192,30905,1,0,0:0:0:0:
448,192,31061,128,0,31372:0:0:0:0:
192,192,31372,1,8,0:0:0:0:
320,192,31527,1,2,0:0:0:0:
64,192,31683,1,2,0:0:0:0:
448,192,31683,1,4,0:0:0:0:
192,192,31993,1,8,0:0:0:0:
192,192,32304,1,0,0:0:0:0:
448,192,32615,1,8,0:0:0:0:
320,192,32771,1,0,0:0:0:100:PNO0_054.wav
192,192,32926,128,2,33237:0:0:0:0:
448,192,33237,128,8,33548:0:0:0:0:
64,192,33548,128,0,33859:0:0:0:0:
448,192,33859,1,8,0:0:0:0:
320,192,34014,1,0,0:0:0:0:
192,192,34170,128,2,34481:0:0:0:0:
448,192,34481,1,8,0:0:0:0:
64,192,34636,1,0,0:0:0:0:
320,192,34791,128,0,35102:0:0:0:0:
64,192,35102,1,8,0:0:0:0:
192,192,35258,1,0,0:0:0:0:
448,192,35413,128,2,35724:0:0:0:0:
320,192,35724,1,8,0:0:0:0:
64,192,35879,1,0,0:0:0:0:
192,192,36035,128,0,36346:0:0:0:0:
320,192,36346,1,8,0:0:0:0:
192,192,36501,1,2,0:0:0:0:
64,192,36657,1,2,0:0:0:0:
448,192,36657,1,4,0:0:0:0:
320,192,36968,1,8,0:0:0:0:
320,192,37278,1,0,0:0:0:0:
64,192,37589,1,8,0:0:0:0:
192,192,37745,1,0,0:0:0:100:PNO0_054.wav
320,192,37900,128,2,38211:0:0:0:0:
64,192,38211,128,8,38522:0:0:0:0:
448,192,38522,128,0,38833:0:0:0:0:
64,192,38833,1,8,0:0:0:0:
192,192,38988,1,0,0:0:0:0:
320,192,39144,128,2,39455:0:0:0:0:
64,192,39455,1,8,0:0:0:0:
448,192,39610,1,0,0:0:0:0:
192,192,39765,128,0,40076:0:0:0:0:
448,192,40076,1,8,0:0:0:0:
320,192,40232,1,0,0:0:0:0:
64,192,40387,128,2,40698:0:0:0:0:
192,192,40698,1,8,0:0:0:0:
320,192,40854,1,0,0:0:0:0:
448,192,41009,128,0,41320:0:0:0:0:
192,192,41320,1,8,0:0:0:0:
320,192,41475,1,2,0:0:0:0:
64,192,41631,1,4,0:0:0:0:
448,192,41631,1,2,0:0:0:0:
192,192,41942,1,8,0:0:0:0:
192,192,42253,1,0,0:0:0:0:
448,192,42563,1,8,0:0:0:0:
320,192,42719,1,0,0:0:0:100:PNO0_054.wav
192,192,42874,128,2,43185:0:0:0:0:
448,192,43185,128,8,43496:0:0:0:0:
64,192,43496,128,0,43807:0:0:0:0:
448,192,43807,1,8,0:0:0:0:
320,192,43962,1,0,0:0:0:0:
192,192,44118,128,2,44429:0:0:0:0:
448,192,44429,1,8,0:0:0:0:
64,192,44584,1,0,0:0:0:0:
320,192,44740,128,0,45050:0:0:0:0:
64,192,45050,1,8,0:0:0:0:
192,192,45206,1,0,0:0:0:0:
320,192,45361,1,2,0:0:0:0:
448,192,45361,1,4,0:0:0:0:
448,192,45672,1,8,0:0:0:0:
320,192,45828,1,0,0:0:0:0:
192,192,45983,1,4,0:0:0:0:
64,192,46294,1,8,0:0:0:0:
192,192,46449,1,2,0:0:0:0:
320,192,46605,1,2,0:0:0:0:
448,192,46605,1,0,0:0:0:30:Crash.wav
192,192,47071,1,2,0:0:0:0:
64,192,47538,1,2,0:0:0:0:
448,192,47538,1,0,0:0:0:30:Crash.wav
320,192,48004,1,2,0:0:0:0:
64,192,48470,1,2,0:0:0:0:
192,192,48470,1,0,0:0:0:30:Crash.wav
320,192,48781,1,2,0:0:0:0:
64,192,49092,1,2,0:0:0:0:
192,192,49092,1,0,0:0:0:30:Crash.wav
320,192,49558,1,2,0:0:0:0:
64,192,50025,1,2,0:0:0:0:
448,192,50025,1,0,0:0:0:30:Crash.wav
192,192,50491,1,2,0:0:0:0:
320,192,50957,1,2,0:0:0:0:
448,192,50957,1,0,0:0:0:30:Crash.wav
192,192,51268,128,0,51579:0:0:0:100:K2_000.wav
320,192,51579,1,2,0:0:0:0:
448,192,51579,1,0,0:0:0:30:Crash.wav
192,192,52045,1,2,0:0:0:0:
64,192,52512,1,2,0:0:0:0:
448,192,52512,1,0,0:0:0:30:Crash.wav
320,192,52978,1,2,0:0:0:0:
64,192,53444,1,2,0:0:0:0:
192,192,53444,1,0,0:0:0:30:Crash.wav
320,192,53755,1,2,0:0:0:0:
64,192,54066,1,2,0:0:0:0:
192,192,54066,1,0,0:0:0:30:Crash.wav
320,192,54532,1,2,0:0:0:0:
64,192,54999,1,2,0:0:0:0:
448,192,54999,1,0,0:0:0:30:Crash.wav
192,192,55465,1,2,0:0:0:0:
320,192,55931,1,8,0:0:0:0:
448,192,55931,128,0,56242:0:0:0:30:Crash.wav
64,192,56242,128,8,56553:0:0:0:0:
320,192,56553,1,2,0:0:0:0:
448,192,56553,1,0,0:0:0:30:Crash.wav
192,192,57019,1,2,0:0:0:0:
64,192,57486,1,2,0:0:0:0:
448,192,57486,1,0,0:0:0:30:Crash.wav
320,192,57952,1,2,0:0:0:0:
64,192,58418,1,2,0:0:0:0:
192,192,58418,1,0,0:0:0:30:Crash.wav
320,192,58729,1,2,0:0:0:0:
64,192,59040,1,2,0:0:0:0:
192,192,59040,1,0,0:0:0:30:Crash.wav
320,192,59506,1,2,0:0:0:0:
64,192,59973,1,2,0:0:0:0:
448,192,59973,1,0,0:0:0:30:Crash.wav
192,192,60439,1,2,0:0:0:0:
320,192,60905,1,2,0:0:0:0:
448,192,60905,1,0,0:0:0:30:Crash.wav
64,192,61216,1,2,0:0:0:0:
192,192,61372,1,2,0:0:0:0:
320,192,61527,1,2,0:0:0:0:
448,192,61527,1,0,0:0:0:30:Crash.wav
192,192,61993,1,2,0:0:0:0:
64,192,62460,1,2,0:0:0:0:
448,192,62460,1,0,0:0:0:30:Crash.wav
320,192,62926,1,2,0:0:0:0:
64,192,63392,1,2,0:0:0:0:
192,192,63392,1,0,0:0:0:30:Crash.wav
320,192,63703,1,2,0:0:0:0:
64,192,64014,1,2,0:0:0:0:
192,192,64014,1,0,0:0:0:30:Crash.wav
320,192,64481,1,2,0:0:0:0:
192,192,64636,128,8,64947:0:0:0:0:
320,192,64947,1,2,0:0:0:0:
448,192,64947,128,0,65258:0:0:0:30:Crash.wav
64,192,65258,1,6,0:0:0:0:
320,192,65413,1,8,0:0:0:0:
192,192,65724,1,8,0:0:0:0:
64,192,66501,1,4,0:0:0:0:
448,192,66501,128,0,67123:0:0:0:100:HIT_000.wav
192,192,67123,1,0,0:0:0:0:
320,192,67434,1,0,0:0:0:0:
64,192,67745,128,0,68367:0:0:0:0:
448,192,68367,1,0,0:0:0:0:
192,192,68677,1,0,0:0:0:0:
320,192,68988,128,0,69610:0:0:0:0:
64,192,69610,1,0,0:0:0:0:
448,192,69921,1,0,0:0:0:0:
192,192,70232,128,0,70854:0:0:0:0:
320,192,70854,1,0,0:0:0:0:
64,192,71164,1,0,0:0:0:0:
448,192,71475,128,0,72097:0:0:0:0:
192,192,72097,1,0,0:0:0:0:
320,192,72408,1,0,0:0:0:0:
192,192,72719,128,0,73341:0:0:0:0:
320,192,73341,1,0,0:0:0:0:
64,192,73651,1,0,0:0:0:0:
320,192,73962,128,0,74584:0:0:0:0:
192,192,74584,1,0,0:0:0:0:
448,192,74895,1,0,0:0:0:0:
64,192,75206,128,0,75828:0:0:0:0:
448,192,75828,1,0,0:0:0:0:
192,192,76139,1,0,0:0:0:0:
64,192,76449,1,4,0:0:0:0:
448,192,76449,1,0,0:0:0:100:HIT_000.wav
320,192,77071,1,0,0:0:0:0:
192,192,77382,1,0,0:0:0:0:
448,192,77693,128,0,78315:0:0:0:0:
64,192,78315,1,0,0:0:0:0:
320,192,78626,1,0,0:0:0:100:PNO2_059.wav
192,192,78936,128,0,79403:0:0:0:100:PNO2_054.wav
448,192,79403,1,0,0:0:0:100:PNO2_060.wav
192,192,79869,1,0,0:0:0:100:PNO2_061.wav
320,192,80180,128,0,80802:0:0:0:100:PNO2_057.wav
192,192,80802,1,0,0:0:0:100:PNO2_051.wav
448,192,81113,1,0,0:0:0:0:
64,192,81424,128,0,82045:0:0:0:100:PNO2_056.wav
320,192,82045,1,0,0:0:0:0:
192,192,82356,1,0,0:0:0:100:PNO2_067.wav
320,192,82667,128,0,83289:0:0:0:100:PNO2_053.wav
192,192,83289,1,0,0:0:0:100:PNO2_049.wav
448,192,83600,1,0,0:0:0:0:
192,192,83911,128,0,84377:0:0:0:100:PNO2_052.wav
320,192,84377,1,0,0:0:0:100:PNO2_052.wav
64,192,84843,1,0,0:0:0:100:PNO2_046.wav
448,192,85154,128,0,85776:0:0:0:100:PNO2_049.wav
192,192,85776,1,0,0:0:0:100:PNO2_055.wav
320,192,86398,1,0,0:0:0:100:PNO1_021.wav
192,192,86708,1,0,0:0:0:100:PNO1_024.wav
64,192,87019,1,0,0:0:0:100:PNO1_020.wav
320,192,87641,1,0,0:0:0:100:PNO1_021.wav
192,192,87952,1,0,0:0:0:100:PNO1_024.wav
64,192,88263,1,0,0:0:0:100:PNO1_020.wav
192,192,88885,1,0,0:0:0:100:PNO1_021.wav
320,192,89196,1,0,0:0:0:100:PNO1_024.wav
448,192,89506,1,0,0:0:0:100:PNO1_019.wav
64,192,92615,1,6,0:0:0:0:
448,192,92615,1,0,0:0:0:70:wind.wav
192,192,92926,1,8,0:0:0:0:
448,192,93082,1,0,0:0:0:0:
192,192,93392,1,2,0:0:0:0:
448,192,93548,1,8,0:0:0:0:
320,192,93703,1,0,0:0:0:0:
192,192,93859,128,2,94170:0:0:0:0:
448,192,94170,1,8,0:0:0:0:
320,192,94325,1,0,0:0:0:0:
64,192,94481,128,0,94791:0:0:0:0:
448,192,94791,1,8,0:0:0:0:
320,192,94947,1,0,0:0:0:0:
192,192,95102,128,2,95413:0:0:0:0:
448,192,95413,1,8,0:0:0:0:
64,192,95569,1,0,0:0:0:0:
320,192,95724,128,0,96035:0:0:0:0:
64,192,96035,1,8,0:0:0:0:
192,192,96190,1,0,0:0:0:0:
448,192,96346,128,2,96657:0:0:0:0:
320,192,96657,1,8,0:0:0:0:
192,192,96812,1,0,0:0:0:0:
64,192,96968,128,0,97278:0:0:0:0:
320,192,97278,1,8,0:0:0:0:
192,192,97434,1,2,0:0:0:0:
64,192,97589,1,2,0:0:0:0:
448,192,97589,1,4,0:0:0:0:
320,192,97900,1,8,0:0:0:0:
64,192,98056,1,0,0:0:0:0:
320,192,98367,1,2,0:0:0:0:
64,192,98522,1,8,0:0:0:0:
192,192,98677,1,0,0:0:0:0:
320,192,98833,128,2,99144:0:0:0:0:
64,192,99144,1,8,0:0:0:0:
192,192,99299,1,0,0:0:0:0:
448,192,99455,128,0,99765:0:0:0:0:
64,192,99765,1,8,0:0:0:0:
192,192,99921,1,0,0:0:0:0:
320,192,100076,128,2,100387:0:0:0:0:
64,192,100387,1,8,0:0:0:0:
448,192,100543,1,0,0:0:0:0:
192,192,100698,128,0,101009:0:0:0:0:
448,192,101009,1,8,0:0:0:0:
320,192,101164,1,0,0:0:0:0:
64,192,101320,128,2,101631:0:0:0:0:
192,192,101631,1,8,0:0:0:0:
448,192,101786,1,0,0:0:0:0:
320,192,101942,128,0,102253:0:0:0:0:
192,192,102253,1,8,0:0:0:0:
320,192,102408,1,2,0:0:0:0:
64,192,102563,128,2,102874:0:0:0:0:
448,192,102563,1,4,0:0:0:0:
64,192,103185,1,6,0:0:0:0:
192,192,103341,1,6,0:0:0:0:
448,192,103496,1,6,0:0:0:0:
320,192,103651,1,6,0:0:0:0:
64,192,103807,1,2,0:0:0:0:
192,192,103807,1,4,0:0:0:0:
320,192,104040,1,2,0:0:0:0:
192,192,104273,1,2,0:0:0:0:
448,192,104429,1,6,0:0:0:0:
320,192,104740,128,2,105050:0:0:0:0:
64,192,105050,1,6,0:0:0:0:
192,192,105050,128,0,105361:0:0:0:70:wind.wav
448,192,105361,1,8,0:0:0:0:
64,192,105517,1,0,0:0:0:0:
320,192,105672,128,0,105983:0:0:0:0:
64,192,105983,1,8,0:0:0:0:
192,192,106139,1,0,0:0:0:0:
448,192,106294,128,2,106605:0:0:0:0:
320,192,106605,1,8,0:0:0:0:
192,192,106760,1,0,0:0:0:0:
64,192,106916,128,0,107227:0:0:0:0:
320,192,107227,1,8,0:0:0:0:
192,192,107382,1,2,0:0:0:0:
64,192,107538,1,4,0:0:0:0:
448,192,107538,1,2,0:0:0:0:
320,192,107848,1,8,0:0:0:0:
64,192,108004,1,0,0:0:0:0:
320,192,108315,1,2,0:0:0:0:
64,192,108470,1,8,0:0:0:0:
192,192,108626,1,0,0:0:0:0:
320,192,108781,128,2,109092:0:0:0:0:
64,192,109092,1,8,0:0:0:0:
192,192,109247,1,0,0:0:0:0:
448,192,109403,128,0,109714:0:0:0:0:
64,192,109714,1,8,0:0:0:0:
192,192,109869,1,0,0:0:0:0:
320,192,110025,128,2,110335:0:0:0:0:
64,192,110335,1,8,0:0:0:0:
448,192,110491,1,0,0:0:0:0:
192,192,110646,128,0,110957:0:0:0:0:
448,192,110957,1,8,0:0:0:0:
320,192,111113,1,0,0:0:0:0:
64,192,111268,1,2,0:0:0:0:
192,192,111268,1,4,0:0:0:0:
64,192,111579,1,8,0:0:0:0:
192,192,111734,1,0,0:0:0:0:
320,192,111890,1,4,0:0:0:0:
448,192,112201,1,8,0:0:0:0:
320,192,112356,1,0,0:0:0:0:
64,192,112512,1,6,0:0:0:0:
192,192,112512,1,0,0:0:0:70:wind.wav
320,192,112822,1,8,0:0:0:0:
64,192,112978,1,0,0:0:0:0:
448,192,113289,1,2,0:0:0:0:
192,192,113444,1,8,0:0:0:0:
448,192,113755,1,2,0:0:0:0:
320,192,113911,1,2,0:0:0:0:
64,192,114066,1,8,0:0:0:0:
192,192,114221,1,0,0:0:0:0:
64,192,114532,1,2,0:0:0:0:
320,192,114688,1,8,0:0:0:0:
192,192,114999,1,2,0:0:0:0:
448,192,115310,1,8,0:0:0:0:
64,192,115465,1,0,0:0:0:0:
320,192,115776,1,2,0:0:0:0:
192,192,115931,1,8,0:0:0:0:
448,192,116242,1,2,0:0:0:0:
320,192,116398,1,2,0:0:0:0:
64,192,116553,128,8,116864:0:0:0:0:
320,192,116864,128,0,117175:0:0:0:0:
64,192,117175,1,8,0:0:0:0:
192,192,117330,1,2,0:0:0:0:
320,192,117486,1,2,0:0:0:0:
448,192,117486,1,4,0:0:0:0:
192,192,117797,1,8,0:0:0:0:
448,192,117952,1,0,0:0:0:0:
64,192,118263,1,2,0:0:0:0:
320,192,118418,1,8,0:0:0:0:
64,192,118729,1,2,0:0:0:0:
192,192,118885,1,2,0:0:0:0:
448,192,119040,1,8,0:0:0:0:
320,192,119196,1,0,0:0:0:0:
448,192,119506,1,2,0:0:0:0:
192,192,119662,1,8,0:0:0:0:
320,192,119973,1,2,0:0:0:0:
64,192,120284,1,8,0:0:0:0:
448,192,120439,1,0,0:0:0:0:
192,192,120750,1,2,0:0:0:0:
320,192,120905,1,8,0:0:0:0:
64,192,121216,1,2,0:0:0:0:
192,192,121372,1,2,0:0:0:0:
448,192,121527,128,8,121838:0:0:0:0:
192,192,121838,128,0,122149:0:0:0:0:
448,192,122149,1,8,0:0:0:0:
320,192,122304,1,2,0:0:0:0:
64,192,122460,1,2,0:0:0:0:
192,192,122460,1,0,0:0:0:30:Crash.wav
448,192,122771,1,2,0:0:0:0:
192,192,122926,1,2,0:0:0:0:
320,192,123237,1,2,0:0:0:0:
64,192,123392,1,2,0:0:0:0:
320,192,123703,1,2,0:0:0:0:
192,192,123859,1,2,0:0:0:0:
448,192,124170,1,2,0:0:0:0:
64,192,124325,1,2,0:0:0:0:
192,192,124636,1,2,0:0:0:0:
320,192,124947,1,2,0:0:0:0:
448,192,124947,1,0,0:0:0:30:Crash.wav
192,192,125413,1,2,0:0:0:0:
64,192,125879,1,2,0:0:0:0:
448,192,125879,1,0,0:0:0:30:Crash.wav
320,192,126346,1,2,0:0:0:0:
64,192,126812,1,2,0:0:0:0:
192,192,126812,1,0,0:0:0:30:Crash.wav
320,192,126968,1,2,0:0:0:0:
448,192,127123,1,2,0:0:0:0:
192,192,127278,1,2,0:0:0:0:
64,192,127745,1,4,0:0:0:0:
448,192,127745,1,0,0:0:0:100:HIT0_000.wav
