osu file format v14

[General]
AudioFilename: audio.ogg
AudioLeadIn: 0
PreviewTime: 51429
Countdown: 0
SampleSet: Soft
StackLeniency: 0.7
Mode: 0
LetterboxInBreaks: 0
WidescreenStoryboard: 1

[Editor]
DistanceSpacing: 1
BeatDivisor: 4
GridSize: 32
TimelineZoom: 1.8

[Metadata]
Title:Achromatic Dystopia
TitleUnicode:無彩色のディストピア
Artist:HyuN feat. Wolpis Carter
ArtistUnicode:HyuN feat. ウォルピスカーター
Creator:Zixooo
Version:XAHLT'S NORMAL
Source:Rotaeno
Tags:gouuh, habiholic, enuhq, share, xahlt, actiol, male, vocals, japanese, rock, jrock, j-rock, kater, Musaishiki No, Dream Engine Games
BeatmapID:3921543
BeatmapSetID:1877240

[Difficulty]
HPDrainRate:4
CircleSize:3.5
OverallDifficulty:4
ApproachRate:5
SliderMultiplier:1
SliderTickRate:1

[Events]
//Background and Video events
0,0,"bg 2 en jpg.jpg",0,0
Video,0,"MV.mp4"
//Break Periods
2,16741,25833
2,75757,82226
//Storyboard Layer 0 (Background)
//Storyboard Layer 1 (Fail)
//Storyboard Layer 2 (Pass)
//Storyboard Layer 3 (Foreground)
//Storyboard Layer 4 (Overlay)
//Storyboard Sound Samples

[TimingPoints]
2115,327.868852459016,4,2,1,65,1,0
2934,-100,4,2,2,65,0,0
3426,-100,4,2,1,75,0,0
3754,-100,4,2,3,75,0,0
4082,-100,4,2,1,75,0,0
4410,-100,4,2,3,75,0,0
5393,-100,4,2,1,75,0,0
5721,-100,4,2,3,75,0,0
6705,-100,4,2,1,75,0,0
7033,-100,4,2,3,75,0,0
8508,-100,4,2,2,75,0,0
8672,-100,4,2,1,75,0,0
9000,-100,4,2,3,75,0,0
9328,-100,4,2,1,75,0,0
9655,-100,4,2,3,75,0,0
11295,-100,4,2,1,70,0,0
11951,-100,4,2,2,70,0,0
12442,-100,4,2,1,70,0,0
12934,-100,4,2,2,70,0,0
13918,-100,4,2,1,70,0,0
14574,-100,4,2,2,70,0,0
15065,-100,4,2,1,70,0,0
16541,-100,4,2,1,55,0,0
27033,-111.111111111111,4,2,1,60,0,0
28836,-111.111111111111,4,2,3,60,0,0
29164,-111.111111111111,4,2,1,60,0,0
29492,-111.111111111111,4,2,3,60,0,0
30967,-111.111111111111,4,2,1,70,0,0
31623,-111.111111111111,4,2,4,70,0,0
31869,-111.111111111111,4,2,1,70,0,0
31951,-111.111111111111,4,2,2,70,0,0
32033,-111.111111111111,4,2,5,70,0,0
32278,-100,4,2,2,75,0,0
32770,-100,4,2,1,75,0,0
33590,-100,4,2,2,75,0,0
34082,-100,4,2,1,75,0,0
34737,-100,4,2,2,75,0,0
34901,-100,4,2,1,75,0,0
35229,-100,4,2,6,75,0,0
35885,-100,4,2,3,75,0,0
36541,-100,4,2,6,75,0,0
36869,-100,4,2,1,75,0,0
37524,-100,4,2,2,75,0,0
37688,-100,4,2,1,75,0,0
38836,-100,4,2,2,75,0,0
39328,-100,4,2,1,75,0,0
40147,-100,4,2,1,65,0,0
40639,-100,4,2,3,65,0,0
41459,-100,4,2,2,70,0,0
42114,-100,4,2,4,70,0,0
42278,-100,4,2,1,70,0,0
42770,-100,4,2,1,75,0,0
43262,-100,4,2,2,75,0,0
44574,-100,4,2,1,75,0,0
45393,-100,4,2,1,60,0,0
48016,-100,4,2,1,75,0,0
50639,-100,4,2,2,80,0,0
51295,-100,4,2,4,80,0,0
51459,-100,4,2,1,80,0,0
51951,-90.9090909090909,4,2,3,85,0,0
52278,-90.9090909090909,4,2,6,85,0,0
52934,-90.9090909090909,4,2,3,85,0,0
53262,-90.9090909090909,4,2,1,85,0,0
53590,-90.9090909090909,4,2,3,85,0,0
54246,-90.9090909090909,4,2,2,85,0,0
54574,-90.9090909090909,4,2,1,85,0,0
54901,-90.9090909090909,4,2,3,85,0,0
55065,-90.9090909090909,4,2,5,85,0,0
55557,-90.9090909090909,4,2,3,85,0,0
55885,-90.9090909090909,4,2,1,85,0,0
56213,-90.9090909090909,4,2,3,85,0,0
57196,-90.9090909090909,4,2,2,85,0,0
57360,-90.9090909090909,4,2,3,85,0,0
58344,-90.9090909090909,4,2,5,85,0,0
58672,-90.9090909090909,4,2,3,85,0,0
59000,-90.9090909090909,4,2,1,85,0,0
59328,-90.9090909090909,4,2,3,85,0,0
59819,-90.9090909090909,4,2,2,85,0,0
61131,-90.9090909090909,4,2,1,85,0,0
62442,-90.9090909090909,4,2,3,85,0,0
62770,-90.9090909090909,4,2,6,85,0,0
64082,-90.9090909090909,4,2,3,85,0,0
64737,-90.9090909090909,4,2,2,85,0,0
65065,-90.9090909090909,4,2,1,85,0,0
65393,-90.9090909090909,4,2,3,85,0,0
65557,-90.9090909090909,4,2,5,85,0,0
66049,-90.9090909090909,4,2,3,85,0,0
66377,-90.9090909090909,4,2,2,85,0,0
66705,-90.9090909090909,4,2,3,85,0,0
67688,-90.9090909090909,4,2,2,85,0,0
67852,-90.9090909090909,4,2,3,85,0,0
69000,-90.9090909090909,4,2,4,85,0,0
69164,-90.9090909090909,4,2,5,85,0,0
69492,-90.9090909090909,4,2,1,85,0,0
70639,-90.9090909090909,4,2,2,85,0,0
70803,-90.9090909090909,4,2,3,85,0,0
71623,-90.9090909090909,4,2,1,85,0,0
72934,-90.9090909090909,4,2,6,75,0,0
74246,-90.9090909090909,4,2,1,65,0,0
75557,-90.9090909090909,4,2,1,55,0,0
80147,-90.9090909090909,4,2,1,65,0,0
83426,-100,4,2,1,70,0,0
86049,-100,4,2,3,75,0,0
86705,-100,4,2,1,75,0,0
87033,-100,4,2,3,75,0,0
88672,-100,4,2,1,75,0,0
89000,-100,4,2,3,75,0,0
89328,-100,4,2,1,75,0,0
89655,-100,4,2,3,75,0,0
89983,-100,4,2,2,75,0,0
90311,-100,4,2,3,75,0,0
91295,-100,4,2,2,80,0,0
91787,-100,4,2,1,80,0,0
92606,-100,4,2,2,80,0,0
93098,-100,4,2,1,80,0,0
93426,-100,4,2,2,80,0,0
93754,-100,4,2,1,80,0,0
94246,-100,4,2,3,80,0,0
96541,-100,4,2,1,85,0,0
97360,-100,4,2,2,85,0,0
98180,-100,4,2,1,85,0,0
100147,-100,4,2,2,85,0,0
100475,-90.9090909090909,4,2,3,90,0,0
100803,-90.9090909090909,4,2,6,90,0,0
101459,-90.9090909090909,4,2,3,90,0,0
101787,-90.9090909090909,4,2,1,90,0,0
102114,-90.9090909090909,4,2,3,90,0,0
102770,-90.9090909090909,4,2,7,90,0,0
102934,-90.9090909090909,4,2,1,90,0,0
103426,-90.9090909090909,4,2,3,90,0,0
103590,-90.9090909090909,4,2,5,90,0,0
104082,-90.9090909090909,4,2,3,90,0,0
104410,-90.9090909090909,4,2,4,90,0,0
104737,-90.9090909090909,4,2,3,90,0,0
105721,-90.9090909090909,4,2,2,90,0,0
105885,-90.9090909090909,4,2,3,90,0,0
106213,-90.9090909090909,4,2,1,90,0,0
106541,-90.9090909090909,4,2,3,90,0,0
106869,-90.9090909090909,4,2,1,90,0,0
107196,-90.9090909090909,4,2,3,90,0,0
107524,-90.9090909090909,4,2,2,90,0,0
107852,-90.9090909090909,4,2,3,90,0,0
108344,-90.9090909090909,4,2,5,90,0,0
108672,-90.9090909090909,4,2,3,90,0,0
109655,-90.9090909090909,4,2,1,90,0,0
110967,-90.9090909090909,4,2,3,90,0,0
111295,-90.9090909090909,4,2,6,90,0,0
112606,-90.9090909090909,4,2,3,90,0,0
113262,-90.9090909090909,4,2,2,90,0,0
113590,-90.9090909090909,4,2,1,90,0,0
113918,-90.9090909090909,4,2,3,90,0,0
114082,-90.9090909090909,4,2,5,90,0,0
114574,-90.9090909090909,4,2,3,90,0,0
114901,-90.9090909090909,4,2,5,90,0,0
115229,-90.9090909090909,4,2,3,90,0,0
116213,-90.9090909090909,4,2,2,90,0,0
116377,-90.9090909090909,4,2,3,90,0,0
117524,-90.9090909090909,4,2,4,90,0,0
117688,-90.9090909090909,4,2,5,90,0,0
118016,-90.9090909090909,4,2,1,90,0,0
119164,-90.9090909090909,4,2,2,90,0,0
119328,-90.9090909090909,4,2,3,90,0,0
120147,-90.9090909090909,4,2,1,90,0,0
121459,-90.9090909090909,4,2,6,75,0,0
122770,-90.9090909090909,4,2,1,60,0,0
123918,-90.9090909090909,4,2,2,60,0,0

[Colours]
Combo1 : 209,164,255
Combo2 : 128,0,255
Combo3 : 255,91,91

[HitObjects]
0,47,2114,6,0,P|45:43|93:75,1,100,0|8,1:1|2:2,0:0:0:0:
125,107,2606,2,0,P|175:111|220:71,1,100,10|10,2:2|2:3,0:0:0:0:
241,41,3098,1,2,1:2:0:0:
336,10,3426,6,0,P|382:28|449:50,1,100,6|10,1:2|2:3,0:0:0:0:
466,78,3918,2,0,P|483:126|446:173,1,100,2|0,1:2|1:1,0:0:0:0:
416,191,4410,1,10,2:3:0:0:
469,275,4737,1,2,2:3:0:0:
397,345,5065,1,10,2:3:0:0:
397,345,5229,2,0,P|348:330|279:313,1,100,2|2,1:2|1:2,0:0:0:0:
270,277,5721,1,10,2:3:0:0:
183,327,6049,6,0,P|139:338|91:302,1,100,2|10,1:3|2:3,0:0:0:0:
46,295,6541,2,0,P|57:251|74:199,1,100,2|2,1:2|1:2,0:0:0:0:
112,166,7033,1,10,2:3:0:0:
59,81,7360,1,2,1:3:0:0:
129,9,7688,1,10,2:3:0:0:
224,38,8016,2,0,P|251:53|269:65,1,50,2|2,2:3|1:2,0:0:0:0:
306,95,8344,2,0,P|293:119|278:154,1,50,10|6,2:3|1:2,0:0:0:0:
236,157,8672,6,0,P|203:194|200:243,1,100,6|10,1:2|2:3,0:0:0:0:
196,292,9164,2,0,P|246:301|291:322,1,100,2|2,2:2|1:2,0:0:0:0:
326,358,9655,1,10,2:3:0:0:
422,330,9983,1,2,1:3:0:0:
402,236,10311,1,10,2:3:0:0:
402,236,10475,1,2,1:2:0:0:
463,157,10803,2,0,P|485:165|520:173,2,50,10|10|10,1:2|2:2|2:2,0:0:0:0:
430,118,11295,6,0,P|381:114|329:142,1,100,14|10,1:2|2:2,0:0:0:0:
255,195,11951,1,14,2:2:0:0:
176,133,12278,1,10,2:2:0:0:
176,133,12442,2,0,P|155:171|130:234,1,100,6|2,1:2|1:2,0:0:0:0:
94,255,12934,1,14,2:2:0:0:
18,189,13262,2,0,P|25:169|36:130,1,50,10|8,2:2|2:2,0:0:0:0:
66,103,13590,2,0,P|54:86|41:50,1,50,10|8,2:2|2:2,0:0:0:0:
50,9,13918,6,0,P|97:2|153:44,1,100,6|14,1:2|2:2,0:0:0:0:
225,80,14574,1,14,2:2:0:0:
300,14,14901,1,14,2:2:0:0:
300,14,15065,2,0,P|346:26|411:38,1,100,6|2,1:2|1:2,0:0:0:0:
443,16,15557,1,10,2:2:0:0:
504,95,15885,2,0,P|492:123|482:156,1,50,10|10,2:2|2:2,0:0:0:0:
447,174,16213,2,0,P|460:195|467:219,1,50,10|10,2:2|2:2,0:0:0:0:
482,266,16541,5,4,2:3:0:0:
426,69,27033,6,0,P|465:81|524:99,2,89.9999972534181,4|0|2,1:2|1:1|1:2,0:0:0:0:
366,1,28016,1,2,1:2:0:0:
287,49,28344,2,0,P|269:89|285:140,1,89.9999972534181,2|2,1:2|1:2,0:0:0:0:
314,161,28836,2,0,P|332:201|316:252,1,89.9999972534181,2|2,2:3|2:3,0:0:0:0:
289,276,29328,1,2,1:2:0:0:
303,364,29655,6,0,P|216:346|114:330,1,179.999994506836,2|0,1:2|1:1,0:0:0:0:
49,379,30639,1,2,1:2:0:0:
10,297,30967,2,0,P|-7:225|34:179,1,134.999995880127,4|10,1:2|2:2,0:0:0:0:
71,168,31623,2,0,P|91:166|128:155,1,44.999998626709,8|8,2:3|2:3,0:0:0:0:
158,174,31951,1,8,2:3:0:0:
225,100,32278,6,0,P|221:75|217:50,2,50,14|2|2,1:2|1:2|1:2,0:0:0:0:
267,127,32770,2,0,P|304:142|367:98,1,100,14|10,1:2|2:2,0:0:0:0:
387,79,33262,1,10,2:2:0:0:
463,143,33590,2,0,P|490:136|520:130,2,50,14|2|2,1:2|1:2|2:2,0:0:0:0:
439,187,34082,2,0,P|452:243|464:300,1,100,6|10,1:2|2:2,0:0:0:0:
403,366,34737,1,14,2:2:0:0:
402,366,34901,6,0,P|355:371|322:336,1,100,6|10,1:2|2:3,0:0:0:0:
307,288,35393,1,2,2:2:0:0:
217,256,35721,1,2,1:2:0:0:
217,256,35885,2,0,P|188:270|160:286,1,50,10|2,2:3|2:2,0:0:0:0:
145,321,36213,2,0,P|93:323|61:285,1,100,2|10,1:2|2:3,0:0:0:0:
19,263,36705,2,0,P|40:212|56:157,1,100,2|8,1:2|1:2,0:0:0:0:
89,134,37196,1,10,2:2:0:0:
58,38,37524,6,0,P|31:31|2:23,2,50,14|6|2,1:2|1:2|1:2,0:0:0:0:
101,17,38016,2,0,P|148:9|196:38,1,100,10|2,1:2|1:2,0:0:0:0:
224,72,38508,1,10,1:2:0:0:
299,138,38836,2,0,P|292:163|284:201,1,50,14|2,1:2|1:2,0:0:0:0:
252,223,39164,1,2,1:2:0:0:
252,223,39328,1,14,1:2:0:0:
308,305,39655,1,10,2:2:0:0:
308,305,39819,2,0,P|331:311|364:321,1,50,10|10,1:2|2:2,0:0:0:0:
403,335,40147,6,0,P|443:323|459:266,1,100,6|10,1:2|1:2,0:0:0:0:
437,226,40639,1,2,2:3:0:0:
498,147,40967,1,2,2:3:0:0:
443,62,41295,1,2,1:3:0:0:
345,83,41623,2,0,P|318:75|276:57,1,50,10|10,2:2|2:2,0:0:0:0:
262,30,41951,2,0,P|218:29|167:64,1,100,10|8,2:2|2:3,0:0:0:0:
142,98,42442,1,2,1:2:0:0:
56,149,42770,6,0,P|25:143|-4:135,2,50,14|2|2,1:2|1:2|1:2,0:0:0:0:
81,192,43262,2,0,P|126:191|177:220,1,100,14|10,1:2|2:2,0:0:0:0:
208,252,43754,1,10,2:2:0:0:
293,200,44082,2,0,P|295:178|296:148,2,50,6|2|2,1:2|1:2|1:2,0:0:0:0:
333,229,44574,2,0,P|375:233|432:192,1,100,14|10,1:2|2:2,0:0:0:0:
468,226,45065,2,0,P|480:249|489:278,1,50,10|10,1:2|2:2,0:0:0:0:
462,315,45393,5,6,1:2:0:0:
462,315,48016,5,14,1:2:0:0:
462,315,48180,2,0,P|422:330|369:364,1,100,8|10,1:2|1:2,0:0:0:0:
273,376,48836,2,0,P|242:370|204:355,1,50,14|2,1:2|2:2,0:0:0:0:
174,356,49164,2,0,P|189:325|202:245,1,100,10|0,1:2|1:1,0:0:0:0:
170,222,49655,1,12,2:2:0:0:
239,150,49983,2,0,P|231:129|221:97,1,50,8|8,2:2|2:2,0:0:0:0:
177,80,50311,2,0,P|184:59|195:27,1,50,8|8,2:2|2:2,0:0:0:0:
147,12,50639,6,0,P|107:7|21:137,1,200,12|8,1:2|2:3,0:0:0:0:
24,217,51623,1,2,1:2:0:0:
137,218,51951,5,6,1:2:0:0:
137,218,52114,2,0,P|194:230|246:255,1,110.000003356934,2|2,2:2|1:2,0:0:0:0:
332,191,52770,2,0,P|355:184|383:171,1,55.0000016784668,2|10,1:2|2:3,0:0:0:0:
437,178,53098,2,0,P|477:218|463:282,1,110.000003356934,2|2,1:2|2:2,0:0:0:0:
450,318,53590,1,10,2:3:0:0:
342,296,53918,1,2,2:3:0:0:
245,349,54246,2,0,P|222:356|194:369,1,55.0000016784668,14|2,2:2|1:2,0:0:0:0:
144,345,54574,6,0,P|137:320|135:291,2,55.0000016784668,6|2|10,1:2|1:2|2:3,0:0:0:0:
96,373,55065,2,0,P|55:375|15:304,1,110.000003356934,6|2,1:2|1:2,0:0:0:0:
12,270,55557,1,10,2:3:0:0:
58,170,55885,2,0,P|105:175|178:200,1,110.000003356934,4|10,1:2|2:3,0:0:0:0:
213,219,56377,1,2,1:2:0:0:
213,219,56541,2,0,P|269:217|314:167,1,110.000003356934,10|8,2:3|2:2,0:0:0:0:
370,92,57196,6,0,P|395:95|429:105,2,55.0000016784668,6|2|10,1:2|2:3|1:2,0:0:0:0:
336,47,57688,2,0,P|286:23|225:62,1,110.000003356934,6|2,2:3|2:3,0:0:0:0:
204,85,58180,1,10,1:2:0:0:
97,55,58508,2,0,P|100:28|102:-5,2,55.0000016784668,6|2|10,1:2|2:3|1:2,0:0:0:0:
52,87,59000,2,0,P|25:127|49:180,1,110.000003356934,6|2,2:2|2:3,0:0:0:0:
93,210,59492,1,10,1:2:0:0:
24,295,59819,6,0,P|75:318|145:355,1,110.000003356934,6|10,1:2|1:2,0:0:0:0:
171,368,60311,1,2,2:2:0:0:
276,336,60639,1,2,2:2:0:0:
298,228,60967,2,0,P|287:205|273:168,1,55.0000016784668,2|12,1:2|1:2,0:0:0:0:
229,148,61295,2,0,P|239:125|254:88,1,55.0000016784668,2|8,1:2|1:2,0:0:0:0:
239,43,61623,2,0,P|295:58|351:75,1,110.000003356934,2|8,1:2|2:2,0:0:0:0:
380,110,62114,2,0,P|403:101|443:93,1,55.0000016784668,10|10,1:2|2:2,0:0:0:0:
482,116,62442,6,0,P|511:145|491:222,1,110.000003356934,14|10,1:2|2:3,0:0:0:0:
467,251,62934,1,2,1:2:0:0:
359,228,63262,2,0,P|331:238|291:253,1,55.0000016784668,2|10,1:2|2:3,0:0:0:0:
268,285,63590,2,0,P|213:295|169:252,1,110.000003356934,2|2,1:2|2:2,0:0:0:0:
149,213,64082,1,10,2:3:0:0:
223,132,64410,1,2,2:3:0:0:
151,48,64737,2,0,P|124:56|86:68,1,55.0000016784668,14|2,2:2|1:2,0:0:0:0:
45,48,65065,6,0,P|36:22|31:-8,2,55.0000016784668,6|2|10,1:2|1:2|2:3,0:0:0:0:
11,92,65557,2,0,P|26:143|45:223,1,110.000003356934,6|2,1:2|1:2,0:0:0:0:
17,249,66049,1,10,2:3:0:0:
86,334,66377,2,0,P|139:343|191:288,1,110.000003356934,4|10,1:2|2:3,0:0:0:0:
210,263,66869,1,2,1:2:0:0:
210,263,67033,2,0,P|244:268|317:303,1,110.000003356934,10|8,2:2|2:2,0:0:0:0:
417,330,67688,6,0,P|409:360|405:387,2,55.0000016784668,6|2|10,1:2|2:3|1:2,0:0:0:0:
462,298,68180,1,2,2:3:0:0:
412,199,68508,1,10,2:3:0:0:
489,120,68836,1,10,2:3:0:0:
443,19,69164,1,14,2:2:0:0:
333,6,69492,2,0,P|294:25|227:72,1,110.000003356934,14|4,2:2|1:2,0:0:0:0:
196,106,69983,2,0,P|168:96|142:82,1,55.0000016784668,2|14,2:2|2:2,0:0:0:0:
95,61,70311,6,0,P|54:66|14:124,1,110.000003356934,2|14,2:2|2:2,0:0:0:0:
10,173,70803,1,2,2:3:0:0:
76,260,71131,1,2,2:3:0:0:
176,215,71459,2,0,P|230:231|303:258,1,110.000003356934,2|2,1:3|1:3,0:0:0:0:
327,277,71951,1,10,1:2:0:0:
424,226,72278,2,0,B|447:191|447:191|431:133,2,82.5000025177003,10|10|10,1:2|2:2|2:2,0:0:0:0:
452,273,72934,5,6,1:2:0:0:
256,192,73098,12,2,75557,2:2:0:0:
494,368,83426,5,12,1:2:0:0:
494,368,83590,1,8,1:2:0:0:
424,296,83918,1,8,1:2:0:0:
346,359,84246,1,8,1:2:0:0:
266,297,84574,2,0,P|223:313|164:343,1,100,8|0,1:2|1:1,0:0:0:0:
133,365,85065,1,8,1:2:0:0:
45,316,85393,2,0,P|51:294|58:259,1,50,10|10,2:2|2:2,0:0:0:0:
95,235,85721,2,0,P|89:213|82:178,1,50,10|10,2:2|2:2,0:0:0:0:
40,160,86049,6,0,P|11:124|37:67,1,100,6|10,1:2|1:3,0:0:0:0:
65,46,86541,1,2,2:2:0:0:
160,17,86869,2,0,P|191:39|257:70,1,100,2|2,2:2|2:2,0:0:0:0:
291,88,87360,1,2,1:3:0:0:
375,34,87688,1,10,1:3:0:0:
455,94,88016,2,0,P|451:119|447:148,1,50,2|2,1:3|2:2,0:0:0:0:
476,184,88344,1,10,1:3:0:0:
404,254,88672,6,0,P|360:257|314:207,1,100,6|10,1:2|1:3,0:0:0:0:
293,179,89164,2,0,P|248:178|195:212,1,100,2|2,2:2|2:2,0:0:0:0:
151,207,89655,1,10,1:3:0:0:
77,275,89983,2,0,P|122:304|174:344,1,100,12|10,1:2|2:3,0:0:0:0:
191,370,90475,2,0,P|221:375|284:336,1,100,2|10,1:2|2:2,0:0:0:0:
300,297,90967,1,10,2:2:0:0:
388,250,91295,6,0,P|414:258|455:269,2,50,14|2|2,1:2|1:2|1:2,0:0:0:0:
378,200,91787,2,0,P|326:194|271:184,1,100,14|10,1:2|1:2,0:0:0:0:
240,153,92278,1,10,2:2:0:0:
154,205,92606,2,0,P|159:231|163:254,2,50,14|2|2,1:2|1:2|1:2,0:0:0:0:
106,189,93098,1,14,1:2:0:0:
24,130,93426,1,14,1:2:0:0:
72,42,93754,1,14,1:2:0:0:
72,42,93918,6,0,P|111:49|171:64,1,100,14|10,1:2|1:3,0:0:0:0:
256,113,94574,1,10,1:3:0:0:
329,45,94901,1,10,1:3:0:0:
417,91,95229,2,0,P|446:135|430:183,1,100,10|10,1:3|1:3,0:0:0:0:
358,243,95885,2,0,P|368:265|380:300,1,50,10|2,1:3|1:2,0:0:0:0:
417,318,96213,1,10,1:3:0:0:
339,381,96541,5,14,1:2:0:0:
339,381,96705,2,0,P|291:369|241:361,1,100,10|8,1:2|1:2,0:0:0:0:
163,297,97360,1,14,1:2:0:0:
86,361,97688,2,0,P|36:346|17:285,1,100,10|0,1:2|1:1,0:0:0:0:
17,255,98180,1,12,2:2:0:0:
61,165,98508,2,0,P|81:173|113:183,1,50,10|8,2:2|2:2,0:0:0:0:
147,213,98836,2,0,P|167:204|199:195,1,50,8|10,2:2|2:2,0:0:0:0:
239,174,99164,6,0,P|274:199|335:186,1,100,4|8,1:2|2:2,0:0:0:0:
416,161,99819,2,0,P|406:135|397:106,1,50,8|8,2:3|1:3,0:0:0:0:
383,61,100147,2,0,P|361:69|320:78,1,50,10|2,2:3|1:2,0:0:0:0:
290,107,100475,5,6,1:2:0:0:
290,107,100639,2,0,P|250:87|189:64,1,110.000003356934,2|2,2:2|1:2,0:0:0:0:
97,1,101295,2,0,P|65:19|39:25,1,55.0000016784668,2|10,1:2|2:3,0:0:0:0:
11,65,101623,2,0,P|-5:116|17:165,1,110.000003356934,2|2,1:2|2:2,0:0:0:0:
66,190,102114,1,10,2:3:0:0:
1,279,102442,1,2,2:3:0:0:
84,351,102770,2,0,P|109:343|140:333,1,55.0000016784668,14|2,2:3|1:2,0:0:0:0:
171,291,103098,6,0,P|165:265|151:226,2,55.0000016784668,6|2|10,1:2|1:2|2:3,0:0:0:0:
221,313,103590,2,0,P|274:312|310:273,1,110.000003356934,6|2,1:2|1:2,0:0:0:0:
335,223,104082,1,10,2:3:0:0:
258,143,104410,2,0,P|273:81|291:24,1,110.000003356934,6|10,1:3|2:3,0:0:0:0:
330,3,104901,1,2,1:2:0:0:
330,3,105065,2,0,P|348:30|422:32,1,110.000003356934,10|8,2:2|2:2,0:0:0:0:
501,107,105721,5,6,1:2:0:0:
501,107,105885,2,0,P|459:122|395:173,1,110.000003356934,2|6,2:3|2:2,0:0:0:0:
350,256,106541,1,2,2:3:0:0:
350,256,106705,1,10,1:2:0:0:
257,196,107033,2,0,P|260:171|264:140,2,55.0000016784668,6|2|10,1:2|2:3|1:2,0:0:0:0:
222,238,107524,1,6,2:2:0:0:
123,189,107852,1,2,2:3:0:0:
123,189,108016,2,0,P|91:205|65:217,1,55.0000016784668,10|2,1:2|1:3,0:0:0:0:
21,232,108344,6,0,P|53:240|127:299,1,110.000003356934,6|10,1:2|1:2,0:0:0:0:
154,322,108836,1,2,2:3:0:0:
257,285,109164,1,2,2:3:0:0:
330,366,109492,2,0,P|353:357|394:343,1,55.0000016784668,2|12,1:2|1:2,0:0:0:0:
408,298,109819,2,0,P|399:274|385:234,1,55.0000016784668,2|8,1:2|1:2,0:0:0:0:
347,210,110147,2,0,P|315:167|324:113,1,110.000003356934,2|8,1:2|2:2,0:0:0:0:
363,75,110639,2,0,P|369:48|374:21,1,55.0000016784668,10|10,1:2|2:2,0:0:0:0:
425,0,110967,6,0,P|478:1|515:61,1,110.000003356934,14|10,1:2|2:3,0:0:0:0:
496,95,111459,1,2,1:2:0:0:
444,191,111787,2,0,P|437:220|431:257,1,55.0000016784668,2|10,1:2|2:3,0:0:0:0:
460,291,112114,2,0,P|420:306|356:362,1,110.000003356934,2|2,1:2|2:2,0:0:0:0:
320,377,112606,1,10,2:3:0:0:
242,296,112934,1,2,2:3:0:0:
145,349,113262,2,0,P|116:364|84:380,1,55.0000016784668,14|2,2:2|1:2,0:0:0:0:
50,342,113590,6,0,P|12:325|-7:311,2,55.0000016784668,6|2|10,1:2|1:2|2:3,0:0:0:0:
81,296,114082,2,0,P|108:258|81:191,1,110.000003356934,6|2,1:2|1:2,0:0:0:0:
46,169,114574,1,10,2:3:0:0:
98,72,114901,2,0,P|133:79|210:122,1,110.000003356934,6|10,1:3|2:3,0:0:0:0:
234,155,115393,1,2,1:2:0:0:
234,155,115557,2,0,P|288:163|331:131,1,110.000003356934,10|8,2:2|2:2,0:0:0:0:
407,51,116213,6,0,P|438:59|480:73,2,55.0000016784668,6|2|10,1:2|2:3|1:2,0:0:0:0:
373,6,116705,1,2,2:3:0:0:
278,62,117033,1,10,2:3:0:0:
186,1,117360,1,10,2:3:0:0:
98,67,117688,1,14,2:2:0:0:
132,171,118016,2,0,P|119:225|107:295,1,110.000003356934,14|4,1:2|1:2,0:0:0:0:
139,325,118508,2,0,P|167:334|191:344,1,55.0000016784668,2|14,2:2|1:2,0:0:0:0:
234,362,118836,6,0,P|287:369|314:316,1,110.000003356934,2|14,1:2|1:2,0:0:0:0:
294,274,119328,1,2,2:3:0:0:
304,164,119655,1,2,2:3:0:0:
404,118,119983,1,2,1:3:0:0:
404,118,120147,2,0,P|436:160|478:218,1,110.000003356934,12|10,1:2|1:2,0:0:0:0:
469,330,120803,2,0,P|426:328|392:292,2,82.5000025177003,10|10|10,1:2|2:2|2:2,0:0:0:0:
502,374,121459,5,6,1:2:0:0:
256,192,121623,12,0,124082,0:0:0:0:
