osu file format v14

[General]
AudioFilename: audio.ogg
AudioLeadIn: 0
PreviewTime: 51429
Countdown: 0
SampleSet: Soft
StackLeniency: 0.7
Mode: 0
LetterboxInBreaks: 0
WidescreenStoryboard: 1

[Editor]
Bookmarks: 17166,27003,32248,51921,72904,75527,83396,100445
DistanceSpacing: 1.8
BeatDivisor: 4
GridSize: 4
TimelineZoom: 1.8

[Metadata]
Title:Achromatic Dystopia
TitleUnicode:無彩色のディストピア
Artist:HyuN feat. Wolpis Carter
ArtistUnicode:HyuN feat. ウォルピスカーター
Creator:Zixooo
Version:SHARE'S EXPERT
Source:Rotaeno
Tags:gouuh, habiholic, enuhq, share, xahlt, actiol, male, vocals, japanese, rock, jrock, j-rock, kater, Musaishiki No, Dream Engine Games
BeatmapID:3914533
BeatmapSetID:1877240

[Difficulty]
HPDrainRate:6
CircleSize:3.6
OverallDifficulty:8.3
ApproachRate:9
SliderMultiplier:1.7
SliderTickRate:1

[Events]
//Background and Video events
0,0,"bg 2 en jpg.jpg",0,0
Video,0,"MV.mp4"
//Break Periods
2,16740,21187
2,75757,80203
//Storyboard Layer 0 (Background)
//Storyboard Layer 1 (Fail)
//Storyboard Layer 2 (Pass)
//Storyboard Layer 3 (Foreground)
//Storyboard Layer 4 (Overlay)
//Storyboard Sound Samples

[TimingPoints]
2115,327.868852459016,4,2,1,65,1,0
2934,-100,4,2,2,65,0,0
3426,-95.2380952380952,4,2,1,75,0,0
3754,-95.2380952380952,4,2,3,75,0,0
4082,-95.2380952380952,4,2,1,75,0,0
4410,-95.2380952380952,4,2,3,75,0,0
5393,-95.2380952380952,4,2,1,75,0,0
5721,-95.2380952380952,4,2,3,75,0,0
6705,-95.2380952380952,4,2,1,75,0,0
7033,-95.2380952380952,4,2,3,75,0,0
8508,-95.2380952380952,4,2,2,75,0,0
8672,-95.2380952380952,4,2,1,75,0,0
9000,-95.2380952380952,4,2,3,75,0,0
9328,-95.2380952380952,4,2,1,75,0,0
9655,-95.2380952380952,4,2,3,75,0,0
11295,-95.2380952380952,4,2,1,70,0,0
11951,-95.2380952380952,4,2,2,70,0,0
12442,-95.2380952380952,4,2,1,70,0,0
12934,-95.2380952380952,4,2,2,70,0,0
13918,-95.2380952380952,4,2,1,70,0,0
14574,-95.2380952380952,4,2,2,70,0,0
15065,-95.2380952380952,4,2,1,70,0,0
16541,-95.2380952380952,4,2,1,55,0,0
21787,-133.333333333333,4,2,1,55,0,0
27033,-133.333333333333,4,2,1,60,0,0
28836,-133.333333333333,4,2,3,60,0,0
29164,-133.333333333333,4,2,1,60,0,0
29492,-133.333333333333,4,2,3,60,0,0
30967,-133.333333333333,4,2,1,70,0,0
31623,-133.333333333333,4,2,4,70,0,0
31869,-133.333333333333,4,2,1,70,0,0
31951,-133.333333333333,4,2,2,70,0,0
32033,-133.333333333333,4,2,5,70,0,0
32278,-111.111111111111,4,2,2,75,0,0
32770,-111.111111111111,4,2,1,75,0,0
33590,-111.111111111111,4,2,2,75,0,0
34082,-111.111111111111,4,2,1,75,0,0
34737,-111.111111111111,4,2,2,75,0,0
34901,-111.111111111111,4,2,1,75,0,0
35229,-111.111111111111,4,2,6,75,0,0
35885,-111.111111111111,4,2,3,75,0,0
36541,-111.111111111111,4,2,6,75,0,0
36869,-111.111111111111,4,2,1,75,0,0
37524,-111.111111111111,4,2,2,75,0,0
37688,-111.111111111111,4,2,1,75,0,0
38836,-111.111111111111,4,2,2,75,0,0
39328,-111.111111111111,4,2,1,75,0,0
40147,-111.111111111111,4,2,1,65,0,0
40639,-111.111111111111,4,2,3,65,0,0
41459,-111.111111111111,4,2,2,70,0,0
42114,-111.111111111111,4,2,4,70,0,0
42278,-111.111111111111,4,2,1,70,0,0
42770,-90.9090909090909,4,2,1,75,0,0
43262,-90.9090909090909,4,2,2,75,0,0
44574,-90.9090909090909,4,2,1,75,0,0
45393,-90.9090909090909,4,2,1,60,0,0
48016,-90.9090909090909,4,2,1,75,0,0
50639,-90.9090909090909,4,2,2,80,0,0
51295,-90.9090909090909,4,2,4,80,0,0
51459,-90.9090909090909,4,2,1,80,0,0
51951,-83.3333333333333,4,2,3,85,0,1
52278,-83.3333333333333,4,2,6,85,0,1
52934,-83.3333333333333,4,2,3,85,0,1
53262,-83.3333333333333,4,2,1,85,0,1
53590,-83.3333333333333,4,2,3,85,0,1
54246,-83.3333333333333,4,2,2,85,0,1
54574,-83.3333333333333,4,2,1,85,0,1
54901,-83.3333333333333,4,2,3,85,0,1
55065,-83.3333333333333,4,2,5,85,0,1
55557,-83.3333333333333,4,2,3,85,0,1
55885,-83.3333333333333,4,2,1,85,0,1
56213,-83.3333333333333,4,2,3,85,0,1
57196,-83.3333333333333,4,2,2,85,0,1
57360,-83.3333333333333,4,2,3,85,0,1
58344,-83.3333333333333,4,2,5,85,0,1
58672,-83.3333333333333,4,2,3,85,0,1
59000,-83.3333333333333,4,2,1,85,0,1
59328,-83.3333333333333,4,2,3,85,0,1
59819,-83.3333333333333,4,2,2,85,0,1
61131,-83.3333333333333,4,2,1,85,0,1
62442,-83.3333333333333,4,2,3,85,0,1
62770,-83.3333333333333,4,2,6,85,0,1
64082,-83.3333333333333,4,2,3,85,0,1
64737,-83.3333333333333,4,2,2,85,0,1
65065,-83.3333333333333,4,2,1,85,0,1
65393,-83.3333333333333,4,2,3,85,0,1
65557,-83.3333333333333,4,2,5,85,0,1
66049,-83.3333333333333,4,2,3,85,0,1
66377,-83.3333333333333,4,2,2,85,0,1
66705,-83.3333333333333,4,2,3,85,0,1
67688,-83.3333333333333,4,2,2,85,0,1
67852,-83.3333333333333,4,2,3,85,0,1
69000,-83.3333333333333,4,2,4,85,0,1
69164,-83.3333333333333,4,2,5,85,0,1
69492,-83.3333333333333,4,2,1,85,0,1
70639,-83.3333333333333,4,2,2,85,0,1
70803,-83.3333333333333,4,2,3,85,0,1
71623,-83.3333333333333,4,2,1,85,0,1
72934,-133.333333333333,4,2,6,75,0,0
74246,-133.333333333333,4,2,1,65,0,0
75557,-133.333333333333,4,2,1,55,0,0
80147,-133.333333333333,4,2,1,65,0,0
83426,-133.333333333333,4,2,1,70,0,0
86049,-100,4,2,3,75,0,0
86705,-100,4,2,1,75,0,0
87033,-100,4,2,3,75,0,0
88672,-100,4,2,1,75,0,0
89000,-100,4,2,3,75,0,0
89328,-100,4,2,1,75,0,0
89655,-100,4,2,3,75,0,0
89983,-100,4,2,2,75,0,0
90311,-100,4,2,3,75,0,0
91295,-100,4,2,2,80,0,0
91787,-100,4,2,1,80,0,0
92606,-100,4,2,2,80,0,0
93098,-100,4,2,1,80,0,0
93426,-100,4,2,2,80,0,0
93754,-100,4,2,1,80,0,0
94246,-100,4,2,3,80,0,0
96541,-100,4,2,1,85,0,0
97360,-100,4,2,2,85,0,0
97688,-90.9090909090909,4,2,2,85,0,0
98180,-90.9090909090909,4,2,1,85,0,0
100147,-90.9090909090909,4,2,2,85,0,0
100475,-83.3333333333333,4,2,3,90,0,1
100803,-83.3333333333333,4,2,6,90,0,1
101459,-83.3333333333333,4,2,3,90,0,1
101787,-83.3333333333333,4,2,1,90,0,1
102114,-83.3333333333333,4,2,3,90,0,1
102770,-83.3333333333333,4,2,7,90,0,1
102934,-83.3333333333333,4,2,1,90,0,1
103426,-83.3333333333333,4,2,3,90,0,1
103590,-83.3333333333333,4,2,5,90,0,1
104082,-83.3333333333333,4,2,3,90,0,1
104410,-83.3333333333333,4,2,4,90,0,1
104737,-83.3333333333333,4,2,3,90,0,1
105721,-83.3333333333333,4,2,2,90,0,1
105885,-83.3333333333333,4,2,3,90,0,1
106213,-83.3333333333333,4,2,1,90,0,1
106541,-83.3333333333333,4,2,3,90,0,1
106869,-83.3333333333333,4,2,1,90,0,1
107196,-83.3333333333333,4,2,3,90,0,1
107524,-83.3333333333333,4,2,2,90,0,1
107852,-83.3333333333333,4,2,3,90,0,1
108344,-83.3333333333333,4,2,5,90,0,1
108672,-83.3333333333333,4,2,3,90,0,1
109655,-83.3333333333333,4,2,1,90,0,1
110967,-83.3333333333333,4,2,3,90,0,1
111295,-83.3333333333333,4,2,6,90,0,1
112606,-83.3333333333333,4,2,3,90,0,1
113262,-83.3333333333333,4,2,2,90,0,1
113590,-83.3333333333333,4,2,1,90,0,1
113918,-83.3333333333333,4,2,3,90,0,1
114082,-83.3333333333333,4,2,5,90,0,1
114574,-83.3333333333333,4,2,3,90,0,1
114901,-83.3333333333333,4,2,5,90,0,1
115229,-83.3333333333333,4,2,3,90,0,1
116213,-83.3333333333333,4,2,2,90,0,1
116377,-83.3333333333333,4,2,3,90,0,1
117524,-83.3333333333333,4,2,4,90,0,1
117688,-83.3333333333333,4,2,5,90,0,1
118016,-83.3333333333333,4,2,1,90,0,1
119164,-83.3333333333333,4,2,2,90,0,1
119328,-83.3333333333333,4,2,3,90,0,1
120147,-83.3333333333333,4,2,1,90,0,1
121459,-83.3333333333333,4,2,6,75,0,0
122770,-83.3333333333333,4,2,1,60,0,0
123918,-83.3333333333333,4,2,2,60,0,0

[Colours]
Combo1 : 209,164,255
Combo2 : 128,0,255
Combo3 : 255,91,91

[HitObjects]
45,102,2114,6,0,B|94:96|94:96|119:109|119:109|188:102,1,127.5,0|0,1:1|1:1,0:0:0:0:
212,93,2442,2,0,L|219:32,3,42.5,8|8|10|8,2:2|2:2|2:2|2:2,0:0:0:0:
286,259,2770,1,8,2:3:0:0:
359,85,2934,1,10,2:3:0:0:
192,190,3098,1,2,1:2:0:0:
381,217,3262,1,2,1:2:0:0:
216,50,3426,6,0,P|124:42|84:111,1,178.499994552612,6|10,1:2|2:3,0:0:0:0:
22,264,3918,2,0,B|87:265|87:265|121:297|121:297|210:304,1,178.499994552612,2|0,1:2|1:1,0:0:0:0:
280,180,4410,2,0,L|178:191,1,89.2499972763062,10|2,2:3|1:2,0:0:0:0:
408,354,4737,5,2,2:3:0:0:
378,175,4901,1,2,2:2:0:0:
291,357,5065,2,0,L|281:268,1,89.2499972763062,10|2,2:3|1:2,0:0:0:0:
496,166,5393,2,0,L|486:254,1,89.2499972763062,2|2,2:3|1:2,0:0:0:0:
338,75,5721,1,10,2:3:0:0:
382,273,5885,1,2,1:2:0:0:
330,57,6049,6,0,B|282:24|240:58|242:62|246:69|197:108|141:53,1,178.499994552612,2|10,1:3|2:3,0:0:0:0:
60,35,6541,2,0,B|89:49|116:53|116:53|98:175,1,178.499994552612,2|2,1:2|1:2,0:0:0:0:
19,256,6951,1,2,2:2:0:0:
33,272,7033,2,0,P|90:280|135:287,1,89.2499972763062,10|2,2:3|1:2,0:0:0:0:
250,224,7360,5,2,1:3:0:0:
224,378,7524,1,2,2:2:0:0:
254,200,7688,2,0,P|260:155|266:111,1,89.2499972763062,10|2,2:3|1:2,0:0:0:0:
112,293,8016,5,2,2:3:0:0:
352,273,8180,1,2,1:2:0:0:
154,158,8344,1,10,2:3:0:0:
230,359,8508,1,6,1:2:0:0:
298,182,8672,6,0,P|378:164|447:227,1,178.499994552612,6|10,1:2|2:3,0:0:0:0:
482,43,9164,2,0,L|375:60,1,89.2499972763062,2|2,2:2|2:3,0:0:0:0:
298,182,9492,1,2,1:2:0:0:
215,21,9655,2,0,P|221:70|229:109,1,89.2499972763062,10|2,2:3|2:2,0:0:0:0:
227,275,9983,5,2,1:3:0:0:
387,172,10147,1,2,1:2:0:0:
332,350,10311,1,10,2:3:0:0:
268,203,10475,2,0,P|225:191|182:202,1,89.2499972763062,2|10,1:2|2:3,0:0:0:0:
48,307,10803,5,10,1:2:0:0:
48,307,10884,1,10,2:2:0:0:
48,307,10967,2,0,L|-17:295,3,44.6249986381531,10|10|10|10,2:2|2:2|2:2|2:2,0:0:0:0:
85,342,11295,6,0,P|129:356|173:343,1,89.2499972763062,14|2,1:2|1:2,0:0:0:0:
177,179,11623,2,0,P|133:165|89:178,1,89.2499972763062,10|2,2:2|1:2,0:0:0:0:
281,374,11951,2,0,L|285:268,1,89.2499972763062,14|2,2:2|1:2,0:0:0:0:
291,182,12278,1,10,2:2:0:0:
222,40,12442,6,0,B|161:68|161:68|180:201,1,178.499994552612,6|2,1:2|1:2,0:0:0:0:
373,157,12934,2,0,L|283:143,1,89.2499972763062,14|2,2:2|1:2,0:0:0:0:
189,356,13262,1,10,2:2:0:0:
390,254,13426,1,8,2:2:0:0:
231,165,13590,1,10,2:2:0:0:
289,357,13754,1,8,2:2:0:0:
475,352,13918,6,0,B|432:310|432:310|312:325,1,178.499994552612,6|14,1:2|2:2,0:0:0:0:
124,267,14410,1,2,1:2:0:0:
208,369,14574,2,0,P|214:322|222:272,1,89.2499972763062,14|2,2:2|1:2,0:0:0:0:
164,89,14901,1,14,2:2:0:0:
25,213,15065,6,0,P|31:257|37:301,1,89.2499972763062,6|0,1:2|0:0,0:0:0:0:
191,201,15393,1,2,1:2:0:0:
120,40,15557,2,0,P|114:84|107:128,1,89.2499972763062,10|2,2:2|1:2,0:0:0:0:
191,201,15885,5,10,2:2:0:0:
219,167,15966,1,8,2:2:0:0:
261,153,16048,1,10,2:2:0:0:
304,161,16130,1,8,2:2:0:0:
337,191,16213,2,0,L|399:180,4,44.6249986381531,10|10|10|10|4,2:2|2:2|2:2|2:2|2:3,0:0:0:0:
21,255,21787,6,0,B|76:232|129:286|73:274|143:333|201:298,1,191.250007295609,2|2,2:2|2:2,0:0:0:0:
349,293,22606,2,0,P|355:331|361:370,1,63.7500024318696,2|2,2:2|2:2,0:0:0:0:
459,359,22934,1,2,2:2:0:0:
459,359,23098,2,0,P|447:294|437:229,1,127.500004863739
466,137,23590,6,0,P|434:130|401:139,1,63.7500024318696,2|0,2:2|0:0,0:0:0:0:
349,206,23918,2,0,P|318:213|287:206,1,63.7500024318696,2|0,2:2|0:0,0:0:0:0:
159,129,24246,6,0,B|179:146|212:152|212:152|193:288,1,191.250007295609,2|0,2:2|0:0,0:0:0:0:
193,283,25065,6,0,L|119:275,1,63.7500024318696,2|0,2:2|0:0,0:0:0:0:
258,359,25393,2,0,L|321:352,1,63.7500024318696,2|0,2:2|0:0,0:0:0:0:
426,379,25721,1,2,2:2:0:0:
426,379,25885,2,0,L|419:315,1,63.7500024318696,2|0,2:2|0:0,0:0:0:0:
474,231,26213,5,2,2:2:0:0:
474,231,26295,1,0,0:0:0:0:
474,231,26377,2,0,B|427:192|381:221|385:227|388:232|338:261|295:218,1,191.250007295609
205,146,27033,6,0,P|211:216|217:284,1,127.500004863739,4|0,1:2|1:1,0:0:0:0:
296,54,27688,2,0,P|289:105|287:125,1,63.7500024318696,2|2,1:2|2:3,0:0:0:0:
122,43,28016,2,0,P|129:94|131:114,1,63.7500024318696,2|2,1:2|2:3,0:0:0:0:
28,202,28344,6,0,B|80:198|80:198|104:212|104:212|170:207,1,127.500004863739,2|2,1:2|1:2,0:0:0:0:
328,256,28836,2,0,B|248:240|248:240|216:288,1,127.500004863739,2|2,2:3|2:3,0:0:0:0:
167,358,29328,1,2,1:2:0:0:
167,358,29492,1,2,2:3:0:0:
17,275,29655,6,0,P|73:249|132:270,1,127.500004863739,2|2,1:2|1:2,0:0:0:0:
233,161,30147,2,0,L|158:170,1,63.7500024318696,2|0,2:3|1:1,0:0:0:0:
98,46,30475,1,2,2:3:0:0:
98,46,30639,2,0,L|173:55,1,63.7500024318696,2|2,1:2|2:3,0:0:0:0:
225,224,30967,6,0,L|234:149,1,63.7500024318696,4|2,1:2|1:2,0:0:0:0:
367,44,31295,1,10,2:2:0:0:
369,75,31376,1,8,2:2:0:0:
372,107,31458,1,10,2:2:0:0:
375,139,31540,1,8,2:2:0:0:
378,170,31623,2,0,L|370:233,1,63.7500024318696,8|8,2:3|2:3,0:0:0:0:
297,366,31951,5,8,2:3:0:0:
473,302,32114,1,0,1:1:0:0:
282,155,32278,6,0,B|235:184|235:184|259:290,1,152.999995330811,14|2,1:2|1:2,0:0:0:0:
136,363,32770,2,0,L|140:281,1,76.4999976654053,14|0,1:2|1:1,0:0:0:0:
36,161,33099,5,10,2:2:0:0:
73,166,33180,1,8,2:2:0:0:
111,172,33262,2,0,L|128:115,3,38.2499988327027,10|8|10|8,2:2|2:2|2:2|2:2,0:0:0:0:
268,356,33590,5,14,1:2:0:0:
327,159,33754,1,2,1:2:0:0:
139,286,33918,5,2,2:2:0:0:
385,359,34082,2,0,L|374:270,1,76.4999976654053,6|0,1:2|0:0,0:0:0:0:
413,102,34410,5,10,2:2:0:0:
256,244,34574,1,2,2:2:0:0:
260,52,34737,5,14,2:2:0:0:
447,198,34901,1,6,1:2:0:0:
169,157,35065,5,2,2:2:0:0:
356,28,35229,1,10,2:3:0:0:
338,287,35393,6,0,B|284:281|284:281|251:305|251:305|190:301,1,152.999995330811,2|2,2:2|1:2,0:0:0:0:
9,284,35885,1,10,2:3:0:0:
169,157,36049,1,2,2:2:0:0:
108,364,36213,6,0,P|101:280|95:208,1,152.999995330811,2|10,1:2|2:3,0:0:0:0:
52,77,36705,1,2,1:2:0:0:
52,77,36787,1,0,1:2:0:0:
52,77,36869,2,0,L|1:69,3,38.2499988327027,4|0|8|8,2:2|0:0|1:2|2:2,0:0:0:0:
169,157,37196,2,0,L|206:151,3,38.2499988327027,10|8|10|8,2:2|2:2|2:2|2:2,0:0:0:0:
9,292,37524,5,14,1:2:0:0:
221,313,37688,1,6,1:2:0:0:
66,179,37852,1,2,1:2:0:0:
108,364,38016,6,0,L|115:273,1,76.4999976654053,10|0,1:2|0:0,0:0:0:0:
126,76,38344,1,2,1:2:0:0:
246,230,38508,5,10,1:2:0:0:
271,227,38589,1,8,2:2:0:0:
297,225,38671,1,10,1:2:0:0:
322,223,38753,1,8,2:2:0:0:
347,220,38836,6,0,L|334:133,1,76.4999976654053,14|2,1:2|1:2,0:0:0:0:
237,348,39164,1,2,1:2:0:0:
162,156,39328,6,0,B|141:174|113:185|113:185|140:291,1,152.999995330811,14|10,1:2|2:2,0:0:0:0:
94,73,39819,5,10,1:2:0:0:
121,47,39900,1,8,2:2:0:0:
157,35,39982,1,10,2:2:0:0:
195,39,40064,1,8,2:2:0:0:
228,58,40147,6,0,L|306:45,1,76.4999976654053,6|2,1:2|2:3,0:0:0:0:
430,216,40475,2,0,L|354:202,1,76.4999976654053,10|2,1:2|2:3,0:0:0:0:
161,249,40803,1,0,1:1:0:0:
358,343,40967,1,2,2:3:0:0:
269,145,41131,1,8,1:2:0:0:
241,338,41295,5,2,1:3:0:0:
241,338,41377,1,0,1:2:0:0:
241,338,41459,2,0,B|192:362|192:362|79:344,1,152.999995330811,4|10,1:2|2:2,0:0:0:0:
50,251,41869,1,8,2:2:0:0:
50,251,41951,2,0,L|114:261,1,38.2499988327027,10|8,2:2|2:2,0:0:0:0:
159,130,42114,5,8,2:3:0:0:
182,262,42278,1,8,2:3:0:0:
295,169,42442,1,2,1:2:0:0:
316,299,42606,1,2,1:2:0:0:
425,137,42770,6,0,B|477:103|441:40|441:40|374:43|381:90,1,187.000005706787,14|2,1:2|1:2,0:0:0:0:
316,299,43262,2,0,B|358:258|427:306|375:293|444:351|502:302,1,187.000005706787,14|10,1:2|2:2,0:0:0:0:
161,324,43754,1,10,2:2:0:0:
353,191,43918,5,10,2:2:0:0:
353,191,44000,1,8,2:2:0:0:
353,191,44082,2,0,P|332:89|317:3,1,187.000005706787,6|2,1:2|1:2,0:0:0:0:
51,98,44574,2,0,B|93:57|162:105|110:92|179:150|237:101,1,187.000005706787,14|10,1:2|2:2,0:0:0:0:
410,331,45065,5,10,1:2:0:0:
418,303,45146,1,8,2:2:0:0:
426,275,45228,1,10,2:2:0:0:
432,246,45310,1,8,2:2:0:0:
438,222,45393,6,0,B|461:209|481:221|481:221|423:158|345:200,1,187.000005706787,6|0,1:2|0:0,0:0:0:0:
186,305,45885,1,2,2:2:0:0:
280,347,46049,6,0,B|318:307|270:238|283:290|225:221|265:176,1,187.000005706787,2|0,2:2|0:0,0:0:0:0:
393,54,46705,5,0,0:0:0:0:
83,202,47360,1,2,2:2:0:0:
377,260,48016,5,14,1:2:0:0:
157,95,48180,1,8,1:2:0:0:
294,342,48508,5,10,1:2:0:0:
327,17,48836,5,14,1:2:0:0:
103,197,49000,1,2,2:2:0:0:
415,147,49164,1,10,1:2:0:0:
432,141,49492,5,0,1:1:0:0:
144,27,49656,1,12,2:2:0:0:
29,291,49983,5,8,2:2:0:0:
74,286,50064,1,8,2:2:0:0:
115,307,50146,1,8,2:2:0:0:
158,324,50228,1,8,2:2:0:0:
203,314,50311,2,0,L|265:324,4,46.7500014266968,8|8|8|8|12,2:2|2:2|2:2|2:2|1:2,0:0:0:0:
434,226,50967,5,8,2:2:0:0:
438,194,51048,1,8,2:2:0:0:
442,163,51130,1,8,1:2:0:0:
446,132,51212,1,8,2:2:0:0:
450,101,51295,6,0,P|403:83|359:93,1,93.5000028533936,8|8,2:3|1:3,0:0:0:0:
150,263,51623,1,2,1:2:0:0:
344,188,51787,1,2,1:2:0:0:
216,43,51951,6,0,B|213:114|213:114|247:156|247:156|245:241,1,203.999993774414,6|10,1:2|2:3,0:0:0:0:
64,240,52442,2,0,B|39:219|7:206|7:206|33:156|98:139|132:178,1,203.999993774414,2|2,1:2|1:2,0:0:0:0:
318,337,52934,1,10,2:3:0:0:
228,180,53098,6,0,B|249:137|221:95|196:96|185:102|160:103|131:67|154:20,1,203.999993774414,2|2,1:2|2:2,0:0:0:0:
332,232,53590,1,10,2:3:0:0:
94,158,53754,1,2,1:2:0:0:
355,29,53918,2,0,P|338:76|329:127,1,101.999996887207,2|0,2:3|1:1,0:0:0:0:
224,367,54246,5,14,2:2:0:0:
456,303,54410,1,2,1:2:0:0:
227,256,54574,6,0,B|184:234|142:262|143:287|149:298|150:323|114:352|67:329,1,203.999993774414,6|10,1:2|2:3,0:0:0:0:
133,157,55065,2,0,B|142:128|77:107|77:107|31:175|81:219,1,203.999993774414,6|2,1:2|1:2,0:0:0:0:
224,367,55557,1,10,2:3:0:0:
326,146,55721,6,0,P|413:133|470:224,1,203.999993774414,2|0,2:2|1:1,0:0:0:0:
329,359,56213,1,10,2:3:0:0:
218,116,56377,1,2,1:2:0:0:
38,297,56541,5,10,2:3:0:0:
87,285,56622,1,8,2:2:0:0:
137,274,56704,1,8,1:2:0:0:
187,263,56786,1,8,2:2:0:0:
230,254,56869,6,0,P|265:252|302:253,3,50.9999984436036,8|8|8|8,2:2|2:2|2:2|2:2,0:0:0:0:
40,147,57196,5,6,1:2:0:0:
184,357,57360,1,2,2:3:0:0:
22,139,57524,1,10,1:2:0:0:
177,20,57688,6,0,B|155:63|183:105|208:104|219:98|244:97|273:133|250:180,1,203.999993774414,6|2,2:3|2:3,0:0:0:0:
41,351,58180,2,0,P|49:301|80:261,1,101.999996887207,10|2,1:2|2:3,0:0:0:0:
346,118,58508,5,6,1:2:0:0:
122,163,58672,1,2,2:3:0:0:
307,284,58836,1,10,1:2:0:0:
52,40,59000,6,0,P|39:141|29:242,1,203.999993774414,6|2,2:2|2:3,0:0:0:0:
206,66,59492,1,10,1:2:0:0:
70,138,59655,1,2,1:3:0:0:
186,262,59819,6,0,B|229:284|271:256|270:231|264:220|263:195|299:166|346:189,1,203.999993774414,6|10,1:2|1:2,0:0:0:0:
449,346,60311,2,0,B|406:368|364:340|365:315|371:304|372:279|336:250|289:273,1,203.999993774414,2|2,2:2|2:2,0:0:0:0:
443,136,60803,2,0,P|454:194|459:238,1,101.999996887207,8|2,1:2|1:2,0:0:0:0:
171,309,61131,5,12,1:2:0:0:
312,161,61295,1,2,1:2:0:0:
109,185,61459,5,8,1:2:0:0:
272,355,61623,1,2,1:2:0:0:
381,47,61787,5,8,1:2:0:0:
352,51,61868,1,8,2:2:0:0:
324,55,61950,1,8,2:2:0:0:
296,59,62032,1,8,2:2:0:0:
267,63,62114,1,10,1:2:0:0:
239,67,62196,1,8,2:2:0:0:
211,71,62278,1,10,2:2:0:0:
183,76,62360,1,8,2:2:0:0:
160,81,62442,6,0,B|138:124|166:166|191:165|202:159|227:158|256:194|233:241,1,203.999993774414,14|10,1:2|2:3,0:0:0:0:
93,333,62934,2,0,B|64:330|34:346|34:346|28:300|65:244|132:258,1,203.999993774414,2|2,1:2|1:2,0:0:0:0:
367,183,63426,1,10,2:3:0:0:
192,344,63590,1,2,1:2:0:0:
303,372,63754,6,0,P|296:321|287:271,1,101.999996887207,2|2,1:3|2:2,0:0:0:0:
466,97,64082,1,10,2:3:0:0:
413,299,64246,1,2,1:2:0:0:
299,111,64410,2,0,P|241:106|194:131,1,101.999996887207,2|0,2:3|1:1,0:0:0:0:
58,293,64737,1,14,2:2:0:0:
264,197,64901,1,2,1:2:0:0:
48,97,65065,5,6,1:2:0:0:
143,344,65229,1,2,1:2:0:0:
194,113,65393,1,10,2:3:0:0:
289,357,65557,2,0,B|332:379|374:351|373:326|367:315|366:290|402:261|449:284,1,203.999993774414,6|2,1:2|1:2,0:0:0:0:
224,290,66049,1,10,2:3:0:0:
366,45,66213,6,0,B|337:76|300:82|300:82|344:221,1,203.999993774414,2|2,2:2|1:2,0:0:0:0:
216,23,66705,1,10,2:3:0:0:
427,120,66869,1,2,1:2:0:0:
224,290,67033,2,0,P|217:239|208:189,1,101.999996887207,10|8,2:2|1:2,0:0:0:0:
152,123,67278,1,8,2:2:0:0:
152,123,67360,2,0,P|119:118|88:116,3,50.9999984436036,8|8|8|8,2:2|2:2|2:2|2:2,0:0:0:0:
89,294,67688,5,6,1:2:0:0:
337,189,67852,1,2,2:3:0:0:
68,298,68016,5,10,1:2:0:0:
334,211,68180,2,0,P|324:261|318:311,1,101.999996887207,2|0,2:3|1:1,0:0:0:0:
487,136,68508,1,10,2:3:0:0:
357,71,68672,5,8,2:2:0:0:
320,75,68753,1,8,2:2:0:0:
284,80,68835,1,10,2:3:0:0:
247,85,68917,1,8,2:2:0:0:
211,90,68999,5,12,2:2:0:0:
73,251,69164,2,0,P|119:267|174:257,1,101.999996887207,14|0,2:2|0:0,0:0:0:0:
156,16,69492,2,0,B|123:41|90:45|90:45|127:189,1,203.999993774414,14|4,2:2|1:2,0:0:0:0:
271,365,69983,1,2,2:2:0:0:
333,179,70147,1,14,2:2:0:0:
67,300,70311,6,0,B|145:299|145:299|183:263|183:263|256:262,1,203.999993774414,2|14,2:2|2:2,0:0:0:0:
480,350,70803,2,0,P|403:359|358:367,1,101.999996887207,2|0,2:3|1:1,0:0:0:0:
359,154,71131,2,0,P|436:163|481:171,1,101.999996887207,2|8,2:3|2:2,0:0:0:0:
256,262,71459,6,0,P|244:159|229:57,1,203.999993774414,2|2,1:3|1:3,0:0:0:0:
70,62,71951,5,10,1:2:0:0:
70,62,72033,1,8,1:2:0:0:
70,62,72114,2,0,L|146:73,1,50.9999984436036,0|0,1:1|0:0,0:0:0:0:
316,161,72278,5,10,1:2:0:0:
284,167,72359,1,8,2:2:0:0:
253,173,72441,1,8,2:2:0:0:
222,179,72523,1,10,2:2:0:0:
191,185,72606,2,0,L|124:196,3,50.9999984436036,8|8|10|8,1:2|2:2|2:2|2:2,0:0:0:0:
321,282,72934,5,6,1:2:0:0:
256,192,73016,12,2,74082,2:2:0:0:
72,340,74246,6,0,B|139:327|139:327|188:358|188:358|279:344|279:344|282:339|282:339|338:328|338:328|368:249|368:249|291:261|213:274,1,510.000019454957,6|2,2:2|2:2,0:0:0:0:
45,265,80803,6,0,P|112:274|199:286,1,127.500004863739,2|0,2:2|0:0,0:0:0:0:
270,253,81623,1,2,2:2:0:0:
299,358,81787,1,2,2:2:0:0:
294,232,81951,1,2,2:2:0:0:
378,301,82114,6,0,P|441:306|480:238,1,127.500004863739,2|2,2:2|2:2,0:0:0:0:
489,144,82606,2,0,P|453:146|420:173,1,63.7500024318696,2|0,2:2|0:0,0:0:0:0:
392,75,82934,2,0,P|361:94|346:134,1,63.7500024318696,2|0,2:2|0:0,0:0:0:0:
294,232,83262,1,2,2:2:0:0:
217,59,83426,5,12,1:2:0:0:
299,268,83590,1,8,1:2:0:0:
306,296,83918,5,8,1:2:0:0:
149,234,84246,5,8,1:2:0:0:
423,320,84410,1,0,1:2:0:0:
127,226,84574,1,8,1:2:0:0:
339,127,84901,5,0,1:1:0:0:
68,95,85065,1,8,1:2:0:0:
208,334,85229,1,8,1:2:0:0:
248,85,85393,5,10,2:2:0:0:
262,61,85474,1,8,2:2:0:0:
283,42,85556,1,10,2:2:0:0:
307,30,85638,1,8,2:2:0:0:
334,23,85720,1,10,2:2:0:0:
362,24,85802,1,8,2:2:0:0:
388,32,85884,1,10,2:2:0:0:
412,47,85966,1,8,2:2:0:0:
430,67,86049,6,0,P|424:123|421:162,1,85,6|2,1:2|2:2,0:0:0:0:
464,323,86377,1,10,1:3:0:0:
349,241,86541,2,0,P|272:233|163:225,1,170,2|2,2:2|2:2,0:0:0:0:
41,163,87033,1,10,1:3:0:0:
41,163,87114,1,2,2:2:0:0:
41,163,87196,1,2,2:2:0:0:
41,163,87278,1,2,2:2:0:0:
41,163,87360,6,0,L|-22:153,3,42.5,2|2|2|2,1:3|2:2|2:2|2:2,0:0:0:0:
162,64,87688,2,0,L|203:57,3,42.5,10|2|2|2,1:3|2:2|2:2|2:2,0:0:0:0:
49,23,88016,6,0,L|59:75,1,42.5,2|2,1:3|2:2,0:0:0:0:
144,208,88180,2,0,L|152:166,1,42.5,2|2,2:2|2:2,0:0:0:0:
340,65,88344,5,10,1:3:0:0:
378,48,88425,1,2,2:2:0:0:
420,51,88507,1,2,1:2:0:0:
457,71,88589,1,2,2:2:0:0:
481,106,88672,6,0,P|468:198|461:276,1,170,6|10,1:2|1:3,0:0:0:0:
217,273,89164,2,0,B|252:292|283:267|283:246|277:235|283:213|320:187|359:211,1,170,2|2,2:2|2:2,0:0:0:0:
174,202,89655,1,10,1:3:0:0:
360,311,89819,1,2,2:2:0:0:
346,108,89983,6,0,P|290:100|249:99,1,85,12|2,1:2|1:2,0:0:0:0:
234,306,90311,2,0,P|192:313|150:316,1,85,10|2,2:3|1:2,0:0:0:0:
22,149,90639,5,8,2:2:0:0:
61,137,90720,1,8,2:2:0:0:
101,151,90802,1,10,2:2:0:0:
133,179,90884,1,10,2:2:0:0:
168,202,90966,1,10,2:2:0:0:
210,208,91048,1,10,2:2:0:0:
249,191,91130,1,10,2:2:0:0:
277,159,91212,1,10,2:2:0:0:
271,116,91295,6,0,B|329:100|329:100|375:119|375:119|450:105,1,170,14|2,1:2|1:2,0:0:0:0:
199,27,91787,2,0,B|178:48|149:65|149:65|184:186,1,170,14|10,1:2|1:2,0:0:0:0:
137,249,92196,1,8,2:2:0:0:
137,249,92278,2,0,L|78:236,1,42.5,10|10,2:2|2:2,0:0:0:0:
28,356,92442,2,0,L|69:346,1,42.5,10|10,2:2|2:2,0:0:0:0:
348,284,92606,5,14,1:2:0:0:
161,356,92770,1,2,1:2:0:0:
252,161,92934,1,2,1:2:0:0:
382,362,93098,2,0,P|391:269|404:190,1,170,14|14,1:2|1:2,0:0:0:0:
194,38,93590,1,2,2:2:0:0:
260,259,93754,1,14,1:2:0:0:
436,84,93918,5,14,1:2:0:0:
397,67,93999,1,2,2:2:0:0:
354,67,94081,1,2,1:2:0:0:
316,83,94163,1,2,2:2:0:0:
288,115,94245,1,10,1:3:0:0:
259,146,94327,1,2,2:2:0:0:
219,160,94409,1,2,1:2:0:0:
177,158,94491,1,2,2:2:0:0:
137,142,94574,6,0,L|83:138,3,42.5,10|2|2|2,1:3|2:2|1:2|2:2,0:0:0:0:
260,259,94901,2,0,L|314:254,3,42.5,10|2|2|2,1:3|2:2|1:2|2:2,0:0:0:0:
38,331,95229,5,10,1:3:0:0:
70,304,95310,1,2,2:2:0:0:
111,296,95392,1,2,1:2:0:0:
151,310,95474,1,2,2:2:0:0:
180,341,95557,2,0,L|177:394,3,42.5,10|2|2|2,1:3|2:2|1:2|2:2,0:0:0:0:
260,259,95885,5,10,1:3:0:0:
302,255,95966,1,2,2:2:0:0:
344,251,96048,1,2,1:2:0:0:
386,247,96130,1,2,2:2:0:0:
429,243,96213,6,0,L|480:248,1,42.5,10|2,1:3|2:2,0:0:0:0:
300,139,96377,2,0,L|249:143,1,42.5,2|2,1:2|2:2,0:0:0:0:
439,78,96541,5,14,1:2:0:0:
391,347,96705,1,10,1:2:0:0:
398,366,97033,5,8,1:2:0:0:
408,381,97360,1,14,1:2:0:0:
162,139,97524,1,2,2:2:0:0:
434,255,97688,6,0,B|369:250|369:250|323:281|323:281|256:273,1,187.000005706787,10|0,1:2|1:1,0:0:0:0:
26,146,98180,1,12,2:2:0:0:
278,55,98344,1,0,1:1:0:0:
151,348,98508,5,10,2:2:0:0:
146,301,98589,1,8,2:2:0:0:
141,255,98671,1,8,2:2:0:0:
136,208,98753,1,8,2:2:0:0:
131,162,98836,6,0,L|83:155,3,46.7500014266968,8|8|10|8,2:2|2:2|2:2|2:2,0:0:0:0:
166,130,99164,6,0,P|217:116|268:135,1,93.5000028533936,4|0,1:2|1:1,0:0:0:0:
347,151,99492,2,0,L|404:133,3,46.7500014266968,8|8|8|8,2:2|2:2|1:2|2:2,0:0:0:0:
228,228,99819,6,0,L|282:235,1,46.7500014266968,8|0,2:3|0:0,0:0:0:0:
424,262,99983,2,0,L|378:269,1,46.7500014266968,8|8,1:3|2:3,0:0:0:0:
271,355,100147,5,10,2:3:0:0:
271,355,100229,1,8,2:3:0:0:
271,355,100311,1,2,1:2:0:0:
271,355,100393,1,0,0:0:0:0:
271,355,100475,6,0,B|200:352|200:352|158:386|158:386|73:384,1,203.999993774414,6|10,1:2|2:3,0:0:0:0:
55,211,100966,2,0,B|76:186|89:154|89:154|139:180|156:245|117:279,1,203.999993774414,2|2,1:2|1:2,0:0:0:0:
231,70,101458,1,10,2:3:0:0:
302,237,101622,6,0,B|347:259|383:230|382:205|376:194|375:169|417:141|460:162,1,203.999993774414,2|2,1:2|2:2,0:0:0:0:
198,261,102114,1,10,2:3:0:0:
421,325,102278,1,2,1:2:0:0:
268,47,102442,2,0,P|285:94|294:145,1,101.999996887207,2|0,2:3|1:1,0:0:0:0:
311,319,102770,5,14,2:3:0:0:
415,96,102934,1,2,1:2:0:0:
308,341,103098,6,0,B|277:378|227:370|219:344|219:334|210:311|165:299|132:338,1,203.999993774414,6|10,1:2|2:3,0:0:0:0:
210,177,103589,2,0,B|201:148|266:127|266:127|312:195|262:239,1,203.999993774414,6|2,1:2|1:2,0:0:0:0:
118,64,104081,1,10,2:3:0:0:
14,191,104245,6,0,P|62:274|159:266,1,203.999993774414,2|0,2:2|1:1,0:0:0:0:
330,42,104737,1,10,2:3:0:0:
114,155,104901,1,2,1:2:0:0:
261,268,105065,5,10,2:2:0:0:
249,219,105146,1,8,2:2:0:0:
238,169,105228,1,8,1:2:0:0:
227,119,105310,1,8,2:2:0:0:
213,78,105393,6,0,P|211:52|211:27,3,50.9999984436036,8|8|8|8,2:2|2:2|2:2|2:2,0:0:0:0:
125,285,105720,5,6,1:2:0:0:
319,359,105884,1,2,2:3:0:0:
108,268,106048,1,8,1:2:0:0:
250,178,106212,6,0,B|293:200|335:172|334:147|328:136|327:111|363:82|410:105,1,203.999993774414,6|2,2:2|2:3,0:0:0:0:
496,274,106704,2,0,P|456:242|406:234,1,101.999996887207,10|2,1:2|2:3,0:0:0:0:
243,322,107033,5,6,1:2:0:0:
358,121,107196,1,2,2:3:0:0:
417,347,107360,1,10,1:2:0:0:
190,157,107524,6,0,B|181:128|246:107|246:107|292:175|242:219,1,203.999993774414,6|2,2:2|2:3,0:0:0:0:
156,358,108016,1,10,1:2:0:0:
76,160,108179,1,2,1:3:0:0:
253,304,108343,6,0,B|296:326|338:298|337:273|331:262|330:237|366:208|413:231,1,203.999993774414,6|10,1:2|1:2,0:0:0:0:
254,230,108835,2,0,B|299:207|335:236|334:261|328:272|327:297|369:325|412:303,1,203.999993774414,2|2,2:3|2:3,0:0:0:0:
459,50,109327,2,0,P|449:100|443:150,1,101.999996887207,8|2,1:2|1:3,0:0:0:0:
259,348,109655,5,12,1:2:0:0:
310,134,109819,1,2,1:2:0:0:
148,299,109983,5,8,1:2:0:0:
117,45,110147,1,2,1:2:0:0:
50,204,110311,5,8,1:2:0:0:
79,200,110392,1,8,2:2:0:0:
107,196,110474,1,8,2:2:0:0:
135,192,110556,1,8,2:2:0:0:
164,188,110638,1,10,1:2:0:0:
192,184,110720,1,8,2:2:0:0:
220,180,110802,1,10,2:2:0:0:
248,175,110884,1,8,2:2:0:0:
276,174,110966,6,0,B|319:196|361:168|360:143|354:132|353:107|389:78|436:101,1,203.999993774414,14|10,1:2|2:3,0:0:0:0:
436,270,111458,2,0,B|448:324|392:361|346:355|346:355|362:325|359:296,1,203.999993774414,2|2,1:2|1:2,0:0:0:0:
274,88,111950,1,10,2:3:0:0:
431,188,112114,1,2,1:2:0:0:
259,318,112278,6,0,P|252:267|243:217,1,101.999996887207,2|2,1:3|2:2,0:0:0:0:
341,7,112606,1,10,2:3:0:0:
178,106,112770,1,2,1:2:0:0:
387,190,112934,6,0,P|396:139|402:89,1,101.999996887207,2|0,2:3|1:1,0:0:0:0:
273,292,113261,1,14,2:2:0:0:
481,241,113425,1,2,1:2:0:0:
205,169,113589,5,6,1:2:0:0:
379,346,113753,1,2,1:2:0:0:
372,99,113917,1,10,2:3:0:0:
237,298,114081,2,0,B|195:267|155:290|151:314|155:326|152:351|106:371|67:342,1,203.999993774414,6|2,1:2|1:2,0:0:0:0:
302,158,114574,1,10,2:3:0:0:
110,71,114737,6,0,B|81:102|44:108|44:108|88:247,1,203.999993774414,2|2,2:2|1:2,0:0:0:0:
228,374,115229,1,10,2:3:0:0:
229,131,115393,1,2,1:2:0:0:
407,250,115557,2,0,P|356:257|306:266,1,101.999996887207,10|8,2:2|1:2,0:0:0:0:
230,221,115802,1,8,2:2:0:0:
230,221,115884,2,0,P|197:216|166:214,3,50.9999984436036,8|8|8|8,2:2|2:2|2:2|2:2,0:0:0:0:
389,38,116212,5,6,1:2:0:0:
162,79,116376,1,2,2:3:0:0:
375,153,116540,5,10,1:2:0:0:
282,0,116704,2,0,P|272:50|266:100,1,101.999996887207,2|0,2:3|1:1,0:0:0:0:
399,291,117032,1,10,2:3:0:0:
288,231,117196,5,8,1:2:0:0:
251,235,117277,1,8,2:2:0:0:
215,240,117359,1,10,2:3:0:0:
178,245,117441,1,8,2:2:0:0:
141,246,117524,6,0,P|90:242|39:239,2,101.999996887207,12|14|0,2:2|2:2|0:0,0:0:0:0:
214,130,118016,2,0,P|250:78|378:108,1,203.999993774414,14|4,1:2|1:2,0:0:0:0:
347,353,118507,1,2,2:2:0:0:
479,172,118671,1,14,1:2:0:0:
240,248,118835,6,0,B|162:247|162:247|124:211|124:211|51:210,1,203.999993774414,2|14,1:2|1:2,0:0:0:0:
100,357,119327,2,0,P|150:349|201:343,1,101.999996887207,2|0,2:3|1:1,0:0:0:0:
315,143,119655,2,0,P|238:134|193:126,1,101.999996887207,2|8,2:3|2:2,0:0:0:0:
389,339,119983,6,0,P|400:237|415:136,1,203.999993774414,2|2,1:3|1:3,0:0:0:0:
211,38,120475,2,0,P|218:88|224:139,1,101.999996887207,10|2,1:2|1:3,0:0:0:0:
140,222,120803,5,10,1:2:0:0:
140,222,120885,1,8,2:2:0:0:
140,222,120967,2,0,L|82:211,1,50.9999984436036,8|10,2:2|2:2,0:0:0:0:
40,353,121132,5,8,1:2:0:0:
90,345,121213,1,8,2:2:0:0:
140,337,121295,1,10,2:2:0:0:
190,328,121377,1,8,2:2:0:0:
241,320,121459,1,6,1:2:0:0:
256,192,121541,12,2,122606,2:2:0:0:
256,192,122770,12,0,124082,0:0:0:0:
