osu file format v14

[General]
AudioFilename: audio.mp3
AudioLeadIn: 0
PreviewTime: 85864
Countdown: 0
SampleSet: Normal
StackLeniency: 0.7
Mode: 1
LetterboxInBreaks: 0
WidescreenStoryboard: 1

[Editor]
Bookmarks: 22706
DistanceSpacing: 1.1
BeatDivisor: 4
GridSize: 32
TimelineZoom: 1.8

[Metadata]
Title:CROSS FATE
TitleUnicode:CROSS†FATE
Artist:HyuN feat. Ms. Valentine
ArtistUnicode:HyuN feat. Ms. Valentine
Creator:Konpaku Sariel
Version:Oni
Source:osu!
Tags:featured artist FA Electronic Korean
BeatmapID:2189874
BeatmapSetID:1047632

[Difficulty]
HPDrainRate:5
CircleSize:5
OverallDifficulty:5.5
ApproachRate:5
SliderMultiplier:1.4
SliderTickRate:1

[Events]
//Background and Video events
0,0,"602136.jpg",0,60
//Break Periods
//Storyboard Layer 0 (Background)
//Storyboard Layer 1 (Fail)
//Storyboard Layer 2 (Pass)
//Storyboard Layer 3 (Foreground)
//Storyboard Layer 4 (Overlay)
//Storyboard Sound Samples

[TimingPoints]
22706,315.789473684211,4,1,0,100,1,0
27680,-100,4,1,0,100,0,0
30206,-100,4,1,0,100,0,0
30838,-95.2380952380952,4,1,0,100,0,0
31153,-90.9090909090909,4,1,0,100,0,0
31509,-83.3333333333333,4,1,0,100,0,0
33088,-86.9565217391304,4,1,0,100,0,0
33403,-90.0900900900901,4,1,0,100,0,0
33719,-94.3396226415094,4,1,0,100,0,0
33877,-96.1538461538461,4,1,0,100,0,0
34035,-98.0392156862745,4,1,0,100,0,0
34351,-101.010101010101,4,1,0,100,0,0
34667,-105.263157894737,4,1,0,100,0,0
34982,-109.89010989011,4,1,0,100,0,0
35140,-111.111111111111,4,1,0,100,0,0
35298,-83.3333333333333,4,1,0,100,0,0
35614,-86.9565217391304,4,1,0,100,0,0
35929,-90.0900900900901,4,1,0,100,0,0
36245,-94.3396226415094,4,1,0,100,0,0
36403,-96.1538461538461,4,1,0,100,0,0
36561,-98.0392156862745,4,1,0,100,0,0
36877,-101.010101010101,4,1,0,100,0,0
37193,-105.263157894737,4,1,0,100,0,0
37350,-100,4,1,0,100,0,0
37508,-95.2380952380952,4,1,0,100,0,0
37666,-89.2857142857143,4,1,0,100,0,0
37824,-83.3333333333333,4,1,0,100,0,0
38140,-86.9565217391304,4,1,0,100,0,0
38455,-90.0900900900901,4,1,0,100,0,0
38771,-94.3396226415094,4,1,0,100,0,0
38930,-96.1538461538461,4,1,0,100,0,0
39087,-98.0392156862745,4,1,0,100,0,0
39403,-101.010101010101,4,1,0,100,0,0
39719,-105.263157894737,4,1,0,100,0,0
40034,-109.89010989011,4,1,0,100,0,0
40192,-111.111111111111,4,1,0,100,0,0
40351,-83.3333333333333,4,1,0,100,0,0
40667,-93.4579439252336,4,1,0,100,0,0
40824,-90.9090909090909,4,1,0,100,0,0
40982,-86.9565217391304,4,1,0,100,0,0
41298,-96.1538461538461,4,1,0,100,0,0
41456,-94.3396226415094,4,1,0,100,0,0
41614,-90.9090909090909,4,1,0,100,0,0
42996,-100,4,1,0,60,0,0
45403,-100,4,1,0,100,0,0
45443,315.789473684211,4,1,0,100,1,0
45521,-125,4,1,0,60,0,0
54206,-125,4,1,0,70,0,0
55469,-125,4,1,0,100,0,0
55627,-125,4,1,0,80,0,0
65574,-100,4,1,0,100,0,0
80732,-105.263157894737,4,1,0,100,0,0
82627,-106.382978723404,4,1,0,100,0,0
82785,-107.52688172043,4,1,0,100,0,0
82943,-108.695652173913,4,1,0,100,0,0
83100,-109.89010989011,4,1,0,100,0,0
83258,-111.111111111111,4,1,0,100,0,0
85153,-107.52688172043,4,1,0,100,0,0
85469,-104.166666666667,4,1,0,100,0,0
85864,-100,4,1,0,100,0,1
106074,-90.9090909090909,4,1,0,100,0,0

[HitObjects]
256,192,22706,5,4,0:0:0:0:
256,192,23021,1,0,0:0:0:0:
256,192,23337,1,0,0:0:0:0:
256,192,23495,1,8,0:0:0:0:
256,192,23574,1,8,0:0:0:0:
256,192,23653,1,0,0:0:0:0:
256,192,23811,1,0,0:0:0:0:
256,192,23969,1,0,0:0:0:0:
256,192,24284,1,0,0:0:0:0:
256,192,24600,1,0,0:0:0:0:
256,192,24679,1,8,0:0:0:0:
256,192,24758,1,8,0:0:0:0:
256,192,24916,1,0,0:0:0:0:
256,192,25074,1,8,0:0:0:0:
256,192,25232,1,0,0:0:0:0:
256,192,25548,1,0,0:0:0:0:
256,192,25863,1,8,0:0:0:0:
256,192,26179,1,8,0:0:0:0:
256,192,26495,1,0,0:0:0:0:
256,192,26653,1,0,0:0:0:0:
256,192,26811,1,8,0:0:0:0:
256,192,26969,1,8,0:0:0:0:
256,192,27127,1,0,0:0:0:0:
256,192,27206,1,0,0:0:0:0:
256,192,27284,1,0,0:0:0:0:
256,192,27442,1,8,0:0:0:0:
256,192,27521,1,8,0:0:0:0:
256,192,27600,1,8,0:0:0:0:
256,192,27758,5,4,0:0:0:0:
256,192,28390,1,12,0:0:0:0:
256,192,28706,1,12,0:0:0:0:
256,192,29021,1,4,0:0:0:0:
256,192,29495,1,0,0:0:0:0:
256,192,29653,1,12,0:0:0:0:
256,192,29969,1,4,0:0:0:0:
256,192,30284,1,12,0:0:0:0:
256,192,30600,1,0,0:0:0:0:
256,192,30916,1,12,0:0:0:0:
256,192,31232,1,12,0:0:0:0:
256,192,31548,1,12,0:0:0:0:
256,192,31706,1,0,0:0:0:0:
256,192,31863,1,12,0:0:0:0:
256,192,32021,1,0,0:0:0:0:
256,192,32179,1,8,0:0:0:0:
256,192,32258,1,8,0:0:0:0:
256,192,32337,1,8,0:0:0:0:
256,192,32495,1,8,0:0:0:0:
256,192,32574,1,8,0:0:0:0:
256,192,32653,1,8,0:0:0:0:
256,192,32811,1,12,0:0:0:0:
256,192,33127,1,0,0:0:0:0:
256,192,33442,1,0,0:0:0:0:
256,192,33758,1,0,0:0:0:0:
256,192,33916,1,0,0:0:0:0:
256,192,34074,1,0,0:0:0:0:
256,192,34390,1,0,0:0:0:0:
256,192,34706,1,0,0:0:0:0:
256,192,35021,1,0,0:0:0:0:
256,192,35179,1,0,0:0:0:0:
256,192,35337,1,8,0:0:0:0:
256,192,35653,1,0,0:0:0:0:
256,192,35969,1,0,0:0:0:0:
256,192,36284,1,0,0:0:0:0:
256,192,36442,1,0,0:0:0:0:
256,192,36600,1,0,0:0:0:0:
256,192,36916,1,0,0:0:0:0:
256,192,37232,1,0,0:0:0:0:
256,192,37390,1,0,0:0:0:0:
256,192,37548,1,0,0:0:0:0:
256,192,37706,1,0,0:0:0:0:
256,192,37863,1,12,0:0:0:0:
256,192,38179,1,0,0:0:0:0:
256,192,38495,1,0,0:0:0:0:
256,192,38811,1,0,0:0:0:0:
256,192,38969,1,0,0:0:0:0:
256,192,39127,1,0,0:0:0:0:
256,192,39442,1,0,0:0:0:0:
256,192,39758,1,0,0:0:0:0:
256,192,40074,1,0,0:0:0:0:
256,192,40232,1,0,0:0:0:0:
256,192,40390,1,12,0:0:0:0:
256,192,40706,1,0,0:0:0:0:
256,192,40863,1,0,0:0:0:0:
256,192,41021,1,12,0:0:0:0:
256,192,41337,1,0,0:0:0:0:
256,192,41495,1,0,0:0:0:0:
256,192,41653,1,12,0:0:0:0:
256,192,41811,1,0,0:0:0:0:
256,192,41969,1,12,0:0:0:0:
256,192,42127,1,0,0:0:0:0:
256,192,42284,1,8,0:0:0:0:
256,192,42363,1,8,0:0:0:0:
256,192,42442,1,8,0:0:0:0:
256,192,42600,1,8,0:0:0:0:
256,192,42679,1,8,0:0:0:0:
256,192,42758,1,8,0:0:0:0:
256,192,42916,1,12,0:0:0:0:
256,192,43232,1,0,0:0:0:0:
256,192,43548,1,0,0:0:0:0:
256,192,43863,1,0,0:0:0:0:
256,192,44179,1,0,0:0:0:0:
256,192,44337,1,0,0:0:0:0:
256,192,44495,1,0,0:0:0:0:
256,192,44653,1,0,0:0:0:0:
256,192,44811,1,0,0:0:0:0:
256,192,44890,1,0,0:0:0:0:
256,192,44969,1,0,0:0:0:0:
256,192,45048,1,0,0:0:0:0:
256,192,45127,1,0,0:0:0:0:
256,192,45206,1,0,0:0:0:0:
256,192,45284,1,0,0:0:0:0:
256,192,45442,1,12,0:0:0:0:
256,192,46074,1,8,0:0:0:0:
256,192,46706,1,8,0:0:0:0:
256,192,47337,1,8,0:0:0:0:
256,192,47653,1,8,0:0:0:0:
256,192,47969,1,8,0:0:0:0:
256,192,48600,1,8,0:0:0:0:
256,192,49232,1,8,0:0:0:0:
256,192,49864,1,8,0:0:0:0:
256,192,50179,1,8,0:0:0:0:
256,192,50495,1,8,0:0:0:0:
256,192,50811,1,0,0:0:0:0:
256,192,50969,1,0,0:0:0:0:
256,192,51127,1,8,0:0:0:0:
256,192,51600,1,0,0:0:0:0:
256,192,51758,1,8,0:0:0:0:
256,192,52074,1,0,0:0:0:0:
256,192,52232,1,0,0:0:0:0:
256,192,52390,1,8,0:0:0:0:
256,192,52864,1,0,0:0:0:0:
256,192,53021,1,8,0:0:0:0:
256,192,53337,1,0,0:0:0:0:
256,192,53495,1,0,0:0:0:0:
256,192,53653,1,8,0:0:0:0:
256,192,53969,1,0,0:0:0:0:
256,192,54127,1,0,0:0:0:0:
256,192,54285,1,8,0:0:0:0:
256,192,54600,1,8,0:0:0:0:
256,192,54916,1,0,0:0:0:0:
256,192,55232,1,0,0:0:0:0:
256,192,55548,1,12,0:0:0:0:
256,192,56179,1,8,0:0:0:0:
256,192,56811,1,8,0:0:0:0:
256,192,57443,1,8,0:0:0:0:
256,192,57758,1,8,0:0:0:0:
256,192,58074,1,8,0:0:0:0:
256,192,58706,1,8,0:0:0:0:
256,192,59337,1,8,0:0:0:0:
256,192,59969,1,8,0:0:0:0:
256,192,60285,1,8,0:0:0:0:
256,192,60600,1,8,0:0:0:0:
256,192,60916,1,0,0:0:0:0:
256,192,61074,1,0,0:0:0:0:
256,192,61232,1,8,0:0:0:0:
256,192,61706,1,0,0:0:0:0:
256,192,61864,1,8,0:0:0:0:
256,192,62179,1,0,0:0:0:0:
256,192,62337,1,0,0:0:0:0:
256,192,62495,1,8,0:0:0:0:
256,192,62969,1,0,0:0:0:0:
256,192,63127,1,8,0:0:0:0:
256,192,63443,1,0,0:0:0:0:
256,192,63600,1,0,0:0:0:0:
256,192,63758,1,8,0:0:0:0:
256,192,64074,1,0,0:0:0:0:
256,192,64390,1,8,0:0:0:0:
256,192,64548,12,8,65337,0:0:0:0:
256,192,65653,5,4,0:0:0:0:
256,192,65969,1,8,0:0:0:0:
256,192,66127,1,8,0:0:0:0:
256,192,66285,1,0,0:0:0:0:
256,192,66443,1,0,0:0:0:0:
256,192,66521,1,0,0:0:0:0:
256,192,66600,1,8,0:0:0:0:
256,192,66758,1,0,0:0:0:0:
256,192,66916,1,8,0:0:0:0:
256,192,67074,1,0,0:0:0:0:
256,192,67232,1,8,0:0:0:0:
256,192,67548,1,0,0:0:0:0:
256,192,67706,1,0,0:0:0:0:
256,192,67864,1,8,0:0:0:0:
256,192,68179,1,0,0:0:0:0:
256,192,68495,1,8,0:0:0:0:
256,192,68653,1,8,0:0:0:0:
256,192,68811,1,0,0:0:0:0:
256,192,68969,1,0,0:0:0:0:
256,192,69048,1,0,0:0:0:0:
256,192,69127,1,8,0:0:0:0:
256,192,69285,1,0,0:0:0:0:
256,192,69443,1,8,0:0:0:0:
256,192,69600,1,0,0:0:0:0:
256,192,69758,1,8,0:0:0:0:
256,192,70074,1,0,0:0:0:0:
256,192,70232,1,8,0:0:0:0:
256,192,70390,1,8,0:0:0:0:
256,192,70706,1,4,0:0:0:0:
256,192,71021,1,8,0:0:0:0:
256,192,71179,1,8,0:0:0:0:
256,192,71337,1,0,0:0:0:0:
256,192,71495,1,0,0:0:0:0:
256,192,71574,1,0,0:0:0:0:
256,192,71653,1,8,0:0:0:0:
256,192,71969,1,8,0:0:0:0:
256,192,72127,1,0,0:0:0:0:
256,192,72285,1,8,0:0:0:0:
256,192,72600,1,0,0:0:0:0:
256,192,72758,1,0,0:0:0:0:
256,192,72916,1,8,0:0:0:0:
256,192,73232,1,0,0:0:0:0:
256,192,73548,1,8,0:0:0:0:
256,192,73706,1,8,0:0:0:0:
256,192,73864,1,0,0:0:0:0:
256,192,74021,1,0,0:0:0:0:
256,192,74100,1,0,0:0:0:0:
256,192,74179,1,8,0:0:0:0:
256,192,74495,1,8,0:0:0:0:
256,192,74653,1,0,0:0:0:0:
256,192,74811,1,8,0:0:0:0:
256,192,74969,1,0,0:0:0:0:
256,192,75127,1,8,0:0:0:0:
256,192,75206,1,8,0:0:0:0:
256,192,75285,1,8,0:0:0:0:
256,192,75443,1,8,0:0:0:0:
256,192,75521,1,8,0:0:0:0:
256,192,75600,1,8,0:0:0:0:
256,192,75758,1,4,0:0:0:0:
256,192,76074,1,8,0:0:0:0:
256,192,76232,1,8,0:0:0:0:
256,192,76390,1,0,0:0:0:0:
256,192,76548,1,8,0:0:0:0:
256,192,76627,1,8,0:0:0:0:
256,192,76706,1,0,0:0:0:0:
256,192,76864,1,8,0:0:0:0:
256,192,77021,1,8,0:0:0:0:
256,192,77179,1,0,0:0:0:0:
256,192,77258,1,0,0:0:0:0:
256,192,77337,1,8,0:0:0:0:
256,192,77495,1,8,0:0:0:0:
256,192,77653,1,0,0:0:0:0:
256,192,77811,1,0,0:0:0:0:
256,192,77969,1,8,0:0:0:0:
256,192,78285,1,0,0:0:0:0:
256,192,78600,1,8,0:0:0:0:
256,192,78758,1,8,0:0:0:0:
256,192,78916,1,0,0:0:0:0:
256,192,79074,1,0,0:0:0:0:
256,192,79153,1,0,0:0:0:0:
256,192,79232,1,8,0:0:0:0:
256,192,79390,1,0,0:0:0:0:
256,192,79548,1,8,0:0:0:0:
256,192,79706,1,0,0:0:0:0:
256,192,79864,1,8,0:0:0:0:
256,192,80021,1,0,0:0:0:0:
256,192,80179,1,8,0:0:0:0:
256,192,80258,1,8,0:0:0:0:
256,192,80337,1,8,0:0:0:0:
256,192,80495,1,8,0:0:0:0:
256,192,80811,1,4,0:0:0:0:
256,192,81127,1,8,0:0:0:0:
256,192,81285,1,8,0:0:0:0:
256,192,81443,1,0,0:0:0:0:
256,192,81758,1,8,0:0:0:0:
256,192,81916,1,8,0:0:0:0:
256,192,82074,1,0,0:0:0:0:
256,192,82390,1,8,0:0:0:0:
256,192,82706,1,0,0:0:0:0:
256,192,82864,1,0,0:0:0:0:
256,192,83021,1,8,0:0:0:0:
256,192,83179,1,8,0:0:0:0:
256,192,83337,1,0,0:0:0:0:
256,192,83653,1,8,0:0:0:0:
256,192,83811,1,8,0:0:0:0:
256,192,83969,1,0,0:0:0:0:
256,192,84285,1,8,0:0:0:0:
256,192,84600,1,8,0:0:0:0:
256,192,84758,1,0,0:0:0:0:
256,192,84916,1,8,0:0:0:0:
256,192,85074,1,0,0:0:0:0:
256,192,85232,1,8,0:0:0:0:
256,192,85311,1,8,0:0:0:0:
256,192,85390,1,8,0:0:0:0:
256,192,85548,1,8,0:0:0:0:
256,192,85627,1,8,0:0:0:0:
256,192,85706,1,8,0:0:0:0:
256,192,85864,1,4,0:0:0:0:
256,192,86179,1,0,0:0:0:0:
256,192,86337,1,8,0:0:0:0:
256,192,86495,1,0,0:0:0:0:
256,192,86574,1,0,0:0:0:0:
256,192,86653,1,8,0:0:0:0:
256,192,86811,1,0,0:0:0:0:
256,192,86969,1,8,0:0:0:0:
256,192,87127,1,0,0:0:0:0:
256,192,87443,1,0,0:0:0:0:
256,192,87600,1,8,0:0:0:0:
256,192,87758,1,0,0:0:0:0:
256,192,87837,1,0,0:0:0:0:
256,192,87916,1,8,0:0:0:0:
256,192,88074,1,0,0:0:0:0:
256,192,88232,1,8,0:0:0:0:
256,192,88311,1,8,0:0:0:0:
256,192,88390,1,0,0:0:0:0:
256,192,88706,1,0,0:0:0:0:
256,192,88864,1,8,0:0:0:0:
256,192,89021,1,0,0:0:0:0:
256,192,89100,1,0,0:0:0:0:
256,192,89179,1,8,0:0:0:0:
256,192,89337,1,0,0:0:0:0:
256,192,89495,1,8,0:0:0:0:
256,192,89653,1,0,0:0:0:0:
256,192,89969,1,0,0:0:0:0:
256,192,90127,1,8,0:0:0:0:
256,192,90285,1,0,0:0:0:0:
256,192,90364,1,0,0:0:0:0:
256,192,90443,1,0,0:0:0:0:
256,192,90600,1,8,0:0:0:0:
256,192,90916,1,4,0:0:0:0:
256,192,91232,1,0,0:0:0:0:
256,192,91390,1,8,0:0:0:0:
256,192,91548,1,0,0:0:0:0:
256,192,91627,1,0,0:0:0:0:
256,192,91706,1,0,0:0:0:0:
256,192,91864,1,8,0:0:0:0:
256,192,92021,1,0,0:0:0:0:
256,192,92179,1,0,0:0:0:0:
256,192,92495,1,8,0:0:0:0:
256,192,92653,1,0,0:0:0:0:
256,192,92811,1,8,0:0:0:0:
256,192,92890,1,8,0:0:0:0:
256,192,92969,1,0,0:0:0:0:
256,192,93127,1,8,0:0:0:0:
256,192,93285,1,0,0:0:0:0:
256,192,93443,1,12,0:0:0:0:
256,192,93758,1,0,0:0:0:0:
256,192,94074,1,12,0:0:0:0:
256,192,94390,1,0,0:0:0:0:
256,192,94548,1,0,0:0:0:0:
256,192,94706,1,12,0:0:0:0:
256,192,94864,1,0,0:0:0:0:
256,192,95021,1,12,0:0:0:0:
256,192,95179,1,0,0:0:0:0:
256,192,95337,1,8,0:0:0:0:
256,192,95416,1,8,0:0:0:0:
256,192,95495,1,8,0:0:0:0:
256,192,95653,1,8,0:0:0:0:
256,192,95732,1,8,0:0:0:0:
256,192,95811,1,8,0:0:0:0:
256,192,95969,1,4,0:0:0:0:
256,192,96285,1,0,0:0:0:0:
256,192,96443,1,8,0:0:0:0:
256,192,96521,1,8,0:0:0:0:
256,192,96600,1,0,0:0:0:0:
256,192,96758,1,8,0:0:0:0:
256,192,96916,1,0,0:0:0:0:
256,192,97074,1,8,0:0:0:0:
256,192,97232,1,0,0:0:0:0:
256,192,97548,1,0,0:0:0:0:
256,192,97706,1,8,0:0:0:0:
256,192,97785,1,8,0:0:0:0:
256,192,97864,1,0,0:0:0:0:
256,192,98021,1,8,0:0:0:0:
256,192,98179,1,0,0:0:0:0:
256,192,98258,1,0,0:0:0:0:
256,192,98337,1,8,0:0:0:0:
256,192,98495,1,0,0:0:0:0:
256,192,98811,1,0,0:0:0:0:
256,192,98969,1,8,0:0:0:0:
256,192,99048,1,8,0:0:0:0:
256,192,99127,1,0,0:0:0:0:
256,192,99285,1,8,0:0:0:0:
256,192,99443,1,0,0:0:0:0:
256,192,99600,1,8,0:0:0:0:
256,192,99758,1,0,0:0:0:0:
256,192,100074,1,8,0:0:0:0:
256,192,100153,1,8,0:0:0:0:
256,192,100232,1,8,0:0:0:0:
256,192,100390,1,0,0:0:0:0:
256,192,100548,1,0,0:0:0:0:
256,192,100706,1,8,0:0:0:0:
256,192,101021,1,4,0:0:0:0:
256,192,101337,1,0,0:0:0:0:
256,192,101495,1,8,0:0:0:0:
256,192,101574,1,8,0:0:0:0:
256,192,101653,1,0,0:0:0:0:
256,192,101811,1,8,0:0:0:0:
256,192,101969,1,0,0:0:0:0:
256,192,102048,1,0,0:0:0:0:
256,192,102127,1,8,0:0:0:0:
256,192,102285,1,0,0:0:0:0:
256,192,102600,1,8,0:0:0:0:
256,192,102758,1,0,0:0:0:0:
256,192,102916,1,8,0:0:0:0:
256,192,102995,1,8,0:0:0:0:
256,192,103074,1,0,0:0:0:0:
256,192,103232,1,8,0:0:0:0:
256,192,103390,1,0,0:0:0:0:
256,192,103548,1,12,0:0:0:0:
256,192,103864,1,0,0:0:0:0:
256,192,104021,1,0,0:0:0:0:
256,192,104179,1,12,0:0:0:0:
256,192,104495,1,0,0:0:0:0:
256,192,104653,1,0,0:0:0:0:
256,192,104811,1,12,0:0:0:0:
256,192,104969,1,0,0:0:0:0:
256,192,105127,1,12,0:0:0:0:
256,192,105285,1,0,0:0:0:0:
256,192,105443,1,8,0:0:0:0:
256,192,105521,1,8,0:0:0:0:
256,192,105600,1,8,0:0:0:0:
256,192,105758,1,8,0:0:0:0:
256,192,105837,1,8,0:0:0:0:
256,192,105916,1,8,0:0:0:0:
256,192,106074,1,12,0:0:0:0:
256,192,106706,1,12,0:0:0:0:
256,192,107179,1,4,0:0:0:0:
256,192,107337,1,12,0:0:0:0:
256,192,107811,1,4,0:0:0:0:
256,192,107969,1,12,0:0:0:0:
256,192,108285,1,12,0:0:0:0:
256,192,108600,1,12,0:0:0:0:
256,192,109074,1,4,0:0:0:0:
256,192,109232,1,12,0:0:0:0:
256,192,109548,1,12,0:0:0:0:
256,192,109706,1,4,0:0:0:0:
256,192,109864,1,12,0:0:0:0:
256,192,110179,1,12,0:0:0:0:
256,192,110495,1,12,0:0:0:0:
256,192,110811,1,12,0:0:0:0:
256,192,111127,1,12,0:0:0:0:
256,192,111443,1,0,0:0:0:0:
256,192,111758,1,12,0:0:0:0:
256,192,112074,1,0,0:0:0:0:
256,192,112390,1,12,0:0:0:0:
256,192,112706,1,0,0:0:0:0:
256,192,112785,1,0,0:0:0:0:
256,192,112864,1,0,0:0:0:0:
256,192,113021,1,12,0:0:0:0:
256,192,113337,1,4,0:0:0:0:
256,192,113653,1,12,0:0:0:0:
256,192,113969,1,12,0:0:0:0:
256,192,114285,1,12,0:0:0:0:
256,192,114600,1,12,0:0:0:0:
256,192,114916,1,12,0:0:0:0:
256,192,115074,1,0,0:0:0:0:
256,192,115232,1,12,0:0:0:0:
256,192,115390,1,0,0:0:0:0:
256,192,115548,1,8,0:0:0:0:
256,192,115627,1,8,0:0:0:0:
256,192,115706,1,8,0:0:0:0:
256,192,115864,1,8,0:0:0:0:
256,192,115943,1,8,0:0:0:0:
256,192,116021,1,8,0:0:0:0:
256,192,116179,1,4,0:0:0:0:
