osu file format v14

[General]
AudioFilename: audio.mp3
AudioLeadIn: 0
PreviewTime: 85864
Countdown: 0
SampleSet: Normal
StackLeniency: 0.7
Mode: 1
LetterboxInBreaks: 0
WidescreenStoryboard: 1

[Editor]
Bookmarks: 22706
DistanceSpacing: 1.1
BeatDivisor: 12
GridSize: 32
TimelineZoom: 1.8

[Metadata]
Title:CROSS FATE
TitleUnicode:CROSS†FATE
Artist:HyuN feat. Ms. Valentine
ArtistUnicode:HyuN feat. Ms. Valentine
Creator:Konpaku Sariel
Version:Futsuu
Source:osu!
Tags:featured artist FA Electronic Korean
BeatmapID:2189871
BeatmapSetID:1047632

[Difficulty]
HPDrainRate:7
CircleSize:5
OverallDifficulty:4
ApproachRate:5
SliderMultiplier:1.4
SliderTickRate:1

[Events]
//Background and Video events
0,0,"602136.jpg",0,60
//Break Periods
//Storyboard Layer 0 (Background)
//Storyboard Layer 1 (Fail)
//Storyboard Layer 2 (Pass)
//Storyboard Layer 3 (Foreground)
//Storyboard Layer 4 (Overlay)
//Storyboard Sound Samples

[TimingPoints]
22706,315.789473684211,4,1,0,100,1,0
27680,-100,4,1,0,100,0,0
42996,-100,4,1,0,60,0,0
45403,-100,4,1,0,100,0,0
45443,315.789473684211,4,1,0,100,1,0
45521,-100,4,1,0,60,0,0
54206,-100,4,1,0,70,0,0
55469,-100,4,1,0,100,0,0
55627,-100,4,1,0,80,0,0
65574,-100,4,1,0,100,0,0
85864,-100,4,1,0,100,0,1
106074,-100,4,1,0,100,0,0

[HitObjects]
256,192,22706,5,4,0:0:0:0:
256,192,23337,1,0,0:0:0:0:
256,192,23653,1,0,0:0:0:0:
256,192,23811,1,0,0:0:0:0:
256,192,23969,1,0,0:0:0:0:
256,192,24600,1,8,0:0:0:0:
256,192,24916,1,8,0:0:0:0:
256,192,25232,1,0,0:0:0:0:
256,192,25863,1,0,0:0:0:0:
256,192,26179,1,0,0:0:0:0:
256,192,26495,1,8,0:0:0:0:
256,192,26969,1,8,0:0:0:0:
256,192,27127,1,8,0:0:0:0:
256,192,27758,5,4,0:0:0:0:
256,192,28390,1,12,0:0:0:0:
256,192,28706,1,12,0:0:0:0:
256,192,29021,1,4,0:0:0:0:
256,192,29653,1,12,0:0:0:0:
256,192,29969,1,4,0:0:0:0:
256,192,30284,1,12,0:0:0:0:
256,192,30916,1,12,0:0:0:0:
256,192,31232,1,12,0:0:0:0:
256,192,31548,1,12,0:0:0:0:
256,192,31863,1,12,0:0:0:0:
256,192,32179,1,8,0:0:0:0:
256,192,32337,1,8,0:0:0:0:
256,192,32495,1,8,0:0:0:0:
256,192,32811,1,12,0:0:0:0:
256,192,33442,1,0,0:0:0:0:
256,192,34074,1,0,0:0:0:0:
256,192,34706,1,0,0:0:0:0:
256,192,35021,1,0,0:0:0:0:
256,192,35337,1,8,0:0:0:0:
256,192,35969,1,0,0:0:0:0:
256,192,36600,1,0,0:0:0:0:
256,192,36916,1,0,0:0:0:0:
256,192,37232,1,0,0:0:0:0:
256,192,37548,1,0,0:0:0:0:
256,192,37863,1,12,0:0:0:0:
256,192,38495,1,0,0:0:0:0:
256,192,39127,1,0,0:0:0:0:
256,192,39758,1,0,0:0:0:0:
256,192,40074,1,0,0:0:0:0:
256,192,40390,1,12,0:0:0:0:
256,192,41021,1,12,0:0:0:0:
256,192,41653,1,12,0:0:0:0:
256,192,41969,1,12,0:0:0:0:
256,192,42284,1,8,0:0:0:0:
256,192,42442,1,8,0:0:0:0:
256,192,42600,1,8,0:0:0:0:
256,192,42916,1,12,0:0:0:0:
256,192,43548,1,0,0:0:0:0:
256,192,44179,1,0,0:0:0:0:
256,192,44495,1,0,0:0:0:0:
256,192,44811,1,0,0:0:0:0:
256,192,44969,1,0,0:0:0:0:
256,192,45127,1,0,0:0:0:0:
256,192,45442,1,12,0:0:0:0:
256,192,46074,1,8,0:0:0:0:
256,192,46706,1,8,0:0:0:0:
256,192,47337,1,8,0:0:0:0:
256,192,47653,1,8,0:0:0:0:
256,192,47969,1,8,0:0:0:0:
256,192,48600,1,8,0:0:0:0:
256,192,49232,1,8,0:0:0:0:
256,192,49864,1,8,0:0:0:0:
256,192,50179,1,8,0:0:0:0:
256,192,50495,1,8,0:0:0:0:
256,192,50811,1,0,0:0:0:0:
256,192,51127,1,8,0:0:0:0:
256,192,51758,1,8,0:0:0:0:
256,192,52074,1,0,0:0:0:0:
256,192,52390,1,8,0:0:0:0:
256,192,53021,1,8,0:0:0:0:
256,192,53337,1,0,0:0:0:0:
256,192,53653,1,8,0:0:0:0:
256,192,53969,1,0,0:0:0:0:
256,192,54285,1,8,0:0:0:0:
256,192,55548,1,12,0:0:0:0:
256,192,56179,1,8,0:0:0:0:
256,192,56811,1,8,0:0:0:0:
256,192,57443,1,8,0:0:0:0:
256,192,57758,1,8,0:0:0:0:
256,192,58074,1,8,0:0:0:0:
256,192,58706,1,8,0:0:0:0:
256,192,59337,1,8,0:0:0:0:
256,192,59969,1,8,0:0:0:0:
256,192,60285,1,8,0:0:0:0:
256,192,60600,1,8,0:0:0:0:
256,192,60916,1,0,0:0:0:0:
256,192,61232,1,8,0:0:0:0:
256,192,61864,1,8,0:0:0:0:
256,192,62179,1,0,0:0:0:0:
256,192,62495,1,8,0:0:0:0:
256,192,63127,1,8,0:0:0:0:
256,192,63443,1,0,0:0:0:0:
256,192,63758,1,8,0:0:0:0:
256,192,64074,1,0,0:0:0:0:
256,192,64390,12,8,65337,0:0:0:0:
256,192,65653,5,4,0:0:0:0:
256,192,66285,1,8,0:0:0:0:
256,192,66600,1,8,0:0:0:0:
256,192,66916,1,0,0:0:0:0:
256,192,67232,1,8,0:0:0:0:
256,192,67548,1,0,0:0:0:0:
256,192,67864,1,8,0:0:0:0:
256,192,68179,1,0,0:0:0:0:
256,192,68811,1,8,0:0:0:0:
256,192,69127,1,8,0:0:0:0:
256,192,69443,1,0,0:0:0:0:
256,192,69758,1,0,0:0:0:0:
256,192,70074,1,8,0:0:0:0:
256,192,70232,1,8,0:0:0:0:
256,192,70390,1,8,0:0:0:0:
256,192,70706,1,4,0:0:0:0:
256,192,71337,1,8,0:0:0:0:
256,192,71653,1,8,0:0:0:0:
256,192,71969,1,0,0:0:0:0:
256,192,72285,1,8,0:0:0:0:
256,192,72600,1,0,0:0:0:0:
256,192,72916,1,8,0:0:0:0:
256,192,73232,1,0,0:0:0:0:
256,192,73864,1,8,0:0:0:0:
256,192,74495,1,0,0:0:0:0:
256,192,74811,1,0,0:0:0:0:
256,192,75127,1,0,0:0:0:0:
256,192,75285,1,0,0:0:0:0:
256,192,75443,1,0,0:0:0:0:
256,192,75758,1,4,0:0:0:0:
256,192,76074,1,8,0:0:0:0:
256,192,76390,1,0,0:0:0:0:
256,192,76706,1,8,0:0:0:0:
256,192,77021,1,0,0:0:0:0:
256,192,77179,1,0,0:0:0:0:
256,192,77337,1,0,0:0:0:0:
256,192,77653,1,8,0:0:0:0:
256,192,78285,1,0,0:0:0:0:
256,192,78600,1,8,0:0:0:0:
256,192,78916,1,0,0:0:0:0:
256,192,79232,1,8,0:0:0:0:
256,192,79548,1,0,0:0:0:0:
256,192,79864,1,8,0:0:0:0:
256,192,80021,1,8,0:0:0:0:
256,192,80179,1,8,0:0:0:0:
256,192,80811,1,4,0:0:0:0:
256,192,81127,1,8,0:0:0:0:
256,192,81443,1,0,0:0:0:0:
256,192,81758,1,8,0:0:0:0:
256,192,82074,1,0,0:0:0:0:
256,192,82390,1,0,0:0:0:0:
256,192,82706,1,8,0:0:0:0:
256,192,83337,1,0,0:0:0:0:
256,192,83653,1,8,0:0:0:0:
256,192,83969,1,0,0:0:0:0:
256,192,84285,1,8,0:0:0:0:
256,192,84600,1,0,0:0:0:0:
256,192,84758,1,0,0:0:0:0:
256,192,84916,1,0,0:0:0:0:
256,192,85232,1,0,0:0:0:0:
256,192,85390,1,0,0:0:0:0:
256,192,85548,1,0,0:0:0:0:
256,192,85864,1,4,0:0:0:0:
256,192,86337,1,8,0:0:0:0:
256,192,86495,1,8,0:0:0:0:
256,192,86811,1,8,0:0:0:0:
256,192,87127,1,0,0:0:0:0:
256,192,87600,1,8,0:0:0:0:
256,192,87758,1,8,0:0:0:0:
256,192,88232,1,0,0:0:0:0:
256,192,88390,1,0,0:0:0:0:
256,192,88864,1,8,0:0:0:0:
256,192,89021,1,8,0:0:0:0:
256,192,89337,1,8,0:0:0:0:
256,192,89653,1,0,0:0:0:0:
256,192,89969,1,0,0:0:0:0:
256,192,90285,1,8,0:0:0:0:
256,192,90600,1,8,0:0:0:0:
256,192,90916,1,4,0:0:0:0:
256,192,91548,1,8,0:0:0:0:
256,192,91864,1,8,0:0:0:0:
256,192,92179,1,0,0:0:0:0:
256,192,92495,1,0,0:0:0:0:
256,192,92811,1,8,0:0:0:0:
256,192,93127,1,0,0:0:0:0:
256,192,93443,1,12,0:0:0:0:
256,192,94074,1,12,0:0:0:0:
256,192,94706,1,12,0:0:0:0:
256,192,95021,1,12,0:0:0:0:
256,192,95337,1,8,0:0:0:0:
256,192,95495,1,8,0:0:0:0:
256,192,95653,1,8,0:0:0:0:
256,192,95969,1,4,0:0:0:0:
256,192,96443,1,8,0:0:0:0:
256,192,96600,1,8,0:0:0:0:
256,192,96916,1,8,0:0:0:0:
256,192,97232,1,0,0:0:0:0:
256,192,97706,1,8,0:0:0:0:
256,192,97864,1,8,0:0:0:0:
256,192,98337,1,0,0:0:0:0:
256,192,98495,1,0,0:0:0:0:
256,192,98969,1,8,0:0:0:0:
256,192,99127,1,8,0:0:0:0:
256,192,99443,1,8,0:0:0:0:
256,192,99758,1,0,0:0:0:0:
256,192,100074,1,0,0:0:0:0:
256,192,100390,1,8,0:0:0:0:
256,192,100706,1,8,0:0:0:0:
256,192,101021,1,4,0:0:0:0:
256,192,101653,1,8,0:0:0:0:
256,192,101969,1,8,0:0:0:0:
256,192,102285,1,0,0:0:0:0:
256,192,102600,1,0,0:0:0:0:
256,192,102916,1,8,0:0:0:0:
256,192,103232,1,0,0:0:0:0:
256,192,103548,1,12,0:0:0:0:
256,192,104179,1,12,0:0:0:0:
256,192,104811,1,12,0:0:0:0:
256,192,105127,1,12,0:0:0:0:
256,192,105443,1,8,0:0:0:0:
256,192,105600,1,8,0:0:0:0:
256,192,105758,1,8,0:0:0:0:
256,192,106074,1,12,0:0:0:0:
256,192,106706,1,12,0:0:0:0:
256,192,107337,1,12,0:0:0:0:
256,192,107969,1,12,0:0:0:0:
256,192,108285,1,12,0:0:0:0:
256,192,108600,1,12,0:0:0:0:
256,192,109232,1,12,0:0:0:0:
256,192,109864,1,12,0:0:0:0:
256,192,110179,1,12,0:0:0:0:
256,192,110495,1,12,0:0:0:0:
256,192,110811,1,12,0:0:0:0:
256,192,111127,1,12,0:0:0:0:
256,192,111758,1,12,0:0:0:0:
256,192,112390,1,12,0:0:0:0:
256,192,112706,1,0,0:0:0:0:
256,192,113021,1,12,0:0:0:0:
256,192,113337,1,4,0:0:0:0:
256,192,113653,1,12,0:0:0:0:
256,192,113969,1,12,0:0:0:0:
256,192,114285,1,12,0:0:0:0:
256,192,114600,1,12,0:0:0:0:
256,192,114916,1,8,0:0:0:0:
256,192,115074,1,8,0:0:0:0:
256,192,115232,1,8,0:0:0:0:
256,192,115548,1,8,0:0:0:0:
256,192,115706,1,8,0:0:0:0:
256,192,115864,1,8,0:0:0:0:
256,192,116179,1,4,0:0:0:0:
