osu file format v14

[General]
AudioFilename: audio.mp3
AudioLeadIn: 0
PreviewTime: 67743
Countdown: 0
SampleSet: Soft
StackLeniency: 0
Mode: 0
LetterboxInBreaks: 0
WidescreenStoryboard: 0

[Editor]
Bookmarks: 10170,29370,48570,67770,86981,106181,125381,144581
DistanceSpacing: 0.8
BeatDivisor: 4
GridSize: 32
TimelineZoom: 1.3

[Metadata]
Title:Cross Over
TitleUnicode:Cross†Over
Artist:HyuN feat. LyuU
ArtistUnicode:HyuN feat. LyuU
Creator:Sonnyc
Version:Ultra
Source:osu!
Tags:Featured Artist Mappers' Guild Korean Electronic Sunako Grid digital step core PUMP IT UP 2018 PRIME 2 Arcaea
BeatmapID:2639521
BeatmapSetID:1270122

[Difficulty]
HPDrainRate:6
CircleSize:4.3
OverallDifficulty:9.4
ApproachRate:9.5
SliderMultiplier:1.92
SliderTickRate:0.5

[Events]
//Background and Video events
0,0,"bg.jpg",0,0
//Break Periods
//Storyboard Layer 0 (Background)
//Storyboard Layer 1 (Fail)
//Storyboard Layer 2 (Pass)
//Storyboard Layer 3 (Foreground)
//Storyboard Layer 4 (Overlay)
//Storyboard Sound Samples

[TimingPoints]
581,300,4,2,2,90,1,0
9581,-200,4,2,2,90,0,0
10181,-100,4,2,2,90,0,0
13781,-75.187969924812,4,2,2,90,0,0
14981,-100,4,2,2,90,0,0
18581,-75.187969924812,4,2,2,90,0,0
19781,-100,4,2,2,90,0,0
23381,-75.187969924812,4,2,2,90,0,0
24581,-100,4,2,2,90,0,0
30281,-100,4,2,2,50,0,0
38981,-100,4,2,2,70,0,0
47381,-100,4,2,2,80,0,0
48431,-63.6942675159236,4,2,2,90,0,0
67781,-100,4,2,2,90,0,1
84581,-100,4,2,2,90,0,0
90581,-75.187969924812,4,2,2,90,0,0
91781,-100,4,2,2,90,0,0
95381,-75.187969924812,4,2,2,90,0,0
96581,-196.078431372549,4,2,2,90,0,0
97781,-100,4,2,2,90,0,0
100181,-50,4,2,2,90,0,0
101381,-100,4,2,2,90,0,0
102581,-70.4225352112676,4,2,2,90,0,0
106181,-100,4,2,2,70,0,0
122981,-100,4,2,2,90,0,0
124781,-34.4827586206897,4,2,2,90,0,0
125381,-100,4,2,2,100,0,1
142181,-100,4,2,2,100,0,0

[Colours]
Combo1 : 254,137,140
Combo2 : 243,175,241
Combo3 : 98,169,255
Combo4 : 180,237,248
Combo5 : 240,106,237
Combo6 : 247,206,111
Combo7 : 198,198,198
Combo8 : 242,24,57

[HitObjects]
256,0,8981,117,2,0:3:0:0:
256,0,9056,1,2,0:3:0:0:
256,0,9131,1,2,0:3:0:0:
256,0,9206,1,2,0:3:0:0:
256,0,9281,1,2,0:3:0:0:
160,192,9581,70,0,L|64:192,1,96,2|2,1:0|1:0,0:0:0:0:
64,192,9956,1,2,1:0:0:0:
64,192,10031,1,2,1:0:0:0:
64,192,10106,1,2,1:0:0:0:
64,192,10181,38,2,L|256:192,1,192,6|8,1:0|1:0,0:1:0:0:
256,192,10631,1,2,0:0:0:0:
352,192,10781,1,0,1:0:0:0:
352,192,10931,1,2,0:0:0:0:
448,192,11081,1,10,1:0:0:0:
160,96,11381,70,2,L|352:96,1,192,2|8,1:0|1:0,0:1:0:0:
256,192,11831,1,2,0:0:0:0:
352,192,11981,1,0,1:0:0:0:
352,192,12131,1,2,0:0:0:0:
448,192,12281,1,10,1:0:0:0:
160,288,12581,38,2,L|352:288,1,192,2|8,1:0|1:0,0:1:0:0:
256,192,13031,1,2,0:0:0:0:
352,192,13181,1,0,1:0:0:0:
352,192,13331,1,2,0:0:0:0:
448,192,13481,1,10,1:0:0:0:
256,0,13781,102,2,L|256:384,1,383.039984219239,2|2,1:0|0:1,0:1:0:0:
256,384,14306,1,2,0:0:0:0:
256,384,14381,1,2,1:0:0:0:
256,192,14531,1,2,0:0:0:0:
448,192,14681,1,10,1:0:0:0:
64,192,14981,6,2,L|256:192,1,192,2|8,1:0|1:0,0:1:0:0:
256,192,15431,1,2,0:0:0:0:
352,192,15581,1,0,1:0:0:0:
352,192,15731,1,2,0:0:0:0:
448,192,15881,1,10,1:0:0:0:
160,288,16181,70,2,L|352:288,1,192,2|8,1:0|1:0,0:1:0:0:
256,192,16631,1,2,0:0:0:0:
352,192,16781,1,0,1:0:0:0:
352,192,16931,1,2,0:0:0:0:
448,192,17081,1,10,1:0:0:0:
160,96,17381,38,2,L|352:96,1,192,2|8,1:0|1:0,0:1:0:0:
256,192,17831,1,2,0:0:0:0:
352,192,17981,1,0,1:0:0:0:
352,192,18131,1,2,0:0:0:0:
448,192,18281,1,10,1:0:0:0:
256,384,18581,102,2,L|256:0,1,383.039984219239,2|2,1:0|0:1,0:1:0:0:
256,0,19106,1,2,0:0:0:0:
256,0,19181,1,2,1:0:0:0:
256,192,19331,1,2,0:0:0:0:
448,192,19481,1,10,1:0:0:0:
256,384,19781,5,2,0:3:0:0:
256,384,19856,1,2,0:3:0:0:
256,384,19931,1,2,0:3:0:0:
256,384,20006,1,2,0:3:0:0:
256,384,20081,1,2,0:3:0:0:
64,192,20381,1,4,1:0:0:0:
160,192,20531,1,2,0:0:0:0:
64,192,20681,1,10,1:0:0:0:
352,288,20981,70,2,L|160:288,1,192,2|8,1:0|1:0,0:1:0:0:
64,192,21431,1,2,0:0:0:0:
64,192,21506,1,2,0:0:0:0:
64,192,21581,1,0,1:0:0:0:
160,192,21731,1,2,0:0:0:0:
64,192,21881,1,10,1:0:0:0:
352,96,22181,38,2,L|160:96,1,192,2|8,1:0|1:0,0:1:0:0:
64,192,22631,1,2,0:0:0:0:
64,192,22706,1,2,0:0:0:0:
64,192,22781,1,0,1:0:0:0:
160,192,22931,1,2,0:0:0:0:
64,192,23081,1,10,1:0:0:0:
256,384,23381,102,2,L|256:0,1,383.039984219239,2|2,1:0|0:1,0:1:0:0:
256,0,23906,1,2,0:0:0:0:
256,0,23981,1,2,1:0:0:0:
256,192,24131,1,2,0:0:0:0:
64,192,24281,1,10,1:0:0:0:
256,96,24581,6,0,L|160:96,1,96,4|2,1:0|0:0,0:0:0:0:
352,96,24881,2,0,L|256:96,1,96,8|2,1:0|0:0,0:0:0:0:
64,192,25181,1,0,1:0:0:0:
160,192,25331,1,2,0:0:0:0:
64,192,25481,1,10,0:1:0:0:
256,288,25781,70,0,L|160:288,1,96,4|2,1:0|0:0,0:0:0:0:
352,288,26081,2,0,L|256:288,1,96,8|2,1:0|0:0,0:0:0:0:
64,192,26381,1,0,1:0:0:0:
160,192,26531,1,2,0:0:0:0:
64,192,26681,1,10,0:1:0:0:
448,192,26981,101,4,1:0:0:0:
64,192,27581,1,4,1:0:0:0:
352,192,28181,69,4,1:0:0:0:
160,192,28331,1,0,1:0:0:0:
160,192,28406,1,0,1:0:0:0:
160,192,28481,1,4,1:0:0:0:
352,288,28631,1,0,1:0:0:0:
352,288,28706,1,0,1:0:0:0:
352,288,28781,1,4,1:0:0:0:
160,288,28931,1,0,1:0:0:0:
160,288,29006,1,0,1:0:0:0:
160,288,29081,1,4,1:0:0:0:
256,192,29381,69,4,1:0:0:0:
256,192,30581,1,2,0:0:0:0:
256,192,31781,1,2,0:0:0:0:
256,192,34181,1,2,0:0:0:0:
256,192,35381,1,2,0:0:0:0:
256,192,36581,1,2,0:0:0:0:
256,96,38981,85,6,0:1:0:0:
160,288,39431,1,2,0:1:0:0:
352,288,39881,1,2,0:1:0:0:
256,0,40331,1,2,0:1:0:0:
256,288,40631,1,0,0:0:0:0:
256,384,40781,1,2,0:1:0:0:
256,384,41081,1,2,0:1:0:0:
64,192,41381,69,2,0:1:0:0:
256,192,41831,1,2,0:1:0:0:
448,192,42281,1,2,0:1:0:0:
256,192,42731,1,2,0:1:0:0:
64,192,43181,1,2,0:1:0:0:
64,192,43481,1,2,0:1:0:0:
256,96,43781,37,6,0:1:0:0:
352,288,44231,1,2,0:1:0:0:
160,288,44681,1,2,0:1:0:0:
256,0,45131,1,2,0:1:0:0:
256,288,45431,1,0,0:0:0:0:
256,384,45581,1,2,0:1:0:0:
256,384,45881,1,2,0:1:0:0:
448,192,46181,69,6,0:1:0:0:
256,192,46631,1,2,0:1:0:0:
64,192,47081,1,2,0:1:0:0:
256,288,47381,37,0,1:0:0:0:
256,288,47531,1,2,0:1:0:0:
160,96,47981,1,2,1:1:0:0:
256,96,48131,1,0,1:0:0:0:
352,96,48281,1,2,1:0:0:0:
256,0,48431,5,0,1:0:0:0:
256,0,48506,1,0,1:0:0:0:
256,0,48581,2,0,P|200:18|160:96,1,150.720000574951,4|2,1:0|0:0,0:0:0:0:
351,95,48881,2,0,P|323:28|256:0,1,150.720000574951,0|2,1:0|0:0,0:0:0:0:
256,192,49181,2,0,P|312:174|352:96,1,150.720000574951,0|2,1:0|0:0,0:0:0:0:
161,96,49481,2,0,P|189:163|256:191,1,150.720000574951,0|2,1:0|0:0,0:0:0:0:
352,288,49781,2,0,P|334:232|256:192,1,150.720000574951,0|2,1:0|0:0,0:0:0:0:
256,384,50081,2,0,P|323:355|351:288,1,150.720000574951,0|2,1:0|0:0,0:0:0:0:
161,288,50381,2,0,P|179:344|257:384,1,150.720000574951,0|2,1:0|0:0,0:0:0:0:
256,193,50681,2,0,P|188:221|160:288,1,150.720000574951,0|2,1:0|0:0,0:0:0:0:
256,288,50981,101,6,1:0:0:0:
160,96,51281,1,2,1:0:0:0:
352,96,51581,1,2,1:0:0:0:
256,288,51881,1,2,1:0:0:0:
256,288,52031,1,2,0:1:0:0:
256,384,52181,5,6,1:0:0:0:
256,384,52281,5,2,0:0:0:0:
256,384,52381,5,2,0:0:0:0:
256,384,52481,5,2,1:0:0:0:
256,384,52581,5,2,0:0:0:0:
256,384,52681,5,2,0:0:0:0:
256,384,52781,5,2,1:0:0:0:
256,384,52881,5,2,0:0:0:0:
256,384,52981,5,2,0:0:0:0:
256,384,53081,5,2,1:0:0:0:
256,0,53381,102,0,P|312:18|352:96,1,150.720000574951,4|2,1:0|0:0,0:0:0:0:
161,95,53681,2,0,P|189:28|256:0,1,150.720000574951,0|2,1:0|0:0,0:0:0:0:
256,192,53981,2,0,P|200:174|160:96,1,150.720000574951,0|2,1:0|0:0,0:0:0:0:
351,96,54281,2,0,P|323:163|256:191,1,150.720000574951,0|2,1:0|0:0,0:0:0:0:
160,288,54581,2,0,P|178:232|256:192,1,150.720000574951,0|2,1:0|0:0,0:0:0:0:
256,384,54881,2,0,P|189:355|161:288,1,150.720000574951,0|2,1:0|0:0,0:0:0:0:
351,288,55181,2,0,P|333:344|255:384,1,150.720000574951,0|2,1:0|0:0,0:0:0:0:
256,193,55481,2,0,P|324:221|352:288,1,150.720000574951,0|2,1:0|0:0,0:0:0:0:
160,96,55781,53,2,1:0:0:0:
352,96,56081,1,2,1:0:0:0:
256,0,56381,37,6,1:0:0:0:
256,288,56681,1,6,1:0:0:0:
256,0,56981,53,2,1:0:0:0:
256,0,57056,1,0,0:0:0:0:
256,0,57131,1,2,0:0:0:0:
256,0,57206,1,0,0:0:0:0:
256,0,57281,1,2,1:0:0:0:
256,0,57356,1,0,0:0:0:0:
256,0,57431,1,2,0:0:0:0:
256,0,57506,1,0,0:0:0:0:
256,0,57581,1,2,1:0:0:0:
256,0,57656,1,0,0:0:0:0:
256,0,57731,1,2,0:0:0:0:
256,0,57806,1,0,0:0:0:0:
256,0,57881,1,2,1:0:0:0:
256,0,57956,1,0,0:0:0:0:
256,0,58031,1,2,0:0:0:0:
256,0,58106,1,0,0:0:0:0:
256,0,58181,70,0,P|312:18|352:96,1,150.720000574951,4|2,1:0|0:0,0:0:0:0:
448,192,58481,2,0,P|430:248|352:288,1,150.720000574951,0|2,1:0|0:0,0:0:0:0:
256,384,58781,2,0,P|200:366|160:288,1,150.720000574951,0|2,1:0|0:0,0:0:0:0:
64,192,59081,2,0,P|82:136|160:96,1,150.720000574951,0|2,1:0|0:0,0:0:0:0:
352,95,59381,2,0,P|323:28|256:0,1,150.720000574951,0|2,1:0|0:0,0:0:0:0:
159,95,59681,2,0,P|92:124|64:192,1,150.720000574951,0|2,1:0|0:0,0:0:0:0:
160,288,59981,2,0,P|188:355|256:384,1,150.720000574951,0|2,1:0|0:0,0:0:0:0:
352,288,60281,2,0,P|419:259|448:192,1,150.720000574951,0|2,1:0|0:0,0:0:0:0:
256,0,60581,101,6,1:0:0:0:
160,192,60881,1,2,1:0:0:0:
352,192,61181,1,2,1:0:0:0:
256,0,61481,1,2,1:0:0:0:
256,0,61631,1,2,0:1:0:0:
256,96,61781,5,6,1:0:0:0:
256,96,61881,5,2,0:0:0:0:
256,96,61981,5,2,0:0:0:0:
256,96,62081,5,2,1:0:0:0:
256,96,62181,5,2,0:0:0:0:
256,96,62281,5,2,0:0:0:0:
256,96,62381,5,2,1:0:0:0:
256,96,62481,5,2,0:0:0:0:
256,96,62581,5,2,0:0:0:0:
256,96,62681,5,2,1:0:0:0:
256,384,62981,102,0,P|312:366|352:288,1,150.720000574951,4|2,1:0|0:0,0:0:0:0:
448,192,63281,2,0,P|430:136|352:96,1,150.720000574951,0|2,1:0|0:0,0:0:0:0:
256,0,63581,2,0,P|200:18|160:96,1,150.720000574951,0|2,1:0|0:0,0:0:0:0:
64,192,63881,2,0,P|82:248|160:288,1,150.720000574951,0|2,1:0|0:0,0:0:0:0:
448,193,64181,2,0,P|419:125|352:96,1,150.720000574951,4|2,1:0|0:0,0:0:0:0:
256,0,64482,2,0,P|188:28|159:96,1,150.720000574951,0|2,1:0|0:0,0:0:0:0:
63,191,64782,2,0,P|91:259|159:289,1,150.720000574951,0|2,1:0|0:0,0:0:0:0:
254,384,65081,2,0,P|322:356|352:289,1,150.720000574951,0|2,1:0|0:0,0:0:0:0:
64,192,65381,101,4,1:0:0:0:
448,192,65981,1,4,1:0:0:0:
160,192,66581,69,4,1:0:0:0:
352,192,66731,1,0,1:0:0:0:
352,192,66806,1,0,1:0:0:0:
352,192,66881,1,4,1:0:0:0:
160,288,67031,1,0,1:0:0:0:
160,288,67106,1,0,1:0:0:0:
160,288,67181,1,4,1:0:0:0:
352,288,67331,1,0,1:0:0:0:
352,288,67406,1,0,1:0:0:0:
352,288,67481,1,4,1:0:0:0:
160,96,67781,5,6,1:0:0:0:
256,96,67931,1,2,0:0:0:0:
256,0,68081,1,8,1:0:0:0:
352,96,68231,1,2,0:1:0:0:
256,96,68381,1,0,1:0:0:0:
256,192,68531,1,2,0:0:0:0:
256,0,68681,1,10,1:0:0:0:
256,96,68831,1,2,0:0:0:0:
448,192,68981,5,2,1:0:0:0:
352,192,69131,1,2,0:0:0:0:
352,96,69281,1,8,1:0:0:0:
256,192,69431,1,2,0:1:0:0:
352,192,69581,1,0,1:0:0:0:
352,288,69731,1,2,0:0:0:0:
448,192,69881,1,10,1:0:0:0:
352,192,70031,1,2,0:0:0:0:
160,96,70181,101,2,1:0:0:0:
160,192,70331,1,2,0:0:0:0:
64,192,70481,1,8,1:0:0:0:
160,288,70631,1,2,0:1:0:0:
160,192,70781,1,0,1:0:0:0:
256,192,70931,1,2,0:0:0:0:
160,96,71081,1,10,1:0:0:0:
160,192,71231,1,2,0:0:0:0:
352,96,71381,101,2,1:0:0:0:
352,288,71531,1,2,0:3:0:0:
160,288,71681,1,8,1:0:0:0:
160,96,71831,1,2,0:3:0:0:
352,96,71981,1,0,1:0:0:0:
352,288,72131,1,2,0:3:0:0:
160,288,72281,1,8,1:0:0:0:
160,96,72431,1,2,0:3:0:0:
352,288,72581,5,2,1:0:0:0:
256,288,72731,1,2,0:0:0:0:
256,384,72881,1,8,1:0:0:0:
160,288,73031,1,2,0:1:0:0:
256,288,73181,1,0,1:0:0:0:
256,192,73331,1,2,0:0:0:0:
256,384,73481,1,10,1:1:0:0:
256,288,73631,1,2,0:0:0:0:
64,192,73781,5,2,1:0:0:0:
160,192,73931,1,2,0:0:0:0:
160,96,74081,1,8,1:0:0:0:
256,192,74231,1,2,0:1:0:0:
160,192,74381,1,0,1:0:0:0:
160,288,74531,1,2,0:0:0:0:
64,192,74681,1,10,1:1:0:0:
160,192,74831,1,2,0:0:0:0:
352,96,74981,101,2,1:0:0:0:
352,192,75131,1,2,0:0:0:0:
448,192,75281,1,8,1:0:0:0:
352,288,75431,1,2,0:1:0:0:
352,192,75581,1,0,1:0:0:0:
256,192,75731,1,2,0:0:0:0:
352,96,75881,1,10,1:1:0:0:
352,192,76031,1,2,0:0:0:0:
448,192,76181,1,2,1:0:0:0:
352,192,76331,1,2,0:0:0:0:
256,0,76481,21,14,1:0:0:0:
160,288,76631,1,2,0:3:0:0:
256,96,76781,69,6,1:0:0:0:
256,384,76931,1,2,0:3:0:0:
256,0,77081,37,14,1:0:0:0:
352,288,77231,1,2,0:3:0:0:
64,192,77381,85,6,1:0:0:0:
160,192,77531,1,2,0:0:0:0:
256,192,77681,1,8,1:0:0:0:
160,96,77831,1,2,0:1:0:0:
160,192,77981,1,0,1:0:0:0:
160,288,78131,1,2,0:0:0:0:
64,192,78281,1,10,1:0:0:0:
160,192,78431,1,2,0:0:0:0:
256,0,78581,5,2,1:0:0:0:
256,96,78731,1,2,0:0:0:0:
256,192,78881,1,8,1:0:0:0:
160,96,79031,1,2,0:1:0:0:
256,96,79181,1,0,1:0:0:0:
352,96,79331,1,2,0:0:0:0:
256,0,79481,1,10,1:0:0:0:
256,96,79631,1,2,0:0:0:0:
448,192,79781,101,2,1:0:0:0:
352,192,79931,1,2,0:0:0:0:
256,192,80081,1,8,1:0:0:0:
352,96,80231,1,2,0:1:0:0:
352,192,80381,1,0,1:0:0:0:
352,288,80531,1,2,0:0:0:0:
448,192,80681,1,10,1:0:0:0:
352,192,80831,1,2,0:0:0:0:
160,288,80981,101,2,1:0:0:0:
352,288,81131,1,2,0:3:0:0:
352,96,81281,1,8,1:0:0:0:
160,96,81431,1,2,0:3:0:0:
160,288,81581,1,0,1:0:0:0:
352,288,81731,1,2,0:3:0:0:
256,192,81881,5,8,1:0:0:0:
256,288,82031,1,2,0:0:0:0:
160,192,82181,1,2,1:0:0:0:
256,192,82331,1,2,0:0:0:0:
352,192,82481,1,8,1:0:0:0:
256,0,82631,1,2,0:1:0:0:
256,96,82781,1,0,1:0:0:0:
256,192,82931,1,2,0:0:0:0:
256,288,83081,1,8,1:0:0:0:
256,384,83231,1,2,0:0:0:0:
352,192,83381,5,2,1:0:0:0:
256,192,83531,1,2,0:0:0:0:
160,192,83681,1,8,1:0:0:0:
256,384,83831,1,2,0:1:0:0:
256,288,83981,1,0,1:0:0:0:
256,192,84131,1,2,0:0:0:0:
256,96,84281,1,8,1:0:0:0:
448,192,84581,5,4,1:0:0:0:
64,192,85181,1,4,1:0:0:0:
352,192,85781,69,4,1:0:0:0:
160,192,85931,1,0,1:0:0:0:
160,192,86006,1,0,1:0:0:0:
160,192,86081,1,4,1:0:0:0:
352,288,86231,1,0,1:0:0:0:
352,288,86306,1,0,1:0:0:0:
352,288,86381,1,4,1:0:0:0:
160,288,86531,1,0,1:0:0:0:
160,288,86606,1,0,1:0:0:0:
160,288,86681,1,4,1:0:0:0:
256,0,86981,53,2,0:1:0:0:
256,0,87056,1,2,0:1:0:0:
256,0,87131,1,2,0:1:0:0:
256,0,87206,1,2,0:1:0:0:
256,0,87281,1,0,1:0:0:0:
256,192,87581,37,4,1:0:0:0:
256,288,87731,1,2,0:0:0:0:
256,384,87881,1,10,1:1:0:0:
160,96,88181,70,2,L|160:288,1,192,2|8,1:0|1:0,0:1:0:0:
256,192,88631,1,2,0:0:0:0:
256,192,88706,1,2,0:0:0:0:
256,192,88781,1,0,1:0:0:0:
256,288,88931,1,2,0:0:0:0:
256,384,89081,1,10,1:0:0:0:
352,96,89381,38,2,L|352:288,1,192,2|8,1:0|1:0,0:1:0:0:
256,192,89831,1,2,0:0:0:0:
256,192,89906,1,2,0:0:0:0:
256,192,89981,1,0,1:0:0:0:
256,288,90131,1,2,0:0:0:0:
256,384,90281,1,10,1:0:0:0:
64,192,90581,102,2,L|448:192,1,383.039984219239,2|2,1:0|0:1,0:1:0:0:
448,192,91106,1,2,0:0:0:0:
448,192,91181,1,2,1:0:0:0:
256,192,91331,1,2,0:0:0:0:
256,384,91481,1,10,1:0:0:0:
256,0,91781,6,2,L|256:192,1,192,2|8,1:0|1:0,0:1:0:0:
256,192,92231,1,2,0:0:0:0:
256,192,92306,1,2,0:0:0:0:
256,192,92381,1,0,1:0:0:0:
256,288,92531,1,2,0:0:0:0:
256,384,92681,1,10,1:0:0:0:
352,96,92981,70,2,L|352:288,1,192,2|8,1:0|1:0,0:1:0:0:
256,192,93431,1,2,0:0:0:0:
256,192,93506,1,2,0:0:0:0:
256,192,93581,1,0,1:0:0:0:
256,288,93731,1,2,0:0:0:0:
256,384,93881,1,10,1:0:0:0:
160,96,94181,38,2,L|160:288,1,192,2|8,1:0|1:0,0:1:0:0:
256,192,94631,1,2,0:0:0:0:
256,192,94706,1,2,0:0:0:0:
256,192,94781,1,0,1:0:0:0:
256,288,94931,1,2,0:0:0:0:
256,384,95081,1,10,1:0:0:0:
448,192,95381,102,2,L|64:192,1,383.039984219239,2|2,1:0|0:1,0:1:0:0:
64,192,95906,1,2,0:0:0:0:
64,192,95981,1,2,1:0:0:0:
256,192,96131,1,2,0:0:0:0:
256,384,96281,1,10,1:0:0:0:
256,0,96581,6,0,B|260:42|260:42|252:56|252:56|256:96,1,97.9200005976563,2|12,1:0|1:0,0:0:0:0:
256,384,97181,1,0,1:0:0:0:
256,288,97331,1,2,0:0:0:0:
256,384,97481,1,10,1:1:0:0:
160,96,97781,69,2,1:0:0:0:
160,192,97931,1,0,1:0:0:0:
160,192,98006,1,0,1:0:0:0:
160,192,98081,1,0,1:0:0:0:
160,288,98231,1,0,1:0:0:0:
256,384,98381,1,0,1:0:0:0:
256,288,98531,1,2,0:0:0:0:
256,384,98681,1,10,1:1:0:0:
352,96,98981,38,2,L|352:288,1,192,6|8,1:0|1:0,0:1:0:0:
256,384,99431,1,2,0:0:0:0:
256,384,99506,1,2,0:0:0:0:
256,384,99581,1,0,1:0:0:0:
256,288,99731,1,2,0:0:0:0:
256,384,99881,1,10,1:0:0:0:
448,192,100181,102,2,L|256:192,1,192,2|0,1:0|1:0,0:1:0:0:
256,192,100406,1,0,1:0:0:0:
256,192,100481,2,2,L|64:192,1,192,2|0,1:0|1:0,0:1:0:0:
64,192,100706,1,0,1:0:0:0:
64,192,100781,1,2,1:0:0:0:
256,192,100931,1,0,1:0:0:0:
256,384,101081,1,14,1:0:0:0:
256,192,101231,1,0,1:0:0:0:
256,0,101381,6,0,L|256:96,1,96,12|0,1:1|1:0,0:0:0:0:
160,96,101681,2,0,L|256:96,1,96,8|0,1:1|1:0,0:0:0:0:
256,192,101981,2,0,L|256:96,1,96,8|0,1:1|1:0,0:0:0:0:
352,96,102281,2,0,L|256:96,1,96,8|0,1:1|1:0,0:0:0:0:
160,288,102581,70,0,L|256:192,1,136.319993135743,12|0,1:0|1:0,0:0:0:0:
160,96,102881,2,0,L|256:192,1,136.319993135743,8|0,1:0|1:0,0:0:0:0:
352,96,103181,2,0,L|256:192,1,136.319993135743,8|0,1:0|1:0,0:0:0:0:
352,288,103481,2,0,L|256:192,1,136.319993135743,8|0,1:0|1:0,0:0:0:0:
64,192,103781,101,4,1:0:0:0:
448,192,104381,1,4,1:0:0:0:
160,192,104981,69,4,1:0:0:0:
352,192,105131,1,0,1:0:0:0:
352,192,105206,1,0,1:0:0:0:
352,192,105281,1,4,1:0:0:0:
160,288,105431,1,0,1:0:0:0:
160,288,105506,1,0,1:0:0:0:
160,288,105581,1,4,1:0:0:0:
352,288,105731,1,0,1:0:0:0:
352,288,105806,1,0,1:0:0:0:
352,288,105881,1,4,1:0:0:0:
256,0,106181,5,6,1:0:0:0:
160,96,106631,1,2,0:0:0:0:
256,192,107081,1,2,0:0:0:0:
256,0,107381,1,2,0:1:0:0:
352,96,107831,1,2,0:0:0:0:
256,192,108281,1,2,0:0:0:0:
256,0,108581,1,2,0:1:0:0:
160,96,109031,1,2,0:0:0:0:
256,192,109481,1,2,0:0:0:0:
256,192,109781,1,2,0:1:0:0:
256,192,110981,5,2,0:1:0:0:
352,288,111431,1,2,0:0:0:0:
256,384,111881,1,2,0:0:0:0:
256,192,112181,1,2,0:1:0:0:
160,288,112631,1,2,0:0:0:0:
256,384,113081,1,2,0:0:0:0:
256,192,113381,1,2,0:1:0:0:
352,288,113831,1,2,0:0:0:0:
256,384,114281,1,2,0:0:0:0:
256,384,114581,1,2,0:1:0:0:
352,96,114881,5,2,0:1:0:0:
256,288,115181,1,2,0:1:0:0:
160,96,115481,1,2,0:1:0:0:
64,192,115781,85,6,0:1:0:0:
256,192,116231,1,2,0:0:0:0:
64,192,116681,1,2,0:0:0:0:
160,96,116981,1,2,0:1:0:0:
160,288,117431,1,2,0:0:0:0:
160,96,117881,1,2,0:0:0:0:
64,192,118181,1,2,0:1:0:0:
256,192,118631,1,2,0:0:0:0:
64,192,119081,1,2,0:0:0:0:
64,192,119381,1,2,0:1:0:0:
256,0,120281,5,2,0:0:0:0:
256,0,120581,1,2,0:1:0:0:
256,192,121031,1,2,0:0:0:0:
256,96,121481,1,2,0:0:0:0:
256,96,121781,1,2,0:1:0:0:
256,288,122231,1,2,0:0:0:0:
256,192,122681,1,2,0:0:0:0:
448,192,122981,5,4,1:0:0:0:
64,192,123581,1,4,1:0:0:0:
352,192,124181,69,4,1:0:0:0:
160,192,124331,1,0,1:0:0:0:
160,192,124406,1,0,1:0:0:0:
160,192,124481,1,4,1:0:0:0:
256,384,124631,85,0,1:0:0:0:
256,384,124706,1,0,1:0:0:0:
256,384,124781,2,0,B|288:320|288:320|224:288|224:288|288:224|288:224|224:160|224:160|288:96|288:96|224:64|224:64|256:0,1,556.800016992188,4|4,1:0|1:0,0:0:0:0:
256,0,125156,1,2,1:3:0:0:
256,0,125231,1,2,1:3:0:0:
256,0,125306,1,2,1:3:0:0:
256,0,125381,37,6,1:0:0:0:
352,96,125531,1,2,0:0:0:0:
256,192,125681,1,8,1:0:0:0:
256,0,125831,1,2,0:1:0:0:
160,96,125981,1,0,1:0:0:0:
256,192,126131,1,2,0:0:0:0:
256,0,126281,1,10,1:1:0:0:
256,192,126431,1,2,0:0:0:0:
448,192,126581,5,2,1:0:0:0:
352,96,126731,1,2,0:0:0:0:
256,192,126881,1,8,1:0:0:0:
448,192,127031,1,2,0:1:0:0:
352,288,127181,1,0,1:0:0:0:
256,192,127331,1,2,0:0:0:0:
448,192,127481,1,10,1:1:0:0:
256,192,127631,1,2,0:0:0:0:
64,192,127781,101,2,1:0:0:0:
160,96,127931,1,2,0:0:0:0:
256,192,128081,1,8,1:0:0:0:
64,192,128231,1,2,0:1:0:0:
160,288,128381,1,0,1:0:0:0:
256,192,128531,1,2,0:0:0:0:
64,192,128681,1,10,1:1:0:0:
256,192,128831,1,2,0:0:0:0:
256,0,128981,21,2,1:0:0:0:
64,192,129131,1,2,0:3:0:0:
256,384,129281,1,8,1:0:0:0:
448,192,129431,1,2,0:3:0:0:
256,0,129581,1,0,1:0:0:0:
64,192,129731,1,2,0:3:0:0:
256,384,129881,1,8,1:0:0:0:
448,192,130031,1,2,0:3:0:0:
160,288,130181,85,2,1:0:0:0:
256,192,130331,1,2,0:0:0:0:
352,288,130481,1,8,1:0:0:0:
160,288,130631,1,2,0:1:0:0:
256,384,130781,1,0,1:0:0:0:
352,288,130931,1,2,0:0:0:0:
160,288,131081,1,10,1:1:0:0:
352,288,131231,1,2,0:0:0:0:
352,96,131381,5,2,1:0:0:0:
256,192,131531,1,2,0:0:0:0:
352,288,131681,1,8,1:0:0:0:
352,96,131831,1,2,0:1:0:0:
448,192,131981,1,0,1:0:0:0:
352,288,132131,1,2,0:0:0:0:
352,96,132281,1,10,1:1:0:0:
352,288,132431,1,2,0:0:0:0:
160,96,132581,101,2,1:0:0:0:
256,192,132731,1,2,0:0:0:0:
160,288,132881,1,8,1:0:0:0:
160,96,133031,1,2,0:1:0:0:
64,192,133181,1,0,1:0:0:0:
160,288,133331,1,2,0:0:0:0:
160,96,133481,1,10,1:1:0:0:
160,288,133631,1,2,0:0:0:0:
256,192,133781,1,2,1:0:0:0:
64,192,133931,1,2,0:0:0:0:
448,0,134081,69,14,1:0:0:0:
64,384,134231,1,2,0:3:0:0:
256,0,134381,69,6,1:0:0:0:
256,384,134531,1,2,0:3:0:0:
64,0,134681,37,14,1:0:0:0:
448,384,134831,1,2,0:3:0:0:
64,192,134981,37,6,1:0:0:0:
256,192,135131,1,2,0:0:0:0:
64,192,135281,1,8,1:0:0:0:
160,96,135431,1,2,0:1:0:0:
160,288,135581,1,0,1:0:0:0:
160,96,135731,1,2,0:0:0:0:
64,192,135881,1,10,1:1:0:0:
256,192,136031,1,2,0:0:0:0:
256,0,136181,5,2,1:0:0:0:
256,192,136331,1,2,0:0:0:0:
256,0,136481,1,8,1:0:0:0:
160,96,136631,1,2,0:1:0:0:
352,96,136781,1,0,1:0:0:0:
160,96,136931,1,2,0:0:0:0:
256,0,137081,1,10,1:1:0:0:
256,192,137231,1,2,0:0:0:0:
448,192,137381,101,2,1:0:0:0:
256,192,137531,1,2,0:0:0:0:
448,192,137681,1,8,1:0:0:0:
352,96,137831,1,2,0:1:0:0:
352,288,137981,1,0,1:0:0:0:
352,96,138131,1,2,0:0:0:0:
448,192,138281,1,10,1:1:0:0:
256,192,138431,1,2,0:0:0:0:
256,0,138581,21,2,1:0:0:0:
448,192,138731,1,2,0:3:0:0:
256,384,138881,1,8,1:0:0:0:
64,192,139031,1,2,0:3:0:0:
256,0,139181,1,0,1:0:0:0:
448,192,139331,1,2,0:3:0:0:
256,192,139481,85,8,1:0:0:0:
352,288,139631,1,2,0:0:0:0:
352,96,139781,1,2,1:0:0:0:
256,192,139931,1,2,0:0:0:0:
160,288,140081,1,8,1:0:0:0:
64,0,140231,1,2,0:1:0:0:
160,96,140381,1,0,1:0:0:0:
256,192,140531,1,2,0:0:0:0:
352,288,140681,1,8,1:0:0:0:
448,384,140831,1,2,0:0:0:0:
160,288,140981,5,2,1:0:0:0:
256,192,141131,1,2,0:0:0:0:
352,96,141281,1,8,1:0:0:0:
448,384,141431,1,2,0:1:0:0:
352,288,141581,1,0,1:0:0:0:
256,192,141731,1,2,0:0:0:0:
160,96,141881,1,8,1:0:0:0:
448,192,142181,5,4,1:0:0:0:
64,192,142781,1,4,1:0:0:0:
352,96,143381,69,4,1:0:0:0:
160,96,143531,1,0,1:0:0:0:
160,96,143606,1,0,1:0:0:0:
160,96,143681,1,4,1:0:0:0:
352,288,143831,1,0,1:0:0:0:
352,288,143906,1,0,1:0:0:0:
352,288,143981,1,4,1:0:0:0:
160,288,144131,1,0,1:0:0:0:
160,288,144206,1,0,1:0:0:0:
160,288,144281,1,4,1:0:0:0:
256,192,144431,69,0,1:0:0:0:
256,192,144506,1,0,1:0:0:0:
256,192,144581,1,4,1:0:0:0:
