osu file format v14

[General]
AudioFilename: audio.mp3
AudioLeadIn: 0
PreviewTime: 106181
Countdown: 0
SampleSet: Soft
StackLeniency: 0.7
Mode: 2
LetterboxInBreaks: 0
WidescreenStoryboard: 1

[Editor]
DistanceSpacing: 1.1
BeatDivisor: 4
GridSize: 8
TimelineZoom: 2.4

[Metadata]
Title:Cross Over
TitleUnicode:Cross†Over
Artist:HyuN feat. LyuU
ArtistUnicode:HyuN feat. LyuU
Creator:Razor Sharp
Version:Roxy's Salad
Source:osu!
Tags:fa featured artist nelly autols spectator rocma autofanboy roxy migurdia Realazy AFB alienflybot Arthas _Asriel Benita Electronic Korean hyunesis ft. Digital Step Core Artcore PUMP IT UP PRIME PIU Crossover Benny-
BeatmapID:2576038
BeatmapSetID:1233114

[Difficulty]
HPDrainRate:3
CircleSize:3
OverallDifficulty:7
ApproachRate:7
SliderMultiplier:1.28
SliderTickRate:1

[Events]
//Background and Video events
0,0,"dreamy-world-background-13.jpg",0,0
//Break Periods
//Storyboard Layer 0 (Background)
//Storyboard Layer 1 (Fail)
//Storyboard Layer 2 (Pass)
//Storyboard Layer 3 (Foreground)
//Storyboard Layer 4 (Overlay)
//Storyboard Sound Samples

[TimingPoints]
581,300,4,2,1,30,1,0
8981,-100,4,2,1,50,0,0
9281,-100,4,2,1,50,0,0
10181,-100,4,2,1,70,0,0
20081,-100,4,2,1,70,0,0
20381,-100,4,2,1,70,0,0
29381,-100,4,2,1,70,0,0
67781,-100,4,2,1,70,0,1
87281,-100,4,2,1,70,0,1
87581,-100,4,2,1,70,0,0
106181,-100,4,2,1,70,0,0
125381,-100,4,2,1,70,0,1
144581,-100,4,2,1,70,0,0
145781,-100,4,2,1,40,0,0
146981,-100,4,2,1,20,0,0
148181,-100,4,2,1,5,0,0

[Colours]
Combo1 : 255,128,64
Combo2 : 0,0,255
Combo3 : 255,128,255
Combo4 : 128,255,128

[HitObjects]
152,88,581,5,2,1:2:0:0:
96,88,731,1,2,0:0:0:0:
152,88,881,1,2,1:2:0:0:
232,96,1031,2,0,P|295:154|216:208,1,192,2|0,0:0|0:0,0:0:0:0:
112,200,1781,2,0,L|76:324,1,128,0|0,1:0|1:0,0:0:0:0:
328,144,2981,5,2,1:2:0:0:
384,144,3131,1,2,0:0:0:0:
328,144,3281,1,2,1:2:0:0:
248,200,3431,2,0,P|185:258|264:312,1,192,2|0,0:0|0:0,0:0:0:0:
368,192,4181,5,2,1:2:0:0:
424,168,4331,1,2,0:0:0:0:
368,136,4481,1,2,1:2:0:0:
296,176,4631,2,0,P|233:234|224:280,1,128,2|2,0:0|0:0,0:0:0:0:
288,312,5081,2,0,L|360:312,1,64,2|2,0:0|0:0,0:0:0:0:
208,88,5381,5,2,1:2:0:0:
152,88,5531,1,2,0:0:0:0:
208,88,5681,1,2,1:2:0:0:
288,96,5831,2,0,P|351:154|272:208,1,192,2|0,0:0|0:0,0:0:0:0:
160,216,6581,2,0,L|64:328,2,128,0|0|0,1:0|1:0|0:0,0:0:0:0:
368,200,7781,5,2,1:2:0:0:
424,200,7931,1,2,0:0:0:0:
368,200,8081,1,2,1:2:0:0:
288,200,8231,2,0,P|225:258|304:312,1,192,0|0,0:0|0:0,0:0:0:0:
440,208,8981,5,8,0:0:0:0:
496,184,9131,1,8,0:0:0:0:
440,160,9281,1,8,0:0:0:0:
280,264,9581,2,0,L|432:264,1,128,4|4,0:0|1:2,0:0:0:0:
152,96,10181,6,0,L|56:208,1,128,6|8,1:2|0:2,0:0:0:0:
200,232,10781,1,2,1:2:0:0:
256,240,10931,1,0,0:0:0:0:
200,232,11081,1,10,0:2:0:0:
312,80,11381,6,0,L|384:208,1,128,2|8,1:2|0:2,0:0:0:0:
264,208,11981,1,2,1:2:0:0:
208,208,12131,1,0,0:0:0:0:
264,208,12281,1,10,0:2:0:0:
144,184,12581,6,0,P|106:136|152:96,1,128,2|8,1:2|0:2,0:0:0:0:
280,120,13181,1,2,1:2:0:0:
336,96,13331,1,0,0:0:0:0:
392,72,13481,1,10,0:2:0:0:
120,192,13781,6,0,L|104:48,1,128,2|8,1:2|0:2,0:0:0:0:
176,56,14231,1,2,0:0:0:0:
248,56,14381,1,2,1:2:0:0:
312,56,14531,1,2,0:0:0:0:
248,56,14681,1,10,0:2:0:0:
120,144,14981,6,0,L|248:72,1,128,2|8,1:2|0:2,0:0:0:0:
360,80,15581,1,2,1:2:0:0:
416,80,15731,1,0,0:0:0:0:
360,80,15881,1,10,0:2:0:0:
240,96,16181,6,0,L|104:56,1,128,2|8,1:2|0:2,0:0:0:0:
224,56,16781,1,2,1:2:0:0:
280,48,16931,1,0,0:0:0:0:
224,56,17081,1,10,0:2:0:0:
88,144,17381,6,0,L|232:96,1,128,2|8,1:2|0:2,0:0:0:0:
72,80,17981,1,2,1:2:0:0:
16,80,18131,1,0,0:0:0:0:
72,80,18281,1,10,0:2:0:0:
360,184,18581,6,0,L|496:144,1,128,2|8,1:2|0:2,0:0:0:0:
416,136,19031,1,2,0:0:0:0:
336,136,19181,6,0,L|248:136,1,64,4|0,1:2|0:0,0:0:0:0:
344,56,19481,2,0,L|432:56,1,64,8|8,0:2|0:2,0:0:0:0:
246,152,19781,1,2,1:1:0:0:
182,152,19931,1,2,0:1:0:0:
246,152,20081,1,0,0:1:0:0:
468,87,20381,5,6,1:2:0:0:
404,87,20531,1,0,0:0:0:0:
340,87,20681,1,10,0:2:0:0:
224,160,20981,6,0,L|104:224,1,128,2|8,1:2|0:2,0:0:0:0:
272,240,21581,1,2,1:2:0:0:
336,240,21731,1,0,0:0:0:0:
400,240,21881,1,10,0:2:0:0:
256,176,22181,6,0,L|136:240,1,128,2|8,1:2|0:2,0:0:0:0:
16,248,22781,1,2,1:2:0:0:
80,248,22931,1,0,0:0:0:0:
144,248,23081,1,10,0:2:0:0:
416,232,23381,6,0,P|454:181|408:144,1,128,2|8,1:2|0:2,0:0:0:0:
344,136,23831,1,2,0:0:0:0:
248,136,23981,2,0,L|232:48,1,64,2|2,1:2|0:0,0:0:0:0:
328,104,24281,2,0,L|336:32,1,64,10|0,0:2|0:0,0:0:0:0:
184,232,24581,6,0,L|312:232,1,128,6|8,1:2|0:2,0:0:0:0:
408,144,25181,1,2,1:2:0:0:
456,112,25331,1,0,0:0:0:0:
408,112,25481,1,10,0:2:0:0:
144,128,25781,6,0,L|272:128,1,128,6|8,1:2|0:2,0:0:0:0:
376,88,26381,1,2,1:2:0:0:
424,56,26531,1,0,0:0:0:0:
376,56,26681,1,10,0:2:0:0:
112,200,26981,6,0,P|48:144|120:96,1,192,4|0,1:2|1:2,0:0:0:0:
208,200,27581,6,0,P|272:144|200:96,1,192,12|0,0:2|1:2,0:0:0:0:
48,112,28181,6,0,L|48:192,1,64,12|0,0:2|1:2,0:0:0:0:
104,192,28481,2,0,L|176:192,1,64,4|0,1:2|1:2,0:0:0:0:
341,206,28781,2,0,L|341:286,1,64,4|0,1:2|1:2,0:0:0:0:
285,286,29081,2,0,L|213:286,1,64,0|0,1:2|1:2,0:0:0:0:
67,226,29381,6,0,L|267:162,1,192,6|0,0:2|0:0,0:0:0:0:
448,216,30281,6,0,L|448:144,1,64,2|2,0:0|0:0,0:0:0:0:
352,136,30581,2,0,L|192:264,1,192,2|2,0:0|0:0,0:0:0:0:
448,296,31481,2,0,L|384:256,1,64,2|2,0:0|0:0,0:0:0:0:
312,232,31781,6,0,P|208:160|200:88,2,192,2|2|2,0:0|0:0|0:0,0:0:0:0:
408,232,32831,2,0,L|400:96,1,128,0|0,0:0|0:0,0:0:0:0:
320,96,33281,1,0,0:0:0:0:
216,152,33581,6,0,L|184:80,1,64,0|0,0:0|0:0,0:0:0:0:
264,96,33881,2,0,L|288:24,1,64,2|2,0:0|0:0,0:0:0:0:
200,112,34181,6,0,P|133:169|208:224,1,192,2|0,0:0|0:0,0:0:0:0:
312,192,35081,2,0,L|376:160,1,64,2|2,0:0|0:0,0:0:0:0:
288,144,35381,6,0,L|424:296,1,192,2|2,0:0|0:0,0:0:0:0:
288,248,36281,2,0,L|230:219,1,64,2|2,0:0|0:0,0:0:0:0:
280,192,36581,6,0,P|356:137|377:46,2,192,2|2|2,0:0|0:0|0:0,0:0:0:0:
368,216,37631,2,0,L|376:360,1,128,0|0,0:0|0:0,0:0:0:0:
304,344,38081,1,0,0:0:0:0:
200,312,38381,2,0,L|128:272,1,64,0|0,0:0|0:0,0:0:0:0:
224,312,38681,2,0,L|296:272,1,64,2|2,0:0|0:0,0:0:0:0:
117,191,38981,6,0,P|54:124|125:95,1,192,6|2,1:2|0:0,0:0:0:0:
296,224,39881,2,0,L|360:224,1,64,2|0,0:0|0:0,0:0:0:0:
288,200,40181,6,0,P|224:176|176:56,1,192,0|2,0:0|0:0,0:0:0:0:
344,64,41081,2,0,L|280:64,1,64,2|0,0:0|0:0,0:0:0:0:
216,184,41381,6,0,P|156:138|240:72,1,192,2|2,0:0|0:0,0:0:0:0:
360,64,42281,1,2,0:0:0:0:
216,120,42731,1,2,0:0:0:0:
352,216,43181,2,0,P|385:154|344:112,1,128,2|2,0:0|0:0,0:0:0:0:
288,104,43631,1,0,0:0:0:0:
144,136,43781,6,0,L|336:80,1,192,6|2,0:0|0:0,0:0:0:0:
184,64,44681,2,0,L|96:64,1,64,2|0,0:0|0:0,0:0:0:0:
200,112,44981,6,0,P|248:152|176:256,1,192,0|2,0:0|0:0,0:0:0:0:
72,320,45881,2,0,L|160:320,1,64,2|0,0:0|0:0,0:0:0:0:
280,328,46181,6,0,P|360:272|360:224,1,128,6|0,0:0|0:0,0:0:0:0:
280,232,46631,2,0,P|200:176|200:128,1,128,2|0,0:0|0:0,0:0:0:0:
272,128,47081,1,2,0:0:0:0:
416,128,47381,5,0,1:2:0:0:
344,128,47531,2,0,P|280:160|272:232,1,128,0|0,0:0|0:0,0:0:0:0:
336,304,47981,2,0,L|408:248,1,64,0|0,1:2|1:2,0:0:0:0:
336,304,48281,2,0,L|264:248,1,64,0|0,1:2|1:2,0:0:0:0:
144,224,48581,6,0,L|248:144,1,128,6|8,1:2|0:2,0:0:0:0:
312,120,49031,1,0,0:0:0:0:
240,144,49181,2,0,P|205:88|256:48,1,128,0|10,1:2|0:2,0:0:0:0:
496,200,49781,6,0,L|376:120,1,128,2|8,1:2|0:2,0:0:0:0:
328,96,50231,1,2,0:0:0:0:
256,120,50381,2,0,L|376:200,1,128,0|10,1:2|0:2,0:0:0:0:
424,224,50831,1,0,0:0:0:0:
280,256,50981,6,0,L|152:256,1,128,6|10,1:1|1:1,0:0:0:0:
216,256,51431,1,2,0:0:0:0:
280,256,51581,2,0,L|408:256,1,128,2|10,1:1|1:1,0:0:0:0:
152,208,52181,6,0,L|32:152,1,128,6|10,1:2|0:2,0:0:0:0:
184,128,52781,2,0,L|64:72,1,128,2|10,1:2|0:2,0:0:0:0:
144,56,53231,1,0,0:0:0:0:
296,144,53381,6,0,P|329:81|291:45,1,128,6|8,1:2|0:2,0:0:0:0:
216,48,53831,1,0,0:0:0:0:
128,112,53981,2,0,L|256:80,1,128,0|10,1:2|0:2,0:0:0:0:
512,240,54581,6,0,L|384:208,1,128,2|8,1:2|0:0,0:0:0:0:
320,208,55031,1,2,0:0:0:0:
256,208,55181,2,0,L|384:176,1,128,0|10,0:0|0:2,0:0:0:0:
312,168,55631,1,0,0:0:0:0:
232,152,55781,6,0,L|104:104,1,128,2|8,1:2|0:2,0:0:0:0:
264,40,56381,1,4,1:2:0:0:
88,40,56681,1,12,0:2:0:0:
224,288,56981,6,0,L|272:232,1,64,6|0,1:2|0:0,0:0:0:0:
307,288,57281,2,0,L|259:232,1,64,10|0,0:2|0:0,0:0:0:0:
192,224,57581,2,0,L|144:168,1,64,2|2,1:2|0:0,0:0:0:0:
108,224,57881,2,0,L|156:168,1,64,10|2,0:2|0:0,0:0:0:0:
296,184,58181,6,0,P|328:131|288:80,1,128,6|8,1:2|0:2,0:0:0:0:
224,88,58631,1,0,0:0:0:0:
160,184,58781,2,0,P|128:131|168:80,1,128,0|10,1:2|0:2,0:0:0:0:
416,152,59381,6,0,P|448:99|408:48,1,128,2|8,1:2|0:2,0:0:0:0:
344,64,59831,1,2,0:0:0:0:
416,136,59981,2,0,L|280:176,1,128,0|10,1:2|0:2,0:0:0:0:
224,184,60431,1,0,0:0:0:0:
80,208,60581,6,0,P|87:269|137:307,1,128,6|10,1:1|1:1,0:0:0:0:
208,312,61031,1,2,0:0:0:0:
144,312,61181,1,2,1:1:0:0:
64,272,61481,1,10,1:1:0:0:
296,192,61781,6,0,L|216:192,1,64,6|0,1:2|0:0,0:0:0:0:
168,192,62081,2,0,L|208:120,1,64,10|0,0:2|0:0,0:0:0:0:
248,104,62381,2,0,L|328:104,1,64,2|0,1:2|0:0,0:0:0:0:
343,159,62681,2,0,L|303:87,1,64,10|0,0:2|0:0,0:0:0:0:
144,240,62981,6,0,P|105:194|140:146,1,128,6|8,1:2|0:2,0:0:0:0:
200,144,63431,1,0,0:0:0:0:
264,144,63581,2,0,L|160:56,1,128,0|10,1:2|0:2,0:0:0:0:
424,160,64181,6,0,L|320:72,1,128,6|8,1:2|0:2,0:0:0:0:
264,72,64631,1,2,0:0:0:0:
326,77,64781,2,0,L|423:159,1,128,0|10,0:0|0:2,0:0:0:0:
168,328,65381,6,0,P|139:267|184:208,1,128,6|0,1:2|0:0,0:0:0:0:
232,216,65831,1,0,1:2:0:0:
376,232,65981,2,0,P|405:171|360:112,1,128,12|0,0:2|1:2,0:0:0:0:
312,112,66431,1,0,1:2:0:0:
160,128,66581,6,0,L|96:128,1,64,12|0,0:2|1:2,0:0:0:0:
160,128,66881,2,0,L|224:128,1,64,4|0,1:2|1:2,0:0:0:0:
368,128,67181,2,0,L|432:128,1,64,4|0,1:2|1:2,0:0:0:0:
368,128,67481,2,0,L|304:128,1,64,0|0,1:2|1:2,0:0:0:0:
160,240,67781,6,0,P|120:192|160:160,1,128,6|8,1:2|0:2,0:0:0:0:
232,160,68231,1,2,0:0:0:0:
304,160,68381,2,0,L|440:112,1,128,0|10,1:2|0:2,0:0:0:0:
176,272,68981,6,0,L|104:136,1,128,2|8,1:2|0:2,0:0:0:0:
192,144,69431,1,2,0:0:0:0:
264,144,69581,2,0,L|368:48,1,128,0|10,1:2|0:2,0:0:0:0:
112,144,70181,6,0,P|80:77|112:48,1,128,2|8,1:2|0:2,0:0:0:0:
240,144,70781,2,0,P|272:77|240:48,1,128,0|10,1:2|0:2,0:0:0:0:
104,128,71381,6,0,L|176:80,1,64,2|0,1:2|0:0,0:0:0:0:
216,128,71681,2,0,L|144:80,1,64,10|0,0:2|0:0,0:0:0:0:
104,256,71981,2,0,P|59:207|96:176,1,128,2|10,1:2|0:2,0:0:0:0:
336,264,72581,6,0,L|208:232,1,128,2|8,1:2|0:2,0:0:0:0:
272,224,73031,1,2,0:0:0:0:
336,216,73181,2,0,L|464:152,1,128,0|10,1:2|0:2,0:0:0:0:
200,168,73781,6,0,P|162:112|208:88,1,128,2|8,1:2|0:2,0:0:0:0:
264,88,74231,1,2,0:0:0:0:
192,112,74381,2,0,L|73:25,1,128,0|10,1:2|0:2,0:0:0:0:
240,144,74981,6,0,P|272:77|240:48,1,128,2|8,1:2|0:2,0:0:0:0:
112,144,75581,2,0,P|80:77|112:48,1,128,0|10,1:2|0:2,0:0:0:0:
256,160,76181,6,0,L|336:160,1,64,2|0,1:2|0:0,0:0:0:0:
176,208,76481,2,0,L|104:208,1,64,10|0,0:0|0:0,0:0:0:0:
176,208,76781,2,0,L|320:208,1,128,2|10,1:2|0:0,0:0:0:0:
56,112,77381,6,0,P|22:178|56:200,1,128,6|8,1:2|0:2,0:0:0:0:
128,208,77831,1,2,0:0:0:0:
200,208,77982,2,0,L|64:208,1,128,0|10,1:2|0:2,0:0:0:0:
232,304,78581,6,0,L|360:216,1,128,2|8,1:2|0:2,0:0:0:0:
392,200,79031,1,2,0:0:0:0:
336,168,79181,2,0,L|208:96,1,128,0|10,1:2|0:2,0:0:0:0:
109,143,79781,6,0,P|77:76|109:47,1,128,2|8,1:2|0:2,0:0:0:0:
280,144,80381,2,0,P|312:77|280:48,1,128,0|10,1:2|0:2,0:0:0:0:
174,111,80981,6,0,L|238:111,1,64,2|0,1:2|0:0,0:0:0:0:
302,119,81281,2,0,L|230:119,1,64,10|0,0:2|0:0,0:0:0:0:
168,152,81581,2,0,P|104:160|96:216,1,128,2|8,1:2|0:2,0:0:0:0:
256,240,82181,6,0,L|400:176,1,128,2|8,1:2|0:2,0:0:0:0:
432,168,82631,1,2,0:0:0:0:
368,128,82781,2,0,L|224:64,1,128,0|10,0:0|0:2,0:0:0:0:
376,160,83381,6,0,P|416:117|360:72,1,128,2|8,1:2|0:2,0:0:0:0:
320,72,83831,1,2,0:0:0:0:
240,72,83981,2,0,L|384:8,1,128,0|10,0:0|0:2,0:0:0:0:
88,96,84581,5,6,1:2:0:0:
336,96,85181,1,14,0:2:0:0:
160,288,85781,6,0,L|139:227,1,64,14|2,0:2|1:2,0:0:0:0:
264,216,86081,2,0,L|284:155,1,64,4|2,1:2|1:2,0:0:0:0:
152,144,86381,2,0,P|120:85|160:40,1,128,6|6,1:2|1:2,0:0:0:0:
288,48,86981,6,0,L|424:48,1,128,2|0,0:1|0:0,0:0:0:0:
120,40,87581,5,4,1:2:0:0:
56,40,87731,1,0,0:0:0:0:
120,40,87881,1,10,0:2:0:0:
216,192,88181,6,0,L|344:144,1,128,2|8,1:2|0:2,0:0:0:0:
208,120,88781,1,2,1:2:0:0:
144,88,88931,1,0,0:0:0:0:
208,64,89081,1,10,0:2:0:0:
344,160,89381,6,0,P|376:99|336:56,1,128,2|8,1:2|0:2,0:0:0:0:
216,96,89981,1,2,1:2:0:0:
280,80,90131,1,0,0:0:0:0:
344,72,90281,1,10,0:2:0:0:
88,192,90581,6,0,P|48:136|88:112,1,128,2|8,1:2|0:2,0:0:0:0:
152,112,91031,1,2,0:0:0:0:
248,96,91181,2,0,L|168:96,1,64,2|2,1:2|0:0,0:0:0:0:
120,96,91481,1,10,0:2:0:0:
352,96,91781,6,0,L|240:16,1,128,2|8,1:2|0:2,0:0:0:0:
112,80,92381,2,0,L|184:80,1,64,2|0,1:2|0:0,0:0:0:0:
240,88,92681,1,10,0:2:0:0:
376,224,92981,6,0,P|416:188|370:136,1,128,2|8,1:2|0:2,0:0:0:0:
240,96,93581,1,2,1:2:0:0:
304,96,93731,1,0,0:0:0:0:
368,104,93881,1,10,0:2:0:0:
232,160,94181,6,0,L|104:224,1,128,2|8,1:2|0:2,0:0:0:0:
248,256,94781,1,2,1:2:0:0:
184,288,94931,1,0,0:0:0:0:
120,320,95081,1,10,0:2:0:0:
368,320,95381,6,0,L|504:280,1,128,2|8,1:2|0:2,0:0:0:0:
320,240,95981,2,0,L|240:216,1,64,2|2,1:2|0:0,0:0:0:0:
197,240,96281,2,0,L|277:216,1,64,10|0,0:2|0:0,0:0:0:0:
328,192,96581,1,2,1:1:0:0:
80,216,96881,6,0,L|72:88,1,128,4|2,1:2|1:2,0:0:0:0:
264,96,97481,1,10,0:2:0:0:
144,184,97781,2,0,P|115:120|152:72,1,128,2|0,1:2|1:2,0:0:0:0:
280,76,98381,2,0,L|408:76,1,128,8|0,0:2|1:2,0:0:0:0:
152,112,98981,5,4,1:2:0:0:
360,176,99581,2,0,L|504:136,1,128,8|0,0:2|1:2,0:0:0:0:
240,104,100181,6,0,L|96:104,1,128,0|0,1:2|1:2,0:0:0:0:
248,256,100781,2,0,L|392:256,1,128,8|4,0:2|1:2,0:0:0:0:
160,200,101381,6,0,L|88:200,1,64,4|0,1:2|1:2,0:0:0:0:
32,128,101681,2,0,L|96:128,1,64,8|2,0:2|1:2,0:0:0:0:
200,96,101981,2,0,L|64:48,1,128,2|8,1:2|0:2,0:0:0:0:
360,160,102581,6,0,P|392:107|352:56,1,128,4|8,1:2|0:2,0:0:0:0:
200,176,103181,2,0,L|168:104,1,64,2|0,1:2|1:2,0:0:0:0:
256,104,103481,2,0,L|288:48,1,64,8|0,0:2|1:2,0:0:0:0:
120,40,103781,5,4,1:2:0:0:
312,43,104381,1,12,0:2:0:0:
48,216,104981,6,0,P|64:280|136:304,1,128,12|4,0:2|1:2,0:0:0:0:
176,312,105431,1,0,1:2:0:0:
304,208,105581,2,0,L|232:208,1,64,4|0,1:2|1:2,0:0:0:0:
176,208,105881,2,0,L|184:128,1,64,0|0,1:2|1:2,0:0:0:0:
320,312,106181,6,0,P|392:280|424:176,2,192,6|0|2,0:2|0:0|0:0,0:0:0:0:
136,304,107381,2,0,L|296:192,1,192,2|0,0:0|0:0,0:0:0:0:
200,176,108281,1,0,0:0:0:0:
96,176,108581,6,0,P|40:112|104:40,1,192,2|2,0:0|0:0,0:0:0:0:
272,48,109481,1,2,0:0:0:0:
160,56,109781,2,0,P|192:128|256:144,1,128,2|0,0:0|0:0,0:0:0:0:
368,160,110381,2,0,P|423:189|442:248,1,128,0|0,0:0|0:0,0:0:0:0:
256,320,110981,6,0,B|272:242|272:242|376:200,1,192,2|0,0:0|0:0,0:0:0:0:
464,232,111881,1,2,0:0:0:0:
336,200,112181,2,0,L|136:200,2,192,2|0|0,0:0|0:0|0:0,0:0:0:0:
208,184,113381,2,0,P|88:224|64:296,1,192,2|2,0:0|0:0,0:0:0:0:
176,312,114281,1,2,0:0:0:0:
296,312,114581,5,2,0:0:0:0:
184,288,114881,2,0,P|120:264|112:184,2,128,2|2|2,0:0|0:0|0:0,0:0:0:0:
432,264,115781,6,0,L|248:168,1,192,6|0,0:2|0:0,0:0:0:0:
144,176,116681,1,2,0:0:0:0:
256,248,116981,2,0,L|472:248,2,192,2|0|0,0:0|0:0|0:0,0:0:0:0:
304,248,118181,6,0,P|360:200|288:120,1,192,2|2,0:0|0:0,0:0:0:0:
80,152,119081,1,2,0:0:0:0:
200,152,119381,6,0,L|336:152,1,128,2|0,0:0|0:0,0:0:0:0:
200,112,119981,2,0,L|56:112,1,128,0|0,0:0|0:0,0:0:0:0:
136,112,120431,1,0,0:0:0:0:
200,112,120581,6,0,L|408:112,1,192,2|0,0:0|0:0,0:0:0:0:
168,224,121481,1,0,0:0:0:0:
304,232,121781,6,0,P|368:288|303:342,1,192,2|0,0:0|0:0,0:0:0:0:
152,328,122681,1,0,0:0:0:0:
408,304,122981,5,4,1:2:0:0:
208,304,123431,2,0,L|192:216,1,64,0|12,1:2|0:2,0:0:0:0:
336,240,123881,1,0,1:2:0:0:
88,224,124181,6,0,L|16:224,1,64,12|0,0:2|1:2,0:0:0:0:
88,224,124481,2,0,L|160:224,1,64,4|0,1:2|1:2,0:0:0:0:
296,216,124781,2,0,P|335:166|288:128,1,128,2|8,0:1|0:2,0:0:0:0:
232,120,125231,1,8,0:2:0:0:
56,128,125381,6,0,P|65:78|144:48,1,128,6|8,1:2|0:2,0:0:0:0:
208,48,125831,1,2,0:0:0:0:
136,160,125981,2,0,L|72:160,1,64,0|0,1:2|0:0,0:0:0:0:
144,136,126281,2,0,L|218:136,1,64,10|0,0:2|0:0,0:0:0:0:
352,232,126581,6,0,P|388:181|344:136,1,128,2|8,1:2|0:2,0:0:0:0:
288,136,127031,1,2,0:0:0:0:
242,181,127181,2,0,L|290:133,1,64,0|2,1:2|0:0,0:0:0:0:
332,181,127481,2,0,L|284:133,1,64,10|0,0:2|0:0,0:0:0:0:
136,96,127781,6,0,L|264:56,1,128,2|8,1:2|0:2,0:0:0:0:
328,64,128231,1,2,0:0:0:0:
392,192,128381,2,0,P|424:139|392:88,1,128,0|10,1:2|0:2,0:0:0:0:
144,264,128981,6,0,L|0:248,1,128,2|8,1:2|0:2,0:0:0:0:
160,192,129581,2,0,L|16:176,1,128,0|10,1:2|0:2,0:0:0:0:
280,128,130181,6,0,L|418:121,1,128,2|8,1:2|0:2,0:0:0:0:
344,104,130631,1,2,0:0:0:0:
264,88,130781,2,0,L|192:64,1,64,0|0,1:2|0:0,0:0:0:0:
280,128,131081,2,0,L|352:104,1,64,10|0,0:2|0:0,0:0:0:0:
200,208,131381,6,0,P|160:159|200:128,1,128,2|8,1:2|0:2,0:0:0:0:
272,120,131831,1,2,0:0:0:0:
200,112,131981,2,0,L|160:56,1,64,0|2,1:2|0:0,0:0:0:0:
234,172,132281,2,0,L|274:116,1,64,10|0,0:2|0:0,0:0:0:0:
184,80,132581,6,0,P|136:88|112:176,1,128,2|8,1:2|0:2,0:0:0:0:
168,192,133031,1,2,0:0:0:0:
232,224,133181,2,0,L|360:224,1,128,0|10,1:2|0:2,0:0:0:0:
448,264,133781,6,0,L|448:120,1,128,2|10,1:2|0:0,0:0:0:0:
168,216,134381,2,0,L|320:200,1,128,2|10,1:2|0:0,0:0:0:0:
232,200,134831,1,0,0:0:0:0:
64,168,134981,6,0,P|95:112|168:80,1,128,6|8,1:2|0:2,0:0:0:0:
224,72,135431,1,2,0:0:0:0:
312,104,135581,1,0,1:2:0:0:
376,96,135731,1,0,0:0:0:0:
312,104,135881,1,10,0:2:0:0:
248,112,136031,1,0,0:0:0:0:
168,328,136181,6,0,P|135:272|168:224,1,128,2|8,1:2|0:2,0:0:0:0:
248,224,136631,1,2,0:0:0:0:
176,192,136781,1,0,1:2:0:0:
152,112,136931,1,2,0:0:0:0:
176,192,137081,1,10,0:2:0:0:
248,224,137231,1,0,0:0:0:0:
96,240,137381,6,0,P|55:189|95:158,1,128,2|8,1:2|0:2,0:0:0:0:
160,160,137831,1,2,0:0:0:0:
224,160,137981,2,0,L|376:160,1,128,0|10,1:2|0:2,0:0:0:0:
64,336,138581,6,0,P|34:281|67:230,1,128,2|10,1:2|0:2,0:0:0:0:
192,240,139181,2,0,L|320:240,1,128,2|10,1:2|0:2,0:0:0:0:
256,240,139631,1,0,0:0:0:0:
112,192,139781,6,0,L|16:88,1,128,2|8,1:2|0:2,0:0:0:0:
104,104,140231,1,2,0:0:0:0:
184,160,140381,2,0,L|88:56,1,128,0|10,1:2|0:2,0:0:0:0:
336,192,140981,6,0,L|432:88,1,128,2|8,1:2|0:2,0:0:0:0:
344,104,141431,1,2,0:0:0:0:
264,160,141581,2,0,L|360:56,1,128,0|10,1:2|0:2,0:0:0:0:
192,53,142181,5,6,1:2:0:0:
336,221,142631,2,0,L|400:157,1,64,0|12,1:2|0:2,0:0:0:0:
248,173,143081,2,0,L|184:109,1,64,0|0,1:2|1:2,0:0:0:0:
324,110,143381,6,0,L|396:110,1,64,12|0,0:2|1:2,0:0:0:0:
452,118,143681,2,0,L|380:118,1,64,4|0,1:2|1:2,0:0:0:0:
244,110,143981,2,0,L|172:110,1,64,4|0,1:2|1:2,0:0:0:0:
116,118,144281,2,0,L|188:118,1,64,0|0,1:2|1:2,0:0:0:0:
324,166,144581,5,6,1:2:0:0:
256,192,144881,12,0,148481,1:0:0:0:
