osu file format v14

[General]
AudioFilename: audio.mp3
AudioLeadIn: 0
PreviewTime: 106181
Countdown: 0
SampleSet: Soft
StackLeniency: 0.7
Mode: 2
LetterboxInBreaks: 0
WidescreenStoryboard: 1

[Editor]
Bookmarks: 49181
DistanceSpacing: 1.7
BeatDivisor: 4
GridSize: 16
TimelineZoom: 3.599999

[Metadata]
Title:Cross Over
TitleUnicode:Cross†Over
Artist:HyuN feat. LyuU
ArtistUnicode:HyuN feat. LyuU
Creator:Razor Sharp
Version:Rocma's Cup
Source:osu!
Tags:fa featured artist nelly autols spectator rocma autofanboy roxy migurdia Realazy AFB alienflybot Arthas _Asriel Benita Electronic Korean hyunesis ft. Digital Step Core Artcore PUMP IT UP PRIME PIU Crossover Benny-
BeatmapID:2568573
BeatmapSetID:1233114

[Difficulty]
HPDrainRate:2
CircleSize:2.5
OverallDifficulty:6
ApproachRate:6
SliderMultiplier:0.959999999999999
SliderTickRate:1

[Events]
//Background and Video events
0,0,"dreamy-world-background-13.jpg",0,0
//Break Periods
//Storyboard Layer 0 (Background)
//Storyboard Layer 1 (Fail)
//Storyboard Layer 2 (Pass)
//Storyboard Layer 3 (Foreground)
//Storyboard Layer 4 (Overlay)
//Storyboard Sound Samples

[TimingPoints]
581,300,4,2,1,30,1,0
8981,-100,4,2,1,50,0,0
9281,-100,4,2,1,50,0,0
10181,-100,4,2,1,70,0,0
20081,-100,4,2,1,70,0,0
20381,-100,4,2,1,70,0,0
29381,-100,4,2,1,70,0,0
67781,-100,4,2,1,70,0,1
87281,-100,4,2,1,70,0,1
87581,-100,4,2,1,70,0,0
106181,-100,4,2,1,70,0,0
125381,-75,4,2,1,70,0,1
144581,-100,4,2,1,70,0,0
145781,-100,4,2,1,40,0,0
146981,-100,4,2,1,20,0,0
148181,-100,4,2,1,5,0,0

[Colours]
Combo1 : 255,128,64
Combo2 : 0,0,255
Combo3 : 255,128,255
Combo4 : 128,255,128

[HitObjects]
368,288,581,6,0,L|432:192,2,95.9999999999999,2|2|0,1:2|1:2|0:0,0:0:0:0:
176,288,1781,2,0,L|64:288,1,95.9999999999999,0|0,1:0|1:0,0:0:0:0:
368,224,2981,6,0,L|432:128,2,95.9999999999999,2|2|0,1:2|1:2|0:0,0:0:0:0:
176,224,4181,2,0,L|112:128,2,95.9999999999999,2|2|0,1:2|1:2|0:0,0:0:0:0:
272,240,5081,1,2,0:0:0:0:
416,224,5381,6,0,L|416:112,1,95.9999999999999,2|2,1:2|1:2,0:0:0:0:
272,112,5981,1,0,0:0:0:0:
96,224,6581,2,0,L|96:112,1,95.9999999999999,0|0,1:0|1:0,0:0:0:0:
240,112,7181,1,0,0:0:0:0:
432,224,7781,6,0,L|336:224,1,95.9999999999999,2|2,1:2|1:2,0:0:0:0:
240,224,8381,1,0,0:0:0:0:
416,272,8981,6,0,L|416:160,1,95.9999999999999,8|8,0:0|0:0,0:0:0:0:
272,176,9581,2,0,L|176:176,1,95.9999999999999,4|4,0:0|1:2,0:0:0:0:
320,192,10181,6,0,L|432:192,2,95.9999999999999,6|8|2,1:2|0:2|1:2,0:0:0:0:
272,192,10931,1,0,0:0:0:0:
224,192,11081,1,10,0:2:0:0:
48,240,11381,6,0,L|160:240,1,95.9999999999999,2|8,1:2|0:2,0:0:0:0:
288,224,11981,2,0,L|352:224,2,48,2|0|10,1:2|0:0|0:2,0:0:0:0:
144,192,12581,6,0,L|48:192,2,95.9999999999999,2|8|2,1:2|0:2|1:2,0:0:0:0:
192,192,13331,1,0,0:0:0:0:
240,192,13481,1,10,0:2:0:0:
400,208,13781,6,0,L|304:208,1,95.9999999999999,2|8,1:2|0:2,0:0:0:0:
256,176,14231,1,2,0:0:0:0:
304,208,14381,2,0,L|400:208,1,95.9999999999999,2|10,1:2|0:2,0:0:0:0:
256,144,14981,6,0,L|144:144,2,95.9999999999999,2|8|2,1:2|0:2|1:2,0:0:0:0:
304,112,15731,1,0,0:0:0:0:
256,64,15881,1,10,0:2:0:0:
112,64,16181,6,0,L|0:64,1,95.9999999999999,2|8,1:2|0:2,0:0:0:0:
160,128,16781,1,2,1:2:0:0:
208,128,16931,1,0,0:0:0:0:
256,128,17081,1,10,0:2:0:0:
400,192,17381,6,0,L|288:192,2,95.9999999999999,2|8|2,1:2|0:2|1:2,0:0:0:0:
448,192,18131,1,0,0:0:0:0:
496,192,18281,1,10,0:2:0:0:
336,256,18581,6,0,L|224:256,1,95.9999999999999,2|8,1:2|0:2,0:0:0:0:
192,256,19031,1,2,0:0:0:0:
240,256,19181,1,4,1:2:0:0:
368,240,19481,2,0,L|416:240,1,48,8|8,0:2|0:2,0:0:0:0:
368,240,19781,6,0,L|368:128,1,95.9999999999999,2|0,1:1|0:1,0:0:0:0:
224,112,20381,1,6,1:2:0:0:
176,112,20531,1,0,0:0:0:0:
224,112,20681,1,10,0:2:0:0:
368,128,20981,6,0,L|272:128,1,95.9999999999999,2|8,1:2|0:2,0:0:0:0:
128,192,21581,1,2,1:2:0:0:
176,192,21731,1,0,0:0:0:0:
224,192,21881,1,10,0:2:0:0:
368,192,22181,6,0,L|480:192,2,95.9999999999999,2|8|2,1:2|0:2|1:2,0:0:0:0:
320,192,22931,1,0,0:0:0:0:
272,192,23081,1,10,0:2:0:0:
128,192,23381,6,0,L|16:192,1,95.9999999999999,2|8,1:2|0:2,0:0:0:0:
80,192,23831,1,2,0:0:0:0:
128,192,23981,2,0,L|240:192,1,95.9999999999999,2|10,1:2|0:2,0:0:0:0:
384,192,24581,6,0,L|496:192,1,95.9999999999999,6|8,1:2|0:2,0:0:0:0:
384,112,25181,1,2,1:2:0:0:
336,112,25331,1,0,0:0:0:0:
288,112,25481,1,10,0:2:0:0:
432,48,25781,6,0,L|320:48,1,95.9999999999999,6|8,1:2|0:2,0:0:0:0:
192,112,26381,1,2,1:2:0:0:
240,112,26531,1,0,0:0:0:0:
288,112,26681,1,10,0:2:0:0:
144,160,26981,6,0,P|96:192|160:240,1,144,4|0,1:2|1:2,0:0:0:0:
208,256,27581,2,0,L|320:256,1,95.9999999999999,12|0,0:2|1:2,0:0:0:0:
176,304,28181,6,0,L|64:304,1,95.9999999999999,12|4,0:2|1:2,0:0:0:0:
224,256,28781,2,0,L|288:256,2,48,4|0|0,1:2|1:2|1:2,0:0:0:0:
80,256,29381,5,6,0:2:0:0:
256,224,30281,1,2,0:0:0:0:
368,224,30581,6,0,P|416:176|432:96,1,144,2|2,0:0|0:0,0:0:0:0:
256,80,31481,1,2,0:0:0:0:
144,96,31781,6,0,L|304:96,1,144,2|2,0:0|0:0,0:0:0:0:
448,112,32681,6,0,P|448:160|272:304,1,288,2|0,0:0|0:0,0:0:0:0:
144,288,33881,1,2,0:0:0:0:
272,256,34181,5,2,0:0:0:0:
112,256,35081,1,2,0:0:0:0:
240,240,35381,2,0,L|384:240,2,144,2|2|2,0:0|0:0|0:0,0:0:0:0:
96,240,36581,6,0,P|48:190|112:176,1,144,2|2,0:0|0:0,0:0:0:0:
208,176,37481,6,0,P|304:176|416:336,1,288,2|0,0:0|0:0,0:0:0:0:
304,336,38681,1,2,0:0:0:0:
160,320,38981,6,0,P|64:304|64:256,2,144,6|2|2,1:2|0:0|0:0,0:0:0:0:
304,304,40181,5,0,0:0:0:0:
368,208,40331,2,0,L|224:208,1,144,2|2,0:0|0:0,0:0:0:0:
320,208,41081,1,2,0:0:0:0:
480,208,41381,6,0,L|336:208,2,144,2|2|2,0:0|0:0|0:0,0:0:0:0:
352,192,42581,5,0,0:0:0:0:
256,192,42731,2,0,L|224:32,1,144,2|2,0:0|0:0,0:0:0:0:
336,32,43481,1,2,0:0:0:0:
192,32,43781,6,0,P|112:64|80:128,2,144,6|2|2,0:0|0:0|0:0,0:0:0:0:
352,48,44981,5,0,0:0:0:0:
432,80,45131,2,0,P|432:144|352:176,1,144,2|2,0:0|0:0,0:0:0:0:
256,176,45881,1,2,0:0:0:0:
112,192,46181,6,0,L|256:192,2,144,6|2|2,0:0|0:0|0:0,0:0:0:0:
256,256,47381,6,0,L|304:256,1,48,0|0,1:2|0:0,0:0:0:0:
192,192,47981,2,0,L|80:192,1,95.9999999999999,0|0,1:2|1:2,0:0:0:0:
256,160,48581,6,0,L|368:160,1,95.9999999999999,6|8,1:2|0:2,0:0:0:0:
256,160,49181,2,0,L|144:160,1,95.9999999999999,0|10,1:2|0:2,0:0:0:0:
304,208,49781,6,0,L|416:208,1,95.9999999999999,2|8,1:2|0:2,0:0:0:0:
496,192,50381,2,0,L|384:192,1,95.9999999999999,0|10,1:2|0:2,0:0:0:0:
336,192,50831,1,0,0:0:0:0:
256,192,50981,6,0,L|160:192,2,95.9999999999999,6|10|2,1:1|1:1|1:1,0:0:0:0:
400,192,51881,1,10,1:1:0:0:
256,160,52181,6,0,L|144:160,1,95.9999999999999,6|10,1:2|0:2,0:0:0:0:
64,128,52781,2,0,L|176:128,1,95.9999999999999,2|10,1:2|0:2,0:0:0:0:
304,128,53381,6,0,L|400:128,1,95.9999999999999,6|8,1:2|0:2,0:0:0:0:
304,176,53981,2,0,L|192:176,1,95.9999999999999,0|10,1:2|0:2,0:0:0:0:
64,224,54581,6,0,L|160:224,1,95.9999999999999,2|8,1:2|0:0,0:0:0:0:
256,208,55181,2,0,L|160:208,1,95.9999999999999,0|10,0:0|0:2,0:0:0:0:
224,208,55631,1,0,0:0:0:0:
304,208,55781,6,0,L|416:208,1,95.9999999999999,2|8,1:2|0:2,0:0:0:0:
272,240,56381,2,0,L|176:240,1,95.9999999999999,4|12,1:2|0:2,0:0:0:0:
320,192,56981,6,0,L|304:96,1,95.9999999999999,6|10,1:2|0:2,0:0:0:0:
160,80,57581,2,0,L|256:80,1,95.9999999999999,2|10,1:2|0:2,0:0:0:0:
400,64,58181,6,0,L|288:64,1,95.9999999999999,6|8,1:2|0:2,0:0:0:0:
208,128,58781,2,0,L|320:128,1,95.9999999999999,0|10,1:2|0:2,0:0:0:0:
160,192,59381,6,0,L|64:192,1,95.9999999999999,2|8,1:2|0:2,0:0:0:0:
160,240,59981,2,0,L|256:240,1,95.9999999999999,0|10,1:2|0:2,0:0:0:0:
320,240,60431,1,0,0:0:0:0:
400,240,60581,6,0,L|416:128,1,95.9999999999999,6|10,1:1|1:1,0:0:0:0:
288,160,61181,2,0,L|272:48,1,95.9999999999999,2|10,1:1|1:1,0:0:0:0:
432,48,61781,6,0,L|336:48,3,95.9999999999999,6|10|2|10,1:2|0:2|1:2|0:2,0:0:0:0:
192,64,62981,6,0,L|96:64,1,95.9999999999999,6|8,1:2|0:2,0:0:0:0:
192,64,63581,2,0,L|288:64,1,95.9999999999999,0|10,1:2|0:2,0:0:0:0:
352,80,64031,1,0,0:0:0:0:
272,128,64181,6,0,L|176:128,1,95.9999999999999,6|8,1:2|0:2,0:0:0:0:
128,128,64631,2,0,L|176:128,1,48,2|0,0:0|0:0,0:0:0:0:
272,128,65081,1,10,0:2:0:0:
416,160,65381,6,0,L|256:160,1,144,6|0,1:2|1:2,0:0:0:0:
178,224,65981,2,0,L|274:224,1,95.9999999999999,12|0,0:2|1:2,0:0:0:0:
256,192,66581,12,0,67481,1:2:0:0:
208,208,67781,6,0,P|160:192|112:112,2,144,6|2|10,1:2|0:0|0:2,0:0:0:0:
352,208,68981,6,0,P|384:160|336:80,1,144,2|2,1:2|0:0,0:0:0:0:
192,96,69881,1,10,0:2:0:0:
64,128,70181,6,0,L|208:128,2,144,2|2|10,1:2|0:0|0:2,0:0:0:0:
208,192,71381,6,0,L|320:192,1,95.9999999999999,2|10,1:2|0:2,0:0:0:0:
160,240,71981,2,0,L|48:240,1,95.9999999999999,2|10,1:2|0:2,0:0:0:0:
192,304,72581,6,0,L|336:304,2,144,2|2|10,1:2|0:0|0:2,0:0:0:0:
304,304,73781,6,0,P|368:288|384:208,1,144,2|2,1:2|0:0,0:0:0:0:
240,208,74681,1,10,0:2:0:0:
128,208,74981,6,0,L|112:48,1,144,2|2,1:2|0:0,0:0:0:0:
256,64,75881,1,10,0:2:0:0:
384,64,76181,5,2,1:2:0:0:
224,112,76481,2,0,L|112:112,2,95.9999999999999,10|2|10,0:0|1:2|0:0,0:0:0:0:
368,208,77381,6,0,P|416:192|464:112,2,144,6|2|10,1:2|0:0|0:2,0:0:0:0:
256,224,78581,2,0,L|400:224,2,144,2|2|10,1:2|0:0|0:2,0:0:0:0:
144,224,79781,6,0,P|96:176|160:144,1,144,2|2,1:2|0:0,0:0:0:0:
288,128,80681,1,10,0:2:0:0:
176,128,80981,6,0,L|64:128,2,95.9999999999999,2|10|2,1:2|0:2|1:2,0:0:0:0:
320,160,81881,1,8,0:2:0:0:
192,208,82181,6,0,L|32:208,2,144,2|2|10,1:2|0:0|0:2,0:0:0:0:
320,208,83381,2,0,L|480:208,2,144,2|2|10,1:2|0:0|0:2,0:0:0:0:
160,240,84581,6,0,P|80:208|64:144,1,144,6|0,1:2|1:2,0:0:0:0:
144,144,85181,2,0,P|224:112|240:48,1,144,14|0,0:2|1:2,0:0:0:0:
160,64,85781,6,0,L|48:64,2,95.9999999999999,14|4|6,0:2|1:2|1:2,0:0:0:0:
304,64,86681,1,6,1:2:0:0:
448,80,86981,6,0,L|448:144,2,48,2|2|0,0:1|0:1|0:0,0:0:0:0:
322,189,87581,1,4,1:2:0:0:
274,189,87731,1,0,0:0:0:0:
322,189,87881,1,10,0:2:0:0:
464,240,88181,6,0,L|352:240,1,95.9999999999999,2|8,1:2|0:2,0:0:0:0:
224,224,88781,2,0,L|160:224,2,48,2|0|10,1:2|0:0|0:2,0:0:0:0:
368,192,89381,6,0,L|464:192,2,95.9999999999999,2|8|2,1:2|0:2|1:2,0:0:0:0:
320,192,90131,1,0,0:0:0:0:
272,192,90281,1,10,0:2:0:0:
112,208,90581,6,0,L|208:208,1,95.9999999999999,2|8,1:2|0:2,0:0:0:0:
256,176,91031,1,2,0:0:0:0:
208,208,91181,2,0,L|112:208,1,95.9999999999999,2|10,1:2|0:2,0:0:0:0:
256,144,91781,6,0,L|368:144,2,95.9999999999999,2|8|2,1:2|0:2|1:2,0:0:0:0:
208,112,92531,1,0,0:0:0:0:
256,64,92681,1,10,0:2:0:0:
400,64,92981,6,0,L|512:64,1,95.9999999999999,2|8,1:2|0:2,0:0:0:0:
352,128,93581,1,2,1:2:0:0:
304,128,93731,1,0,0:0:0:0:
256,128,93881,1,10,0:2:0:0:
112,192,94181,6,0,L|224:192,2,95.9999999999999,2|8|2,1:2|0:2|1:2,0:0:0:0:
64,192,94931,1,0,0:0:0:0:
16,192,95081,1,10,0:2:0:0:
176,256,95381,6,0,L|288:256,1,95.9999999999999,2|8,1:2|0:2,0:0:0:0:
320,256,95831,1,2,0:0:0:0:
272,256,95981,1,2,1:2:0:0:
144,240,96281,2,0,L|96:240,1,48,10|0,0:2|0:0,0:0:0:0:
144,240,96581,6,0,L|144:128,1,95.9999999999999,2|4,1:1|1:2,0:0:0:0:
288,112,97181,1,2,1:2:0:0:
336,112,97331,1,0,0:0:0:0:
288,112,97481,1,10,0:2:0:0:
144,128,97781,6,0,L|240:128,1,95.9999999999999,2|0,1:2|1:2,0:0:0:0:
384,192,98381,1,8,0:2:0:0:
336,192,98531,1,0,0:0:0:0:
288,192,98681,1,0,1:2:0:0:
144,192,98981,6,0,L|32:192,2,95.9999999999999,4|0|8,1:2|0:0|0:2,0:0:0:0:
192,192,99731,1,0,0:0:0:0:
240,192,99881,1,0,1:2:0:0:
384,192,100181,6,0,L|496:192,1,95.9999999999999,0|0,1:2|1:2,0:0:0:0:
432,192,100631,1,0,1:2:0:0:
384,192,100781,2,0,L|272:192,1,95.9999999999999,8|4,0:2|1:2,0:0:0:0:
128,192,101381,6,0,L|112:80,1,95.9999999999999,4|8,1:2|0:2,0:0:0:0:
256,128,101981,2,0,L|272:64,1,48,2|0,1:2|1:2,0:0:0:0:
208,48,102281,1,8,0:2:0:0:
64,48,102581,6,0,L|176:48,1,95.9999999999999,4|8,1:2|0:2,0:0:0:0:
304,112,103181,1,2,1:2:0:0:
256,112,103331,1,0,1:2:0:0:
208,112,103481,1,8,0:2:0:0:
352,160,103781,6,0,P|400:192|336:240,1,144,4|0,1:2|1:2,0:0:0:0:
272,240,104381,2,0,L|160:240,1,95.9999999999999,12|0,0:2|1:2,0:0:0:0:
336,304,104981,6,0,L|448:304,1,95.9999999999999,12|4,0:2|1:2,0:0:0:0:
288,256,105581,2,0,L|224:256,2,48,4|0|0,1:2|1:2|1:2,0:0:0:0:
432,256,106181,5,6,0:2:0:0:
256,144,107381,1,2,0:0:0:0:
80,256,108581,5,2,0:0:0:0:
256,144,109781,1,2,0:0:0:0:
480,272,110981,5,2,0:0:0:0:
256,192,112181,1,2,0:0:0:0:
32,272,113381,5,2,0:0:0:0:
256,192,114581,1,2,0:0:0:0:
384,192,114881,2,0,L|400:96,2,95.9999999999999,2|2|2,0:0|0:0|0:0,0:0:0:0:
256,192,115781,5,6,0:2:0:0:
32,272,116981,1,2,0:0:0:0:
256,192,118181,5,2,0:0:0:0:
480,272,119381,1,2,0:0:0:0:
256,192,120581,6,0,L|112:192,2,144,2|0|0,0:0|0:0|0:0,0:0:0:0:
368,112,121781,6,0,L|224:112,2,144,2|0|0,0:0|0:0|0:0,0:0:0:0:
464,112,122981,6,0,L|368:112,1,95.9999999999999,4|0,1:2|0:0,0:0:0:0:
304,112,123431,1,0,1:2:0:0:
240,112,123581,2,0,L|144:112,1,95.9999999999999,12|0,0:2|1:2,0:0:0:0:
256,192,124181,12,8,125081,0:2:0:0:
288,272,125381,6,0,L|480:272,2,192,6|2|10,1:2|0:0|0:2,0:0:0:0:
160,288,126581,6,0,P|108:254|176:160,1,192,2|2,1:2|0:0,0:0:0:0:
336,160,127481,1,10,0:2:0:0:
176,128,127781,6,0,B|78:110|78:110|52:17,1,192,2|2,1:2|0:0,0:0:0:0:
224,48,128681,1,10,0:2:0:0:
112,96,128981,6,0,L|96:224,1,128,2|8,1:2|0:2,0:0:0:0:
224,192,129581,2,0,L|240:320,1,128,0|10,1:2|0:2,0:0:0:0:
80,320,130181,6,0,L|246:202,2,192,2|2|10,1:2|0:0|0:2,0:0:0:0:
208,320,131381,2,0,L|240:112,1,192,2|2,1:2|0:0,0:0:0:0:
48,128,132281,1,10,0:2:0:0:
208,144,132581,6,0,L|375:239,2,192,2|2|10,1:2|0:0|0:2,0:0:0:0:
320,208,133781,5,2,1:2:0:0:
160,176,134081,2,0,L|32:176,2,128,10|2|10,0:0|1:2|0:0,0:0:0:0:
304,176,134981,6,0,L|496:176,2,192,6|2|10,1:2|0:0|0:2,0:0:0:0:
160,192,136181,2,0,L|336:96,1,192,2|2,1:2|0:0,0:0:0:0:
496,176,137081,1,10,0:2:0:0:
320,176,137381,6,0,P|240:208|208:320,2,192,2|2|10,1:2|0:0|0:2,0:0:0:0:
176,160,138581,6,0,L|32:160,2,128,2|10|2,1:2|0:2|1:2,0:0:0:0:
304,160,139481,1,10,0:2:0:0:
448,160,139781,6,0,P|432:96|304:32,1,192,2|2,1:2|0:0,0:0:0:0:
144,48,140681,1,10,0:2:0:0:
304,48,140981,6,0,P|352:80|291:180,1,192,2|2,1:2|0:0,0:0:0:0:
112,176,141881,1,10,0:2:0:0:
272,240,142181,6,0,P|343:225|416:112,1,192,6|0,1:2|1:2,0:0:0:0:
336,160,142781,2,0,P|264:145|192:32,1,192,12|0,0:2|1:2,0:0:0:0:
288,48,143381,6,0,L|288:192,1,128,12|4,0:2|1:2,0:0:0:0:
144,192,143981,2,0,L|0:192,1,128,4|0,1:2|1:2,0:0:0:0:
256,192,144581,12,0,148481,1:0:0:0:
