osu file format v14

[General]
AudioFilename: audio.mp3
AudioLeadIn: 0
PreviewTime: 106181
Countdown: 0
SampleSet: Soft
StackLeniency: 0.7
Mode: 2
LetterboxInBreaks: 0
WidescreenStoryboard: 0

[Editor]
DistanceSpacing: 1.2
BeatDivisor: 4
GridSize: 32
TimelineZoom: 1

[Metadata]
Title:Cross Over
TitleUnicode:Cross†Over
Artist:HyuN feat. LyuU
ArtistUnicode:HyuN feat. LyuU
Creator:Razor Sharp
Version:Parallel
Source:osu!
Tags:fa featured artist nelly autols spectator rocma autofanboy roxy migurdia Realazy AFB alienflybot Arthas _Asriel Benita Electronic Korean hyunesis ft. Digital Step Core Artcore PUMP IT UP PRIME PIU Crossover Benny-
BeatmapID:2563508
BeatmapSetID:1233114

[Difficulty]
HPDrainRate:4
CircleSize:4.5
OverallDifficulty:9.8
ApproachRate:9.8
SliderMultiplier:2
SliderTickRate:2

[Events]
//Background and Video events
0,0,"dreamy-world-background-13.jpg",0,0
//Break Periods
//Storyboard Layer 0 (Background)
//Storyboard Layer 1 (Fail)
//Storyboard Layer 2 (Pass)
//Storyboard Layer 3 (Foreground)
//Storyboard Layer 4 (Overlay)
//Storyboard Sound Samples

[TimingPoints]
581,300,4,2,1,30,1,0
8981,-50,4,2,1,50,0,0
9281,-100,4,2,1,50,0,0
10181,-83.3333333333333,4,2,1,70,0,0
20081,-66.6666666666667,4,2,1,70,0,0
20381,-83.3333333333333,4,2,1,70,0,0
29381,-100,4,2,1,70,0,0
56681,-83.3333333333333,4,2,1,70,0,0
56981,-100,4,2,1,70,0,0
67781,-83.3333333333333,4,2,1,70,0,1
87281,-66.6666666666667,4,2,1,70,0,1
87581,-83.3333333333333,4,2,1,70,0,0
106181,-100,4,2,1,70,0,0
125381,-83.3333333333333,4,2,1,70,0,1
144581,-100,4,2,1,70,0,0

[Colours]
Combo1 : 255,128,64
Combo2 : 0,0,255
Combo3 : 255,128,255
Combo4 : 128,255,128

[HitObjects]
111,194,581,6,0,L|160:107,2,100,2|2|2,1:2|0:0|1:2,0:0:0:0:
210,195,1031,1,2,0:0:0:0:
60,277,1181,1,0,0:0:0:0:
21,248,1256,1,0,0:0:0:0:
19,199,1331,1,0,0:0:0:0:
57,169,1406,1,0,0:0:0:0:
132,128,1481,2,0,L|82:128,3,50,0|0|0|0,0:0|0:0|0:0|0:0,0:0:0:0:
182,88,1781,6,0,L|231:175,1,100,0|0,1:0|0:0,0:0:0:0:
132,193,2081,2,0,L|83:280,1,100,0|0,1:0|0:0,0:0:0:0:
233,334,2381,1,0,0:0:0:0:
268,301,2456,1,0,0:0:0:0:
268,252,2531,1,0,0:0:0:0:
231,220,2606,1,0,0:0:0:0:
156,146,2681,2,0,L|101:146,3,50,0|0|0|0,0:0|0:0|0:0|0:0,0:0:0:0:
256,138,2981,6,0,L|305:51,2,100,2|2|2,1:2|0:0|1:2,0:0:0:0:
155,51,3431,1,2,0:0:0:0:
305,129,3581,1,0,0:0:0:0:
341,161,3656,1,0,0:0:0:0:
341,210,3731,1,0,0:0:0:0:
306,244,3806,1,0,0:0:0:0:
231,296,3881,2,0,L|281:296,3,50,0|0|0|0,0:0|0:0|0:0|0:0,0:0:0:0:
131,233,4181,6,0,L|82:146,2,100,2|2|2,1:2|0:0|1:2,0:0:0:0:
230,229,4631,1,2,0:0:0:0:
80,265,4781,1,0,0:0:0:0:
93,217,4856,1,0,0:0:0:0:
129,183,4931,1,2,0:0:0:0:
177,171,5006,1,0,0:0:0:0:
277,168,5081,2,0,L|302:168,1,25,2|0,0:0|0:0,0:0:0:0:
324,139,5156,2,0,L|301:116,1,25,0|0,0:0|0:0,0:0:0:0:
352,102,5231,2,0,L|323:92,1,25,2|0,0:0|0:0,0:0:0:0:
367,62,5306,2,0,L|335:62,1,25,0|0,0:0|0:0,0:0:0:0:
190,59,5381,6,0,L|141:146,1,100,2|2,1:2|0:0,0:0:0:0:
240,155,5681,2,0,L|289:242,1,100,2|2,1:2|0:0,0:0:0:0:
139,292,5981,1,0,0:0:0:0:
99,264,6056,1,0,0:0:0:0:
99,216,6131,1,0,0:0:0:0:
139,189,6206,1,0,0:0:0:0:
214,189,6281,2,0,L|164:189,3,50,0|0|0|0,0:0|0:0|0:0|0:0,0:0:0:0:
264,118,6581,6,0,L|313:205,1,100,0|0,1:0|0:0,0:0:0:0:
214,221,6881,2,0,L|165:134,1,100,0|0,1:0|0:0,0:0:0:0:
315,281,7181,1,0,0:0:0:0:
349,246,7256,1,0,0:0:0:0:
346,198,7331,1,0,0:0:0:0:
308,168,7406,1,0,0:0:0:0:
233,151,7481,2,0,L|177:151,3,50,0|0|0|0,0:0|0:0|0:0|0:0,0:0:0:0:
333,47,7781,6,0,L|382:134,2,100,2|2|2,1:2|0:0|1:2,0:0:0:0:
432,46,8231,1,0,0:0:0:0:
282,51,8381,2,0,L|277:102,1,50,0|0,0:0|0:0,0:0:0:0:
351,108,8531,2,0,L|356:159,1,50,0|0,0:0|0:0,0:0:0:0:
256,169,8681,2,0,L|251:220,1,50,0|0,0:0|0:0,0:0:0:0:
401,223,8831,2,0,L|406:274,1,50,0|0,0:0|0:0,0:0:0:0:
254,275,8981,6,8,L|168:225,3,100
305,311,9281,2,0,P|364:311|420:216,1,150,8|0,0:0|0:0,0:0:0:0:
192,128,9581,6,0,L|158:127,7,25,4|0|0|0|0|0|0|0,0:0|0:0|0:0|0:0|0:0|0:0|0:0|0:0,0:0:0:0:
309,120,9881,1,4,1:2:0:0:
459,121,9956,1,4,1:2:0:0:
309,120,10031,1,4,1:2:0:0:
459,121,10106,1,4,1:2:0:0:
249,62,10181,6,0,L|115:62,1,119.999996337891,6|0,1:2|0:0,0:0:0:0:
271,80,10481,2,0,L|405:80,1,119.999996337891,8|2,0:2|0:0,0:0:0:0:
151,183,10781,1,2,1:2:0:0:
391,284,10931,1,0,0:0:0:0:
151,288,11081,2,0,L|31:288,1,119.999996337891,10|0,0:2|0:0,0:0:0:0:
271,161,11381,6,0,L|138:161,1,119.999996337891,2|0,1:2|0:0,0:0:0:0:
293,143,11681,2,0,L|415:144,1,119.999996337891,8|2,0:2|0:0,0:0:0:0:
173,55,11981,1,2,1:2:0:0:
413,111,12131,1,0,0:0:0:0:
173,55,12281,2,0,L|301:55,1,119.999996337891,10|0,0:2|0:0,0:0:0:0:
53,175,12581,6,0,L|187:175,1,119.999996337891,2|0,1:2|0:0,0:0:0:0:
311,136,12881,2,0,L|172:136,1,119.999996337891,8|2,0:2|0:0,0:0:0:0:
431,294,13181,1,2,1:2:0:0:
191,243,13331,1,0,0:0:0:0:
431,152,13481,2,0,L|299:153,1,119.999996337891,10|0,0:2|0:0,0:0:0:0:
69,117,13781,6,0,L|193:117,2,119.999996337891,2|0|8,1:2|0:0|0:2,0:0:0:0:
309,225,14231,2,0,L|246:225,1,59.9999981689454,2|2,0:0|0:0,0:0:0:0:
399,116,14381,2,0,L|502:189,1,119.999996337891,2|2,1:2|0:0,0:0:0:0:
353,194,14681,2,0,L|484:195,1,119.999996337891,10|0,0:2|0:0,0:0:0:0:
193,269,14981,6,0,L|321:269,1,119.999996337891,2|0,1:2|0:0,0:0:0:0:
171,243,15281,2,0,L|46:243,1,119.999996337891,8|2,0:2|0:0,0:0:0:0:
291,92,15581,1,2,1:2:0:0:
51,67,15731,1,0,0:0:0:0:
291,92,15881,2,0,L|433:92,1,119.999996337891,10|0,0:2|0:0,0:0:0:0:
171,151,16181,6,0,L|306:151,1,119.999996337891,2|0,1:2|0:0,0:0:0:0:
423,207,16481,2,0,L|288:207,1,119.999996337891,8|2,0:2|0:0,0:0:0:0:
231,206,16706,1,2,0:0:0:0:
81,200,16781,1,2,1:2:0:0:
321,83,16931,1,0,0:0:0:0:
81,200,17081,2,0,L|212:200,1,119.999996337891,10|0,0:2|0:0,0:0:0:0:
441,181,17381,6,0,L|321:181,1,119.999996337891,2|0,1:2|0:0,0:0:0:0:
456,228,17681,2,0,L|336:228,1,119.999996337891,8|2,0:2|0:0,0:0:0:0:
96,278,17981,1,2,1:2:0:0:
336,76,18131,1,0,0:0:0:0:
96,278,18281,2,0,L|243:278,1,119.999996337891,10|0,0:2|0:0,0:0:0:0:
456,137,18581,6,0,L|315:137,2,119.999996337891,2|0|8,1:2|0:0|0:2,0:0:0:0:
239,189,19031,2,0,L|318:189,1,59.9999981689454,2|2,0:0|0:0,0:0:0:0:
96,189,19181,2,0,L|230:189,1,119.999996337891,4|0,1:2|0:0,0:0:0:0:
261,134,19481,1,8,0:2:0:0:
21,54,19631,1,8,0:2:0:0:
261,134,19781,5,2,1:1:0:0:
411,132,19856,1,2,0:1:0:0:
261,134,19931,1,2,0:1:0:0:
411,132,20006,1,2,0:1:0:0:
261,134,20081,2,0,P|147:164|110:277,1,225.000008583069,0|0,0:1|0:0,0:0:0:0:
291,285,20381,6,0,L|367:286,1,59.9999981689454,6|0,1:2|0:0,0:0:0:0:
201,210,20531,2,0,L|134:212,1,59.9999981689454,0|0,0:0|0:0,0:0:0:0:
293,67,20681,2,0,L|300:135,1,59.9999981689454,10|0,0:2|0:0,0:0:0:0:
215,134,20831,2,0,L|208:202,1,59.9999981689454,0|0,0:0|0:0,0:0:0:0:
374,236,20981,6,0,L|306:235,1,59.9999981689454,2|0,1:2|0:0,0:0:0:0:
381,212,21131,1,0,0:0:0:0:
432,182,21206,1,0,0:0:0:0:
461,130,21281,1,8,0:2:0:0:
459,70,21356,1,0,0:0:0:0:
427,20,21431,1,2,0:0:0:0:
374,0,21506,1,2,0:0:0:0:
224,51,21581,6,0,L|289:51,1,59.9999981689454,2|0,1:2|0:0,0:0:0:0:
134,105,21731,2,0,L|71:104,1,59.9999981689454,0|0,0:0|0:0,0:0:0:0:
224,157,21881,2,0,L|230:227,1,59.9999981689454,10|0,0:2|0:0,0:0:0:0:
147,242,22031,2,0,L|72:254,1,59.9999981689454,0|0,0:0|0:0,0:0:0:0:
238,320,22181,6,0,L|304:319,1,59.9999981689454,2|0,1:2|0:0,0:0:0:0:
215,297,22331,1,0,0:0:0:0:
162,277,22406,1,0,0:0:0:0:
161,220,22481,1,8,0:2:0:0:
214,200,22556,1,0,0:0:0:0:
292,231,22631,2,0,L|232:231,1,59.9999981689454,2|2,0:0|0:0,0:0:0:0:
82,140,22781,6,0,L|146:140,1,59.9999981689454,2|0,1:2|0:0,0:0:0:0:
292,76,22931,2,0,L|228:76,1,59.9999981689454,0|0,0:0|0:0,0:0:0:0:
82,82,23081,2,0,L|12:82,1,59.9999981689454,10|0,0:2|0:0,0:0:0:0:
103,104,23231,2,0,L|177:105,1,59.9999981689454,0|0,0:0|0:0,0:0:0:0:
313,135,23381,6,0,L|320:200,1,59.9999981689454,2|0,1:2|0:0,0:0:0:0:
234,201,23531,2,0,L|143:200,1,59.9999981689454,0|0,0:0|0:0,0:0:0:0:
89,207,23681,2,0,L|82:272,1,59.9999981689454,8|0,0:2|0:0,0:0:0:0:
235,288,23831,1,2,0:0:0:0:
385,294,23906,1,2,0:0:0:0:
235,288,23981,6,0,L|167:288,1,59.9999981689454,2|0,1:2|0:0,0:0:0:0:
325,210,24131,2,0,L|393:210,1,59.9999981689454,2|0,0:0|0:0,0:0:0:0:
235,155,24281,1,10,0:2:0:0:
184,128,24356,1,0,0:0:0:0:
185,71,24431,1,0,0:0:0:0:
237,48,24506,1,0,0:0:0:0:
402,77,24581,6,0,L|329:77,1,59.9999981689454,6|0,1:2|0:0,0:0:0:0:
408,99,24731,1,0,0:0:0:0:
454,136,24806,1,0,0:0:0:0:
480,189,24881,1,8,0:2:0:0:
480,249,24956,1,0,0:0:0:0:
454,302,25031,1,2,0:0:0:0:
407,339,25106,1,2,0:0:0:0:
258,306,25181,6,0,L|191:306,1,59.9999981689454,2|0,1:2|0:0,0:0:0:0:
348,220,25331,2,0,L|415:220,1,59.9999981689454,0|0,0:0|0:0,0:0:0:0:
258,306,25481,2,0,L|191:306,1,59.9999981689454,10|0,0:2|0:0,0:0:0:0:
280,291,25631,2,0,L|359:290,1,59.9999981689454,0|0,0:0|0:0,0:0:0:0:
110,306,25781,6,0,L|183:306,1,59.9999981689454,6|0,1:2|0:0,0:0:0:0:
104,285,25931,1,0,0:0:0:0:
57,247,26006,1,0,0:0:0:0:
31,194,26081,1,8,0:2:0:0:
31,134,26156,1,0,0:0:0:0:
57,81,26231,1,2,0:0:0:0:
104,44,26306,1,2,0:0:0:0:
254,37,26381,6,0,L|194:37,1,59.9999981689454,2|0,1:2|0:0,0:0:0:0:
344,172,26531,2,0,L|404:172,1,59.9999981689454,0|0,0:0|0:0,0:0:0:0:
254,86,26681,2,0,L|194:86,1,59.9999981689454,10|0,0:2|0:0,0:0:0:0:
276,101,26831,2,0,L|335:101,1,59.9999981689454,0|0,0:0|0:0,0:0:0:0:
186,151,26981,6,0,L|55:152,2,119.999996337891,4|0|0,1:2|0:0|0:0,0:0:0:0:
353,150,27431,2,0,L|288:150,1,59.9999981689454,0|0,1:2|0:0,0:0:0:0:
143,263,27581,2,0,L|280:263,1,119.999996337891,12|0,0:2|0:0,0:0:0:0:
34,178,27881,1,0,1:2:0:0:
274,97,28031,1,0,1:2:0:0:
34,178,28181,6,0,L|22:109,1,59.9999981689454,12|0,0:2|0:0,0:0:0:0:
96,116,28331,2,0,L|29:116,1,59.9999981689454,0|0,1:2|1:2,0:0:0:0:
195,143,28481,2,0,L|256:143,1,59.9999981689454,4|0,1:2|0:0,0:0:0:0:
183,142,28631,2,0,L|116:142,1,59.9999981689454,0|0,1:2|1:2,0:0:0:0:
274,346,28781,6,0,L|340:344,1,59.9999981689454,4|0,1:2|0:0,0:0:0:0:
184,284,28931,2,0,L|251:284,1,59.9999981689454,0|0,1:2|1:2,0:0:0:0:
102,272,29081,2,0,L|31:272,1,59.9999981689454,0|0,1:2|1:2,0:0:0:0:
193,193,29231,2,0,L|122:193,1,59.9999981689454,0|0,1:2|1:2,0:0:0:0:
323,336,29381,6,0,P|387:309|301:59,1,400,6|0,0:2|0:0,0:0:0:0:
118,67,30281,2,0,L|105:187,1,100,2|2,0:0|0:0,0:0:0:0:
258,145,30581,2,0,P|427:202|471:324,2,300,2|2|2,0:0|0:0|0:0,0:0:0:0:
158,148,31631,1,2,0:0:0:0:
308,301,31781,6,0,L|361:206,2,100,2|0|0,0:0|0:0|0:0,0:0:0:0:
158,328,32231,2,0,L|105:233,2,100,2|0|0,0:0|0:0|0:0,0:0:0:0:
308,328,32681,2,0,L|361:233,1,100,2|0,0:0|0:0,0:0:0:0:
207,209,32981,6,0,L|154:114,1,100,0|0,0:0|0:0,0:0:0:0:
308,73,33281,1,0,0:0:0:0:
208,73,33431,2,0,L|155:168,1,100,0|0,0:0|0:0,0:0:0:0:
310,193,33731,1,0,0:0:0:0:
160,280,33881,2,0,L|208:192,1,100,2|2,0:0|0:0,0:0:0:0:
359,284,34181,6,0,P|422:274|479:149,1,200,2|0,0:0|0:0,0:0:0:0:
382,152,34631,2,0,L|329:57,2,100,0|0|0,0:0|0:0|0:0,0:0:0:0:
232,159,35081,2,0,L|183:246,1,100,2|2,0:0|0:0,0:0:0:0:
33,199,35381,6,0,L|81:286,2,100,2|0|0,0:0|0:0|0:0,0:0:0:0:
183,201,35831,2,0,L|134:113,2,100,2|0|0,0:0|0:0|0:0,0:0:0:0:
33,199,36281,2,0,L|81:286,1,100,2|2,0:0|0:0,0:0:0:0:
231,251,36581,6,0,L|279:338,2,100,2|0|0,0:0|0:0|0:0,0:0:0:0:
381,209,37031,2,0,L|333:296,2,100,2|0|0,0:0|0:0|0:0,0:0:0:0:
231,157,37481,2,0,L|183:70,1,100,2|0,0:0|0:0,0:0:0:0:
333,270,37781,6,0,L|381:183,1,100,0|0,0:0|0:0,0:0:0:0:
231,234,38081,1,0,0:0:0:0:
331,234,38231,2,0,L|384:139,1,100,0|0,0:0|0:0,0:0:0:0:
229,114,38531,1,0,0:0:0:0:
379,27,38681,2,0,L|331:115,1,100,2|2,0:0|0:0,0:0:0:0:
66,213,38981,6,0,P|85:273|206:328,1,200,6|0,1:2|0:0,0:0:0:0:
51,180,39431,2,0,P|70:240|191:295,1,200,2|0,0:0|0:0,0:0:0:0:
36,149,39881,2,0,P|55:209|176:264,1,200,2|0,0:0|0:0,0:0:0:0:
323,293,40331,6,0,P|304:233|183:178,1,200,2|2,0:0|0:0,0:0:0:0:
338,102,40781,2,0,L|233:102,1,100,2|0,0:0|0:0,0:0:0:0:
388,171,41081,2,0,L|283:171,1,100,2|0,0:0|0:0,0:0:0:0:
138,212,41381,6,0,L|358:212,1,200,2|0,0:0|0:0,0:0:0:0:
188,149,41831,2,0,L|408:149,1,200,2|0,0:0|0:0,0:0:0:0:
238,85,42281,2,0,L|458:85,1,200,2|0,0:0|0:0,0:0:0:0:
288,40,42731,2,0,L|488:40,1,200,2|0,0:0|0:0,0:0:0:0:
338,122,43181,2,0,L|443:122,1,100,2|0,0:0|0:0,0:0:0:0:
288,192,43481,2,0,L|393:192,1,100,2|0,0:0|0:0,0:0:0:0:
168,343,43781,6,0,P|74:314|32:227,1,200,6|0,0:0|0:0,0:0:0:0:
183,331,44231,2,0,P|89:302|47:215,1,200,2|0,0:0|0:0,0:0:0:0:
198,295,44681,2,0,P|104:266|62:179,1,200,2|0,0:0|0:0,0:0:0:0:
213,145,45131,6,0,L|322:145,1,100,2|0,0:0|0:0,0:0:0:0:
213,145,45431,1,2,0:0:0:0:
363,82,45581,2,0,L|263:82,1,100,2|0,0:0|0:0,0:0:0:0:
413,138,45881,2,0,L|313:138,1,100,2|0,0:0|0:0,0:0:0:0:
93,303,46181,5,6,0:0:0:0:
68,259,46256,1,0,0:0:0:0:
55,211,46331,1,0,0:0:0:0:
55,161,46406,1,0,0:0:0:0:
68,113,46481,1,0,0:0:0:0:
93,69,46556,1,0,0:0:0:0:
193,54,46631,5,2,0:0:0:0:
218,98,46706,1,0,0:0:0:0:
231,146,46781,1,0,0:0:0:0:
231,196,46856,1,0,0:0:0:0:
218,244,46931,1,0,0:0:0:0:
193,288,47006,1,0,0:0:0:0:
93,303,47081,5,2,0:0:0:0:
56,270,47156,1,0,0:0:0:0:
55,221,47231,1,0,0:0:0:0:
88,186,47306,1,0,0:0:0:0:
238,202,47381,6,0,L|246:140,1,50,0|0,1:2|0:0,0:0:0:0:
169,152,47531,2,0,L|166:101,1,50,0|0,0:0|0:0,0:0:0:0:
266,100,47681,2,0,L|269:49,1,50
119,103,47831,2,0,L|116:52,1,50
291,56,47981,6,0,L|350:56,1,50,0|0,1:2|0:0,0:0:0:0:
191,252,48131,2,0,L|141:252,1,50,0|0,1:2|0:0,0:0:0:0:
291,56,48281,2,0,L|350:56,1,50,0|0,1:2|0:0,0:0:0:0:
191,252,48431,1,0,1:2:0:0:
40,306,48506,1,0,1:2:0:0:
191,252,48581,6,0,L|65:252,1,100,6|0,1:2|0:0,0:0:0:0:
226,215,48881,2,0,L|346:215,1,100,8|0,0:2|0:0,0:0:0:0:
188,187,49181,2,0,L|78:187,1,100,0|0,1:2|0:0,0:0:0:0:
308,56,49481,2,0,L|193:56,1,100,10|0,0:2|0:0,0:0:0:0:
428,194,49781,6,0,L|302:194,2,100,2|0|8,1:2|0:0|0:2,0:0:0:0:
208,262,50231,2,0,L|308:262,2,100,2|0|0,0:0|1:2|0:0,0:0:0:0:
428,194,50681,2,0,L|302:194,1,100,10|0,0:2|0:0,0:0:0:0:
108,140,50981,6,0,L|208:140,2,100,6|0|10,1:1|0:0|1:1,0:0:0:0:
328,293,51431,2,0,L|454:293,2,100,2|2|0,0:0|1:1|0:0,0:0:0:0:
188,280,51881,2,0,L|185:255,1,25,10|0,1:1|0:0,0:0:0:0:
374,247,52031,2,0,L|346:237,1,25,2|0,1:1|0:0,0:0:0:0:
162,105,52181,5,6,1:2:0:0:
256,109,52281,1,2,0:0:0:0:
163,107,52381,1,2,0:0:0:0:
330,46,52481,5,10,0:2:0:0:
236,50,52581,1,2,0:0:0:0:
329,48,52681,1,2,0:0:0:0:
162,299,52781,5,2,1:2:0:0:
68,303,52881,1,2,0:0:0:0:
161,301,52981,1,2,0:0:0:0:
328,223,53081,5,10,0:2:0:0:
234,223,53181,1,2,0:0:0:0:
140,223,53281,1,2,0:0:0:0:
307,104,53381,6,0,L|436:104,1,100,6|0,1:2|0:0,0:0:0:0:
268,125,53681,2,0,L|139:125,1,100,8|0,0:2|0:0,0:0:0:0:
29,143,53981,2,0,L|158:143,1,100,0|0,1:2|0:0,0:0:0:0:
349,296,54281,2,0,L|220:296,1,100,10|0,0:2|0:0,0:0:0:0:
469,137,54581,6,0,L|365:137,2,100,2|0|8,1:2|0:0|0:0,0:0:0:0:
248,82,55031,2,0,L|356:82,1,100,2|0,0:0|0:0,0:0:0:0:
487,84,55331,1,0,0:0:0:0:
266,206,55481,2,0,L|374:206,1,100,10|0,0:2|0:0,0:0:0:0:
146,300,55781,6,0,L|42:300,2,100,2|0|8,1:2|0:0|0:2,0:0:0:0:
285,299,56231,1,2,0:0:0:0:
65,192,56381,2,0,L|201:192,1,100,4|0,1:2|0:0,0:0:0:0:
386,99,56681,2,0,L|294:99,2,59.9999981689454,12|0|0,0:2|0:0|0:0,0:0:0:0:
166,163,56981,6,0,L|280:163,1,100,6|0,1:2|0:0,0:0:0:0:
275,232,57206,1,2,0:0:0:0:
175,248,57281,1,10,0:2:0:0:
134,221,57356,1,0,0:0:0:0:
134,173,57431,1,0,0:0:0:0:
174,147,57506,1,0,0:0:0:0:
275,135,57581,6,0,L|329:135,3,50,2|2|2|2,1:2|0:0|0:0|0:0,0:0:0:0:
175,76,57881,2,0,L|123:76,1,50,10|2,0:2|0:0,0:0:0:0:
188,46,58031,2,0,L|136:46,1,50,2|2,0:0|0:0,0:0:0:0:
288,282,58181,6,0,L|396:282,1,100,6|0,1:2|0:0,0:0:0:0:
254,240,58481,2,0,L|131:240,1,100,8|0,0:2|0:0,0:0:0:0:
266,156,58781,2,0,L|143:156,1,100,0|0,1:2|0:0,0:0:0:0:
386,68,59081,2,0,L|263:68,1,100,10|0,0:2|0:0,0:0:0:0:
66,147,59381,6,0,L|189:147,2,100,2|0|8,1:2|0:0|0:2,0:0:0:0:
286,325,59831,2,0,L|386:325,2,100,2|0|0,0:0|1:2|0:0,0:0:0:0:
66,147,60281,2,0,L|189:147,1,100,10|0,0:2|0:0,0:0:0:0:
386,152,60581,6,0,L|391:183,1,25,6|0,1:1|0:0,0:0:0:0:
255,194,60731,1,0,0:0:0:0:
389,244,60881,2,0,L|381:272,1,25,10|0,1:1|0:0,0:0:0:0:
248,279,61031,1,2,0:0:0:0:
382,313,61181,2,0,L|363:347,1,25,2|0,1:1|0:0,0:0:0:0:
235,331,61331,1,0,0:0:0:0:
369,68,61481,2,0,L|342:68,1,25,10|0,1:1|0:0,0:0:0:0:
178,127,61631,2,0,L|205:127,1,25,2|0,1:1|0:0,0:0:0:0:
369,198,61781,5,6,1:2:0:0:
462,198,61881,1,0,0:0:0:0:
369,198,61981,1,0,0:0:0:0:
202,259,62081,5,10,0:2:0:0:
295,259,62181,1,0,0:0:0:0:
202,259,62281,1,0,0:0:0:0:
369,323,62381,5,2,1:2:0:0:
276,323,62481,1,0,0:0:0:0:
369,323,62581,1,0,0:0:0:0:
202,139,62681,5,10,0:2:0:0:
109,139,62781,1,0,0:0:0:0:
202,139,62881,1,0,0:0:0:0:
369,93,62981,6,0,L|259:93,1,100,6|0,1:2|0:0,0:0:0:0:
129,98,63281,2,0,L|251:97,1,100,8|0,0:2|0:0,0:0:0:0:
368,109,63581,2,0,L|250:108,1,100,0|0,1:2|0:0,0:0:0:0:
47,164,63881,2,0,L|174:165,1,100,10|0,0:2|0:0,0:0:0:0:
367,214,64181,6,0,L|257:214,2,100,6|0|8,1:2|0:0|0:2,0:0:0:0:
147,293,64631,2,0,L|37:293,2,100,2|0|0,0:0|0:0|0:0,0:0:0:0:
367,214,65081,2,0,L|467:214,1,100,10|0,0:2|0:0,0:0:0:0:
246,160,65381,6,0,L|183:75,2,100,6|0|0,1:2|0:0|0:0,0:0:0:0:
386,160,65831,2,0,L|324:160,1,50,0|0,1:2|0:0,0:0:0:0:
186,226,65981,5,12,0:2:0:0:
184,177,66056,1,0,0:0:0:0:
214,138,66131,1,0,0:0:0:0:
262,127,66206,1,0,0:0:0:0:
112,53,66281,2,0,L|105:113,1,50,0|0,1:2|0:0,0:0:0:0:
256,262,66431,2,0,L|263:322,1,50,0|0,1:2|0:0,0:0:0:0:
413,309,66581,6,0,L|420:249,1,50,12|0,0:2|0:0,0:0:0:0:
267,167,66731,2,0,L|319:167,1,50,0|0,1:2|1:2,0:0:0:0:
165,169,66881,2,0,L|158:229,1,50,4|0,1:2|0:0,0:0:0:0:
311,311,67031,2,0,L|259:311,1,50,0|0,1:2|1:2,0:0:0:0:
413,309,67181,6,0,L|420:249,1,50,4|0,1:2|0:0,0:0:0:0:
267,167,67331,2,0,L|319:167,1,50,0|0,1:2|1:2,0:0:0:0:
165,95,67481,2,0,L|113:95,1,50,0|0,1:2|1:2,0:0:0:0:
266,231,67631,2,0,L|318:231,1,50,0|0,1:2|1:2,0:0:0:0:
165,95,67781,6,0,L|24:95,2,119.999996337891,6|0|8,1:2|0:0|0:2,0:0:0:0:
405,140,68231,2,0,L|264:140,2,119.999996337891,2|0|0,0:0|1:2|0:0,0:0:0:0:
165,277,68681,2,0,L|285:277,1,119.999996337891,10|0,0:2|0:0,0:0:0:0:
45,106,68981,6,0,L|186:106,2,119.999996337891,2|0|8,1:2|0:0|0:2,0:0:0:0:
285,242,69431,2,0,L|405:242,2,119.999996337891,2|0|0,0:0|1:2|0:0,0:0:0:0:
45,106,69881,2,0,L|186:106,1,119.999996337891,10|0,0:2|0:0,0:0:0:0:
405,191,70181,6,0,L|265:191,1,119.999996337891,2|0,1:2|0:0,0:0:0:0:
141,190,70481,1,8,0:2:0:0:
381,271,70631,2,0,L|241:271,1,119.999996337891,2|0,0:0|1:2,0:0:0:0:
117,270,70931,1,0,0:0:0:0:
357,329,71081,2,0,L|217:329,1,119.999996337891,10|0,0:2|0:0,0:0:0:0:
478,180,71381,6,0,L|356:179,1,119.999996337891,2|0,1:2|0:0,0:0:0:0:
218,141,71681,2,0,L|344:142,1,119.999996337891,10|0,0:2|0:0,0:0:0:0:
476,98,71981,2,0,L|354:97,1,119.999996337891,2|0,1:2|0:0,0:0:0:0:
219,51,72281,2,0,L|345:52,1,119.999996337891,10|0,0:2|0:0,0:0:0:0:
98,230,72581,6,0,L|229:230,2,119.999996337891,2|0|8,1:2|0:0|0:2,0:0:0:0:
338,127,73031,2,0,L|199:127,1,119.999996337891,2|0,0:0|1:2,0:0:0:0:
74,127,73331,1,0,0:0:0:0:
314,187,73481,2,0,L|175:187,1,119.999996337891,10|0,0:2|0:0,0:0:0:0:
434,67,73781,6,0,L|303:67,2,119.999996337891,2|0|8,1:2|0:0|0:2,0:0:0:0:
194,170,74231,2,0,L|333:170,1,119.999996337891,2|0,0:0|1:2,0:0:0:0:
458,170,74531,1,0,0:0:0:0:
218,110,74681,2,0,L|357:110,1,119.999996337891,10|0,0:2|0:0,0:0:0:0:
98,282,74981,6,0,L|227:282,2,119.999996337891,2|0|8,1:2|0:0|0:2,0:0:0:0:
338,142,75431,2,0,L|209:142,2,119.999996337891,2|0|0,0:0|1:2|0:0,0:0:0:0:
98,167,75881,2,0,L|225:167,1,119.999996337891,10|0,0:2|0:0,0:0:0:0:
457,206,76181,6,0,L|327:206,1,119.999996337891,2|0,1:2|0:0,0:0:0:0:
96,286,76481,1,10,0:0:0:0:
336,211,76631,1,0,0:0:0:0:
96,119,76781,2,0,L|231:119,1,119.999996337891,2|0,1:2|0:0,0:0:0:0:
456,119,77081,1,10,0:0:0:0:
216,51,77231,1,0,0:0:0:0:
456,47,77381,6,0,L|330:47,2,119.999996337891,6|0|8,1:2|0:0|0:2,0:0:0:0:
216,193,77831,2,0,L|90:193,2,119.999996337891,2|0|0,0:0|1:2|0:0,0:0:0:0:
456,290,78281,2,0,L|325:290,1,119.999996337891,10|0,0:2|0:0,0:0:0:0:
95,339,78581,6,0,L|221:339,2,119.999996337891,2|0|8,1:2|0:0|0:2,0:0:0:0:
335,193,79031,2,0,L|461:193,2,119.999996337891,2|0|0,0:0|1:2|0:0,0:0:0:0:
95,96,79481,2,0,L|226:96,1,119.999996337891,10|0,0:2|0:0,0:0:0:0:
456,106,79781,6,0,L|330:106,1,119.999996337891,2|0,1:2|0:0,0:0:0:0:
192,104,80081,1,8,0:2:0:0:
432,230,80231,2,0,L|306:230,1,119.999996337891,2|0,0:0|1:2,0:0:0:0:
168,228,80531,1,0,0:0:0:0:
409,318,80681,2,0,L|283:318,1,119.999996337891,10|0,0:2|0:0,0:0:0:0:
49,268,80981,6,0,L|183:268,1,119.999996337891,2|0,1:2|0:0,0:0:0:0:
313,268,81281,2,0,L|463:268,1,119.999996337891,10|0,0:2|0:0,0:0:0:0:
289,254,81581,2,0,L|165:254,1,119.999996337891,2|0,1:2|0:0,0:0:0:0:
312,239,81881,2,0,L|192:238,1,119.999996337891,8|0,0:2|0:0,0:0:0:0:
433,101,82181,6,0,L|301:101,1,119.999996337891,2|0,1:2|0:0,0:0:0:0:
169,100,82481,1,8,0:2:0:0:
408,237,82631,2,0,L|283:235,2,119.999996337891,2|0|0,0:0|0:0|0:0,0:0:0:0:
168,155,83081,1,10,0:2:0:0:
409,92,83231,1,0,0:0:0:0:
168,297,83381,6,0,L|300:297,1,119.999996337891,2|0,1:2|0:0,0:0:0:0:
432,298,83681,1,8,0:2:0:0:
193,161,83831,2,0,L|318:163,2,119.999996337891,2|0|0,0:0|0:0|0:0,0:0:0:0:
433,243,84281,1,10,0:2:0:0:
192,306,84431,1,0,0:0:0:0:
432,336,84581,5,6,1:2:0:0:
467,287,84656,1,0,0:0:0:0:
485,230,84731,1,0,0:0:0:0:
483,170,84806,1,0,0:0:0:0:
463,114,84881,1,0,0:0:0:0:
426,67,84956,1,0,0:0:0:0:
275,66,85031,2,0,L|213:66,1,59.9999981689454,0|0,1:2|0:0,0:0:0:0:
366,197,85181,6,0,L|376:263,1,59.9999981689454,14|0,0:2|0:0,0:0:0:0:
305,275,85331,2,0,L|224:280,1,59.9999981689454,0|0,0:0|0:0,0:0:0:0:
395,318,85481,2,0,L|326:321,1,59.9999981689454,0|0,1:2|0:0,0:0:0:0:
182,190,85631,2,0,L|251:193,1,59.9999981689454,0|0,1:2|0:0,0:0:0:0:
422,140,85781,6,0,L|426:71,1,59.9999981689454,14|0,0:2|0:0,0:0:0:0:
353,75,85931,2,0,L|414:75,1,59.9999981689454,2|2,1:2|1:2,0:0:0:0:
261,163,86081,2,0,L|187:162,1,59.9999981689454,4|0,1:2|0:0,0:0:0:0:
267,189,86231,2,0,L|206:189,1,59.9999981689454,2|2,1:2|1:2,0:0:0:0:
422,140,86381,6,0,L|483:140,1,59.9999981689454,6|2,1:2|1:2,0:0:0:0:
331,105,86531,2,0,L|392:105,1,59.9999981689454,2|2,1:2|1:2,0:0:0:0:
239,114,86681,2,0,L|175:127,1,59.9999981689454,6|2,1:2|1:2,0:0:0:0:
339,242,86831,2,0,L|417:241,1,59.9999981689454,2|2,1:2|1:2,0:0:0:0:
216,234,86981,5,2,0:1:0:0:
72,234,87056,1,2,0:1:0:0:
216,234,87131,1,2,0:1:0:0:
72,234,87206,1,2,0:1:0:0:
246,310,87281,2,0,P|314:306|400:165,1,225.000008583069,0|0,0:0|0:0,0:0:0:0:
249,136,87581,5,4,1:2:0:0:
464,144,87731,1,0,0:0:0:0:
249,136,87881,2,0,L|116:136,1,119.999996337891,10|0,0:2|0:0,0:0:0:0:
369,247,88181,6,0,L|503:248,1,119.999996337891,2|0,1:2|0:0,0:0:0:0:
344,247,88481,2,0,L|202:248,1,119.999996337891,8|2,0:2|0:0,0:0:0:0:
465,127,88781,1,2,1:2:0:0:
225,87,88931,1,0,0:0:0:0:
465,127,89081,2,0,L|314:127,1,119.999996337891,10|0,0:2|0:0,0:0:0:0:
104,199,89381,6,0,L|241:199,1,119.999996337891,2|0,1:2|0:0,0:0:0:0:
367,205,89681,2,0,L|499:204,1,119.999996337891,8|2,0:2|0:0,0:0:0:0:
246,110,89981,1,2,1:2:0:0:
486,115,90131,1,0,0:0:0:0:
246,110,90281,2,0,L|110:111,1,119.999996337891,10|0,0:2|0:0,0:0:0:0:
369,220,90581,6,0,L|493:221,2,119.999996337891,2|0|8,1:2|0:0|0:2,0:0:0:0:
128,291,91031,2,0,L|187:291,1,59.9999981689454,2|2,0:0|0:0,0:0:0:0:
38,225,91181,2,0,L|169:224,1,119.999996337891,2|2,1:2|0:0,0:0:0:0:
398,129,91481,2,0,L|258:128,1,119.999996337891,10|0,0:2|0:0,0:0:0:0:
37,114,91781,6,0,L|156:114,1,119.999996337891,2|0,1:2|0:0,0:0:0:0:
300,129,92081,2,0,L|181:129,1,119.999996337891,8|2,0:2|0:0,0:0:0:0:
430,264,92381,1,2,1:2:0:0:
186,273,92531,1,0,0:0:0:0:
432,132,92681,2,0,L|291:133,1,119.999996337891,10|0,0:2|0:0,0:0:0:0:
72,147,92981,6,0,L|199:147,1,119.999996337891,2|0,1:2|0:0,0:0:0:0:
335,152,93281,2,0,L|460:152,1,119.999996337891,8|2,0:2|0:0,0:0:0:0:
385,171,93506,1,2,0:0:0:0:
235,220,93581,1,2,1:2:0:0:
475,105,93731,1,0,0:0:0:0:
234,141,93881,2,0,L|89:141,1,119.999996337891,10|0,0:2|0:0,0:0:0:0:
355,211,94181,6,0,L|482:212,1,119.999996337891,2|0,1:2|0:0,0:0:0:0:
331,200,94481,2,0,L|200:200,1,119.999996337891,8|2,0:2|0:0,0:0:0:0:
452,59,94781,1,2,1:2:0:0:
211,117,94931,1,0,0:0:0:0:
456,127,95081,2,0,L|307:127,1,119.999996337891,10|0,0:2|0:0,0:0:0:0:
91,200,95381,6,0,L|232:200,2,119.999996337891,2|0|8,1:2|0:0|0:2,0:0:0:0:
331,82,95831,2,0,L|252:82,1,59.9999981689454,2|2,0:0|0:0,0:0:0:0:
421,201,95981,2,0,L|301:201,1,119.999996337891,2|2,1:2|0:0,0:0:0:0:
19,238,96281,2,0,L|11:111,1,119.999996337891,10|0,0:2|0:0,0:0:0:0:
216,162,96581,5,2,1:1:0:0:
308,162,96618,1,0,0:0:0:0:
403,158,96656,1,0,0:0:0:0:
430,146,96693,1,0,0:0:0:0:
453,127,96731,1,0,0:0:0:0:
471,103,96768,1,0,0:0:0:0:
481,75,96806,1,0,0:0:0:0:
484,45,96843,1,0,0:0:0:0:
257,38,96881,1,4,1:2:0:0:
56,141,97181,6,0,L|179:141,1,119.999996337891,2|0,1:2|0:0,0:0:0:0:
34,113,97481,1,10,0:2:0:0:
309,194,97781,1,2,1:2:0:0:
151,79,97931,2,0,L|216:79,1,59.9999981689454,0|0,1:2|1:2,0:0:0:0:
65,175,98081,2,0,L|187:175,1,119.999996337891,0|0,1:2|1:2,0:0:0:0:
425,241,98381,2,0,L|362:349,1,119.999996337891,8|0,0:2|0:0,0:0:0:0:
124,309,98681,1,0,1:2:0:0:
364,167,98831,1,0,1:2:0:0:
124,309,98981,6,0,P|65:264|136:140,1,239.999992675781,4|0,1:2|0:0,0:0:0:0:
418,136,99581,2,0,L|323:227,1,119.999996337891,8|0,0:2|0:0,0:0:0:0:
188,134,99881,1,0,1:2:0:0:
475,140,100181,1,0,1:2:0:0:
237,88,100331,2,0,L|302:88,1,59.9999981689454,0|0,1:2|1:2,0:0:0:0:
147,163,100481,2,0,L|25:163,1,119.999996337891,0|0,1:2|1:2,0:0:0:0:
268,244,100781,2,0,L|146:244,1,119.999996337891,8|0,0:2|0:0,0:0:0:0:
388,309,101081,2,0,L|392:180,1,119.999996337891,4|0,1:2|1:2,0:0:0:0:
35,172,101381,5,4,1:2:0:0:
177,150,101531,1,0,1:2:0:0:
35,124,101681,1,8,0:2:0:0:
177,102,101831,2,0,L|249:103,1,59.9999981689454,2|2,1:2|0:0,0:0:0:0:
87,289,101981,1,2,1:2:0:0:
327,245,102131,1,0,1:2:0:0:
87,289,102281,1,8,0:2:0:0:
231,289,102431,1,0,1:2:0:0:
477,172,102581,5,4,1:2:0:0:
335,150,102731,1,0,1:2:0:0:
477,124,102881,1,8,0:2:0:0:
335,102,103031,2,0,L|263:103,1,59.9999981689454,2|2,1:2|0:0,0:0:0:0:
425,289,103181,1,2,1:2:0:0:
185,245,103331,1,0,1:2:0:0:
425,289,103481,1,8,0:2:0:0:
281,289,103631,1,0,1:2:0:0:
46,342,103781,6,0,P|35:277|233:86,1,359.999989013672,4|0,1:2|1:2,0:0:0:0:
466,342,104381,2,0,P|477:277|316:180,1,239.999992675781,12|0,0:2|1:2,0:0:0:0:
116,153,104831,1,0,1:2:0:0:
362,63,104981,5,12,0:2:0:0:
242,143,105131,2,0,L|307:143,1,59.9999981689454,0|0,1:2|1:2,0:0:0:0:
452,142,105281,1,4,1:2:0:0:
239,189,105431,2,0,L|174:189,1,59.9999981689454,0|0,1:2|1:2,0:0:0:0:
329,173,105581,1,4,1:2:0:0:
242,313,105731,2,0,L|307:313,1,59.9999981689454,0|0,1:2|1:2,0:0:0:0:
152,288,105881,2,0,L|82:288,1,59.9999981689454,0|0,1:2|1:2,0:0:0:0:
273,165,106031,2,0,L|343:165,1,59.9999981689454,0|0,1:2|1:2,0:0:0:0:
128,251,106181,6,0,P|72:224|146:145,1,200,6|0,0:2|0:0,0:0:0:0:
276,136,106631,2,0,L|62:136,1,200,0|0,0:0|0:0,0:0:0:0:
215,132,107081,2,0,L|219:237,1,100,2|0,0:0|0:0,0:0:0:0:
78,229,107381,6,0,P|94:174|221:109,1,200,2|0,0:0|0:0,0:0:0:0:
351,119,107831,2,0,P|335:174|208:239,1,200,0|0,0:0|0:0,0:0:0:0:
357,231,108281,2,0,L|371:347,1,100,0|0,0:0|0:0,0:0:0:0:
228,330,108581,6,0,L|21:328,1,200,2|0,0:0|0:0,0:0:0:0:
168,332,109031,2,0,L|375:330,1,200,2|0,0:0|0:0,0:0:0:0:
228,328,109481,2,0,L|99:326,1,100,2|0,0:0|0:0,0:0:0:0:
268,324,109781,6,0,L|274:211,1,100,2|0,0:0|0:0,0:0:0:0:
133,213,110081,2,0,L|139:100,1,100,0|0,0:0|0:0,0:0:0:0:
277,100,110381,2,0,L|283:213,1,100,0|0,0:0|0:0,0:0:0:0:
142,211,110681,2,0,L|148:324,1,100,0|0,0:0|0:0,0:0:0:0:
288,306,110981,6,0,P|275:245|150:187,1,200,2|0,0:0|0:0,0:0:0:0:
301,182,111431,2,0,P|288:121|163:63,1,200,0|0,0:0|0:0,0:0:0:0:
314,63,111881,2,0,L|325:187,1,100,2|0,0:0|0:0,0:0:0:0:
183,133,112181,6,0,P|196:194|321:252,1,200,2|0,0:0|0:0,0:0:0:0:
170,257,112631,2,0,P|183:318|308:376,1,200,0|0,0:0|0:0,0:0:0:0:
157,376,113081,2,0,L|146:252,1,100,0|0,0:0|0:0,0:0:0:0:
288,268,113381,6,0,L|67:268,1,200,2|0,0:0|0:0,0:0:0:0:
227,262,113831,2,0,L|6:262,1,200,2|0,0:0|0:0,0:0:0:0:
166,257,114281,2,0,L|58:258,1,100,2|0,0:0|0:0,0:0:0:0:
205,254,114581,6,0,L|211:147,1,100,2|0,0:0|0:0,0:0:0:0:
69,145,114881,2,0,L|177:146,1,100,2|0,0:0|0:0,0:0:0:0:
306,119,115181,2,0,L|198:120,1,100,2|0,0:0|0:0,0:0:0:0:
69,145,115481,2,0,L|177:146,1,100,2|0,0:0|0:0,0:0:0:0:
419,247,115781,6,0,L|199:247,1,200,6|0,0:2|0:0,0:0:0:0:
79,239,116231,2,0,L|299:239,1,200,0|0,0:0|0:0,0:0:0:0:
418,231,116681,2,0,L|305:231,1,100,2|0,0:0|0:0,0:0:0:0:
178,232,116981,6,0,P|226:204|168:98,1,200,2|0,0:0|0:0,0:0:0:0:
315,97,117431,2,0,P|267:125|325:231,1,200,0|0,0:0|0:0,0:0:0:0:
176,234,117881,2,0,L|169:130,1,100,0|0,0:0|0:0,0:0:0:0:
310,132,118181,6,0,L|96:132,1,200,2|0,0:0|0:0,0:0:0:0:
247,155,118631,2,0,L|461:155,1,200,2|0,0:0|0:0,0:0:0:0:
307,161,119081,2,0,L|301:276,1,100,2|0,0:0|0:0,0:0:0:0:
442,261,119381,6,0,L|331:260,1,100,2|0,0:0|0:0,0:0:0:0:
206,294,119681,2,0,L|317:293,1,100,0|0,0:0|0:0,0:0:0:0:
442,261,119981,2,0,L|331:260,1,100,0|0,0:0|0:0,0:0:0:0:
206,294,120281,2,0,L|317:293,1,100,0|0,0:0|0:0,0:0:0:0:
165,292,120581,6,0,P|101:272|44:150,1,200,2|0,0:0|0:0,0:0:0:0:
184,155,121031,2,0,P|248:135|305:13,1,200,0|0,0:0|0:0,0:0:0:0:
164,22,121481,2,0,L|272:22,1,100,0|0,0:0|0:0,0:0:0:0:
403,34,121781,6,0,P|369:125|281:166,1,200,2|0,0:0|0:0,0:0:0:0:
140,168,122231,2,0,P|173:259|261:300,1,200,0|0,0:0|0:0,0:0:0:0:
402,301,122681,2,0,L|408:188,1,100,0|0,0:0|0:0,0:0:0:0:
187,112,122981,6,0,L|419:113,1,200,4|0,1:2|0:0,0:0:0:0:
167,199,123431,1,0,1:2:0:0:
387,285,123581,2,0,L|392:179,1,100,12|0,0:2|0:0,0:0:0:0:
172,114,123881,1,0,1:2:0:0:
392,55,124031,1,0,1:2:0:0:
172,70,124181,5,12,0:2:0:0:
292,150,124331,2,0,L|224:150,1,50,0|0,1:2|1:2,0:0:0:0:
382,176,124481,1,4,1:2:0:0:
262,256,124631,2,0,L|192:256,1,50,0|0,1:2|1:2,0:0:0:0:
355,312,124781,6,0,L|379:305,6,25,2|0|0|0|0|0|0,0:1|0:0|0:0|0:0|0:0|0:0|0:0,0:0:0:0:
174,313,125081,1,8,0:2:0:0:
324,311,125156,1,8,0:2:0:0:
174,313,125231,1,8,0:2:0:0:
324,311,125306,1,8,0:2:0:0:
174,313,125381,5,6,1:2:0:0:
123,282,125456,1,0,0:0:0:0:
94,230,125531,1,0,0:0:0:0:
97,171,125606,1,0,0:0:0:0:
129,121,125681,1,8,0:2:0:0:
182,95,125756,1,0,0:0:0:0:
332,142,125831,6,0,L|267:142,1,59.9999981689454,2|0,0:0|0:0,0:0:0:0:
201,156,125981,2,0,L|266:156,1,59.9999981689454,0|0,1:2|0:0,0:0:0:0:
332,142,126131,2,0,L|267:142,1,59.9999981689454,0|0,0:0|0:0,0:0:0:0:
122,258,126281,6,0,L|187:258,1,59.9999981689454,10|0,0:2|0:0,0:0:0:0:
253,272,126431,2,0,L|188:272,1,59.9999981689454,0|0,0:0|0:0,0:0:0:0:
343,329,126581,5,2,1:2:0:0:
311,278,126656,1,0,0:0:0:0:
260,247,126731,1,0,0:0:0:0:
201,241,126806,1,0,0:0:0:0:
273,231,126881,2,0,L|279:163,1,59.9999981689454,8|0,0:2|0:0,0:0:0:0:
128,289,127031,5,2,0:0:0:0:
175,253,127106,1,0,0:0:0:0:
202,200,127181,1,0,1:2:0:0:
200,140,127256,1,0,0:0:0:0:
172,88,127331,1,2,0:0:0:0:
123,55,127406,1,2,0:0:0:0:
273,57,127481,6,0,L|206:57,1,59.9999981689454,10|0,0:2|0:0,0:0:0:0:
144,79,127631,2,0,L|210:78,1,59.9999981689454,0|0,0:0|0:0,0:0:0:0:
356,108,127781,6,0,L|366:175,1,59.9999981689454,2|0,1:2|0:0,0:0:0:0:
293,176,127931,2,0,L|227:176,1,59.9999981689454,0|0,0:0|0:0,0:0:0:0:
303,191,128081,2,0,L|313:258,1,59.9999981689454,8|0,0:2|0:0,0:0:0:0:
162,150,128231,6,0,L|152:217,1,59.9999981689454,2|0,0:0|0:0,0:0:0:0:
225,218,128381,2,0,L|291:218,1,59.9999981689454,0|0,1:2|0:0,0:0:0:0:
215,233,128531,2,0,L|205:300,1,59.9999981689454,2|2,0:0|0:0,0:0:0:0:
358,300,128681,6,0,L|294:300,1,59.9999981689454,10|0,0:2|0:0,0:0:0:0:
226,291,128831,2,0,L|301:291,1,59.9999981689454,0|0,0:0|0:0,0:0:0:0:
136,178,128981,6,0,L|124:115,1,59.9999981689454,2|0,1:2|0:0,0:0:0:0:
197,116,129131,1,0,0:0:0:0:
347,116,129206,2,0,L|414:116,2,59.9999981689454,2|8|0,0:0|0:2|0:0,0:0:0:0:
197,229,129431,2,0,L|265:230,1,59.9999981689454,2|0,0:0|0:0,0:0:0:0:
105,319,129581,6,0,L|97:250,1,59.9999981689454,0|2,1:2|0:0,0:0:0:0:
168,241,129731,2,0,L|241:241,1,59.9999981689454,0|0,0:0|0:0,0:0:0:0:
78,182,129881,2,0,L|16:181,1,59.9999981689454,10|0,0:2|0:0,0:0:0:0:
86,155,130031,2,0,L|24:154,1,59.9999981689454,2|0,0:0|0:0,0:0:0:0:
178,85,130181,6,0,L|245:85,1,59.9999981689454,2|0,1:2|0:0,0:0:0:0:
166,96,130331,2,0,L|105:95,1,59.9999981689454,0|0,0:0|0:0,0:0:0:0:
177,102,130481,2,0,L|246:103,1,59.9999981689454,8|0,0:2|0:0,0:0:0:0:
87,167,130631,6,0,L|77:231,1,59.9999981689454,2|0,0:0|0:0,0:0:0:0:
150,224,130781,2,0,L|217:223,1,59.9999981689454,0|0,1:2|0:0,0:0:0:0:
139,239,130931,2,0,L|72:237,1,59.9999981689454,0|0,0:0|0:0,0:0:0:0:
231,290,131081,6,0,L|151:290,1,59.9999981689454,10|0,0:2|0:0,0:0:0:0:
241,277,131231,2,0,L|308:276,1,59.9999981689454,0|0,0:0|0:0,0:0:0:0:
451,253,131381,5,2,1:2:0:0:
433,196,131456,1,0,0:0:0:0:
387,158,131531,1,0,0:0:0:0:
329,151,131606,1,0,0:0:0:0:
401,149,131681,2,0,L|460:147,1,59.9999981689454,8|0,0:2|0:0,0:0:0:0:
309,88,131831,5,2,0:0:0:0:
366,104,131906,1,0,0:0:0:0:
408,146,131981,1,0,1:2:0:0:
423,203,132056,1,0,0:0:0:0:
351,204,132131,2,0,L|246:202,1,59.9999981689454,2|2,0:0|0:0,0:0:0:0:
441,269,132281,6,0,L|508:269,1,59.9999981689454,10|0,0:2|0:0,0:0:0:0:
433,293,132431,2,0,L|500:293,1,59.9999981689454,0|0,0:0|0:0,0:0:0:0:
343,343,132581,6,0,L|272:342,1,59.9999981689454,2|0,1:2|0:0,0:0:0:0:
212,327,132731,2,0,L|208:254,1,59.9999981689454,0|0,0:0|0:0,0:0:0:0:
280,256,132881,2,0,L|345:257,1,59.9999981689454,8|0,0:2|0:0,0:0:0:0:
188,179,133031,6,0,L|259:178,1,59.9999981689454,2|0,0:0|0:0,0:0:0:0:
319,163,133181,2,0,L|323:90,1,59.9999981689454,0|0,1:2|0:0,0:0:0:0:
251,92,133331,2,0,L|186:93,1,59.9999981689454,2|2,0:0|0:0,0:0:0:0:
41,99,133481,6,0,L|29:166,1,59.9999981689454,10|0,0:2|0:0,0:0:0:0:
98,184,133631,2,0,L|163:185,1,59.9999981689454,0|0,0:0|0:0,0:0:0:0:
308,230,133781,6,0,L|237:229,1,59.9999981689454,2|0,1:2|0:0,0:0:0:0:
318,212,133931,2,0,L|391:211,1,59.9999981689454,0|0,0:0|0:0,0:0:0:0:
228,151,134081,2,0,L|160:152,1,59.9999981689454,10|0,0:0|0:0,0:0:0:0:
318,68,134231,2,0,L|250:69,1,59.9999981689454,0|0,0:0|0:0,0:0:0:0:
409,229,134381,6,0,L|477:228,1,59.9999981689454,2|0,1:2|0:0,0:0:0:0:
319,312,134531,2,0,L|387:311,1,59.9999981689454,0|0,0:0|0:0,0:0:0:0:
228,273,134681,2,0,L|166:273,1,59.9999981689454,10|0,0:0|0:0,0:0:0:0:
239,262,134831,2,0,L|307:262,1,59.9999981689454,0|0,0:0|0:0,0:0:0:0:
149,202,134981,5,6,1:2:0:0:
151,142,135056,1,0,0:0:0:0:
176,88,135131,1,0,0:0:0:0:
219,47,135206,1,0,0:0:0:0:
275,25,135281,1,8,0:2:0:0:
334,25,135356,1,0,0:0:0:0:
184,314,135431,6,0,L|180:240,1,59.9999981689454,2|0,0:0|0:0,0:0:0:0:
252,254,135581,2,0,L|312:253,1,59.9999981689454,0|0,1:2|0:0,0:0:0:0:
383,243,135731,2,0,L|389:172,1,59.9999981689454,0|0,0:0|0:0,0:0:0:0:
238,203,135881,6,0,L|171:202,1,59.9999981689454,10|0,0:2|0:0,0:0:0:0:
328,128,136031,2,0,L|269:128,1,59.9999981689454,0|0,0:0|0:0,0:0:0:0:
418,302,136181,5,2,1:2:0:0:
449,251,136256,1,0,0:0:0:0:
463,193,136331,1,0,0:0:0:0:
460,133,136406,1,0,0:0:0:0:
439,77,136481,1,8,0:2:0:0:
401,30,136556,1,0,0:0:0:0:
251,30,136631,6,0,L|191:30,1,59.9999981689454,2|0,0:0|0:0,0:0:0:0:
341,144,136781,2,0,L|272:143,1,59.9999981689454,0|0,1:2|0:0,0:0:0:0:
352,150,136931,2,0,L|416:151,1,59.9999981689454,2|2,0:0|0:0,0:0:0:0:
261,245,137081,6,0,L|185:245,1,59.9999981689454,10|0,0:2|0:0,0:0:0:0:
351,333,137231,2,0,L|420:333,1,59.9999981689454,0|0,0:0|0:0,0:0:0:0:
261,341,137381,6,0,L|253:277,1,59.9999981689454,2|0,1:2|0:0,0:0:0:0:
325,278,137531,2,0,L|333:215,1,59.9999981689454,0|0,0:0|0:0,0:0:0:0:
259,212,137681,2,0,L|253:147,1,59.9999981689454,8|0,0:2|0:0,0:0:0:0:
403,63,137831,6,0,L|411:127,1,59.9999981689454,2|0,0:0|0:0,0:0:0:0:
339,126,137981,2,0,L|331:189,1,59.9999981689454,0|0,1:2|0:0,0:0:0:0:
405,192,138131,2,0,L|411:257,1,59.9999981689454,2|2,0:0|0:0,0:0:0:0:
260,288,138281,6,0,L|327:288,1,59.9999981689454,10|0,0:2|0:0,0:0:0:0:
390,301,138431,2,0,L|320:301,1,59.9999981689454,0|0,0:0|0:0,0:0:0:0:
180,317,138581,5,2,1:2:0:0:
108,313,138656,2,0,L|89:251,2,59.9999981689454,0|0|0,0:0|0:0|0:0,0:0:0:0:
258,206,138881,1,10,0:2:0:0:
186,202,138956,2,0,L|167:140,2,59.9999981689454,0|0|0,0:0|0:0|0:0,0:0:0:0:
336,112,139181,5,2,1:2:0:0:
264,108,139256,2,0,L|245:46,2,59.9999981689454,0|0|0,0:0|0:0|0:0,0:0:0:0:
415,194,139481,2,0,L|426:267,1,59.9999981689454,10|0,0:2|0:0,0:0:0:0:
272,287,139631,2,0,L|261:360,1,59.9999981689454,0|0,0:0|0:0,0:0:0:0:
111,314,139781,6,0,L|51:314,1,59.9999981689454,2|0,1:2|0:0,0:0:0:0:
122,307,139931,2,0,L|193:307,1,59.9999981689454,0|0,0:0|0:0,0:0:0:0:
111,314,140081,2,0,L|51:314,1,59.9999981689454,8|0,0:2|0:0,0:0:0:0:
201,196,140231,6,0,L|261:196,1,59.9999981689454,2|0,0:0|0:0,0:0:0:0:
190,189,140381,2,0,L|119:189,1,59.9999981689454,0|0,1:2|0:0,0:0:0:0:
201,196,140531,2,0,L|261:196,1,59.9999981689454,2|2,0:0|0:0,0:0:0:0:
111,314,140681,6,0,L|51:314,1,59.9999981689454,10|0,0:2|0:0,0:0:0:0:
122,307,140831,2,0,L|193:307,1,59.9999981689454,0|0,0:0|0:0,0:0:0:0:
332,263,140981,6,0,L|392:263,1,59.9999981689454,2|0,1:2|0:0,0:0:0:0:
321,256,141131,2,0,L|250:256,1,59.9999981689454,0|0,0:0|0:0,0:0:0:0:
332,263,141281,2,0,L|392:263,1,59.9999981689454,8|0,0:2|0:0,0:0:0:0:
242,145,141431,6,0,L|182:145,1,59.9999981689454,2|0,0:0|0:0,0:0:0:0:
253,138,141581,2,0,L|324:138,1,59.9999981689454,0|0,1:2|0:0,0:0:0:0:
242,145,141731,2,0,L|182:145,1,59.9999981689454,0|0,0:0|0:0,0:0:0:0:
321,256,141881,6,0,L|250:256,1,59.9999981689454,10|0,0:2|0:0,0:0:0:0:
332,263,142031,2,0,L|392:263,1,59.9999981689454,0|0,0:0|0:0,0:0:0:0:
241,345,142181,5,6,1:2:0:0:
182,338,142256,1,0,0:0:0:0:
142,295,142331,1,0,0:0:0:0:
141,237,142406,1,0,0:0:0:0:
179,192,142481,1,0,0:0:0:0:
237,183,142556,1,0,0:0:0:0:
387,179,142631,2,0,L|457:180,1,59.9999981689454,0|0,1:2|0:0,0:0:0:0:
296,100,142781,6,0,L|233:99,1,59.9999981689454,12|0,0:2|0:0,0:0:0:0:
308,98,142931,2,0,L|373:101,1,59.9999981689454,0|0,0:0|0:0,0:0:0:0:
215,50,143081,2,0,L|278:49,1,59.9999981689454,0|0,1:2|0:0,0:0:0:0:
427,272,143231,2,0,L|364:271,1,59.9999981689454,0|0,1:2|0:0,0:0:0:0:
170,264,143381,6,0,L|166:187,1,59.9999981689454,12|0,0:2|0:0,0:0:0:0:
317,173,143531,2,0,L|252:173,1,59.9999981689454,0|0,1:2|1:2,0:0:0:0:
407,64,143681,2,0,L|411:141,1,59.9999981689454,4|0,1:2|0:0,0:0:0:0:
260,155,143831,2,0,L|325:155,1,59.9999981689454,0|0,1:2|1:2,0:0:0:0:
170,264,143981,6,0,L|166:187,1,59.9999981689454,4|0,1:2|0:0,0:0:0:0:
317,173,144131,2,0,L|252:173,1,59.9999981689454,0|0,1:2|1:2,0:0:0:0:
407,79,144281,2,0,L|474:87,1,59.9999981689454,0|0,1:2|1:2,0:0:0:0:
285,199,144431,2,0,L|218:207,1,59.9999981689454,0|0,1:2|1:2,0:0:0:0:
407,247,144581,5,6,1:2:0:0:
459,162,144731,1,2,0:0:0:0:
449,281,144881,1,2,1:2:0:0:
396,196,145031,1,2,0:0:0:0:
178,69,145781,5,0,1:0:0:0:
178,69,146081,1,0,1:0:0:0:
178,69,146981,5,0,1:0:0:0:
178,69,147281,1,0,1:0:0:0:
178,69,148181,5,0,1:0:0:0:
178,69,148481,1,0,1:0:0:0:
