osu file format v14

[General]
AudioFilename: audio.mp3
AudioLeadIn: 0
PreviewTime: 106181
Countdown: 0
SampleSet: Soft
StackLeniency: 0.7
Mode: 2
LetterboxInBreaks: 0
WidescreenStoryboard: 1

[Editor]
DistanceSpacing: 1
BeatDivisor: 4
GridSize: 16
TimelineZoom: 2.2

[Metadata]
Title:Cross Over
TitleUnicode:Cross†Over
Artist:HyuN feat. LyuU
ArtistUnicode:HyuN feat. LyuU
Creator:Razor Sharp
Version:Benita's Platter
Source:osu!
Tags:fa featured artist nelly autols spectator rocma autofanboy roxy migurdia Realazy AFB alienflybot Arthas _Asriel Benita Electronic Korean hyunesis ft. Digital Step Core Artcore PUMP IT UP PRIME PIU Crossover Benny-
BeatmapID:2680192
BeatmapSetID:1233114

[Difficulty]
HPDrainRate:4
CircleSize:3.5
OverallDifficulty:8.2
ApproachRate:8.2
SliderMultiplier:1.5
SliderTickRate:1

[Events]
//Background and Video events
0,0,"dreamy-world-background-13.jpg",0,0
//Break Periods
2,29581,37961
//Storyboard Layer 0 (Background)
//Storyboard Layer 1 (Fail)
//Storyboard Layer 2 (Pass)
//Storyboard Layer 3 (Foreground)
//Storyboard Layer 4 (Overlay)
//Storyboard Sound Samples

[TimingPoints]
581,300,4,2,1,30,1,0
8981,-100,4,2,1,50,0,0
10181,-100,4,2,1,70,0,0
52181,-101.010101010101,4,2,1,70,0,0
53081,-100,4,2,1,70,0,0
61781,-101.010101010101,4,2,1,70,0,0
62681,-100,4,2,1,70,0,0
67781,-100,4,2,1,70,0,1
87581,-100,4,2,1,70,0,0
125381,-100,4,2,1,70,0,1
144581,-100,4,2,1,70,0,0

[Colours]
Combo1 : 255,128,64
Combo2 : 0,0,255
Combo3 : 255,128,255
Combo4 : 128,255,128

[HitObjects]
365,135,581,6,0,L|376:245,1,75,2|2,1:2|0:0,0:0:0:0:
288,252,881,1,2,1:2:0:0:
196,271,1031,2,0,P|127:247|185:145,1,225,2|0,0:0|0:0,0:0:0:0:
331,147,1781,1,0,1:0:0:0:
331,147,2081,1,0,1:0:0:0:
224,231,2981,6,0,L|321:224,2,75,2|2|2,1:2|0:0|1:2,0:0:0:0:
129,239,3431,2,0,P|48:182|118:112,1,225,2|0,0:0|0:0,0:0:0:0:
298,109,4181,6,0,L|403:112,2,75,2|2|2,1:2|0:0|1:2,0:0:0:0:
202,57,4631,2,0,L|379:61,1,150,2|2,0:0|0:0,0:0:0:0:
428,63,5081,1,2,0:0:0:0:
506,66,5231,1,2,0:0:0:0:
293,152,5381,6,0,L|201:153,2,75,2|2|2,1:2|0:0|1:2,0:0:0:0:
378,152,5831,2,0,P|452:200|368:285,1,225,2|0,0:0|0:0,0:0:0:0:
219,295,6581,1,0,1:0:0:0:
219,295,6881,1,0,1:0:0:0:
349,264,7781,6,0,L|249:266,2,75,2|2|2,1:2|0:0|1:2,0:0:0:0:
439,261,8231,2,0,P|480:231|371:67,1,300,0|0,0:0|0:0,0:0:0:0:
173,80,8981,6,0,L|136:81,2,37.5,8|8|8,0:0|0:0|0:0,0:0:0:0:
268,96,9281,2,0,L|270:183,1,75,8|0,0:0|0:0,0:0:0:0:
128,189,9581,2,0,L|120:280,1,75,4|0,0:0|0:0,0:0:0:0:
347,283,9881,2,0,L|361:347,2,37.5,4|4|4,1:2|1:2|1:2,0:0:0:0:
111,249,10181,6,0,L|273:200,1,150,6|8,1:2|0:2,0:0:0:0:
82,185,10781,2,0,L|80:100,1,75,2|0,1:2|0:0,0:0:0:0:
170,106,11081,1,10,0:2:0:0:
254,99,11231,1,0,0:0:0:0:
471,227,11381,6,0,P|511:186|464:111,1,150,2|8,1:2|0:2,0:0:0:0:
267,94,11981,2,0,L|264:187,1,75,2|0,1:2|0:0,0:0:0:0:
351,178,12281,2,0,L|354:266,1,75,10|0,0:2|0:0,0:0:0:0:
141,290,12581,6,0,P|106:261|149:173,1,150,2|8,1:2|0:2,0:0:0:0:
327,181,13181,1,2,1:2:0:0:
408,153,13331,1,0,0:0:0:0:
405,72,13481,1,10,0:2:0:0:
328,22,13631,1,0,0:0:0:0:
96,123,13781,6,0,L|261:151,1,150,2|8,1:2|0:2,0:0:0:0:
159,200,14231,2,0,L|151:256,2,37.5,2|2|2,0:0|0:0|1:2,0:0:0:0:
264,197,14531,1,2,0:0:0:0:
159,192,14681,2,0,L|155:106,1,75,10|0,0:2|0:0,0:0:0:0:
418,219,14981,6,0,P|455:175|397:103,1,150,2|8,1:2|0:2,0:0:0:0:
235,91,15581,2,0,L|235:177,1,75,2|0,1:2|0:0,0:0:0:0:
316,183,15881,1,10,0:2:0:0:
406,194,16031,1,0,0:0:0:0:
177,278,16181,6,0,P|135:248|184:167,1,150,2|8,1:2|0:2,0:0:0:0:
362,179,16781,2,0,L|369:95,1,75,2|0,1:2|0:0,0:0:0:0:
273,106,17081,2,0,L|269:18,1,75,10|0,0:2|0:0,0:0:0:0:
485,236,17381,6,0,P|499:179|435:103,1,150,2|8,1:2|0:2,0:0:0:0:
259,116,17981,2,0,L|262:214,1,75,2|0,1:2|0:0,0:0:0:0:
350,220,18281,1,10,0:2:0:0:
447,237,18431,1,0,0:0:0:0:
234,265,18581,6,0,L|369:190,1,150,2|8,1:2|0:2,0:0:0:0:
408,170,19031,1,2,0:0:0:0:
258,290,19181,2,0,L|254:199,1,75,4|0,1:2|0:0,0:0:0:0:
343,195,19481,1,8,0:2:0:0:
247,145,19631,1,8,0:2:0:0:
480,122,19781,6,0,L|491:64,2,37.5,2|2|2,1:1|0:1|0:1,0:0:0:0:
381,131,20081,2,0,L|379:228,1,75,0|0,0:1|0:0,0:0:0:0:
141,290,20381,1,6,1:2:0:0:
53,244,20531,1,0,0:0:0:0:
60,147,20681,1,10,0:2:0:0:
160,99,20831,1,0,0:0:0:0:
390,253,20981,6,0,P|427:227|384:141,1,150,2|8,1:2|0:2,0:0:0:0:
219,145,21581,2,0,L|137:144,1,75,2|0,1:2|0:0,0:0:0:0:
248,134,21881,2,0,L|253:49,1,75,10|0,0:2|0:0,0:0:0:0:
34,202,22181,6,0,P|32:160|125:92,1,150,2|8,1:2|0:2,0:0:0:0:
299,116,22781,2,0,L|297:210,1,75,2|0,1:2|0:0,0:0:0:0:
201,182,23081,2,0,L|192:274,1,75,10|0,0:2|0:0,0:0:0:0:
408,308,23381,6,0,L|257:250,1,150,2|8,1:2|0:2,0:0:0:0:
359,223,23831,2,0,L|368:163,2,37.5,2|2|2,0:0|0:0|1:2,0:0:0:0:
262,209,24131,1,2,0:0:0:0:
363,218,24281,2,0,L|359:119,1,75,10|0,0:2|0:0,0:0:0:0:
135,168,24581,6,0,L|283:93,1,150,6|8,1:2|0:2,0:0:0:0:
85,117,25181,2,0,L|81:193,1,75,2|0,1:2|0:0,0:0:0:0:
164,208,25481,1,10,0:2:0:0:
249,226,25631,1,0,0:0:0:0:
462,224,25781,6,0,L|325:142,1,150,6|8,1:2|0:2,0:0:0:0:
168,151,26381,2,0,L|78:148,1,75,2|0,1:2|0:0,0:0:0:0:
89,62,26681,2,0,L|181:65,1,75,10|0,0:2|0:0,0:0:0:0:
388,68,26981,6,0,P|428:108|386:187,1,150,4|0,1:2|0:0,0:0:0:0:
302,196,27431,1,0,1:2:0:0:
145,168,27581,2,0,L|303:163,1,150,12|0,0:2|1:2,0:0:0:0:
378,162,28031,1,0,1:2:0:0:
159,195,28181,6,0,L|154:296,1,75,12|0,0:2|1:2,0:0:0:0:
256,283,28481,2,0,L|348:288,1,75,4|0,1:2|1:2,0:0:0:0:
206,334,28781,2,0,L|128:328,1,75,4|0,1:2|1:2,0:0:0:0:
374,160,29081,2,0,L|381:108,2,37.5,0|0|0,1:2|1:2|1:2,0:0:0:0:
155,154,29381,5,6,0:2:0:0:
355,135,38681,6,0,L|358:229,1,75,2|2,0:0|0:0,0:0:0:0:
190,256,38981,2,0,L|434:260,2,225,6|2|2,1:2|0:0|0:0,0:0:0:0:
440,288,40331,2,0,P|486:251|425:182,1,150,2|2,0:0|0:0,0:0:0:0:
382,174,40781,2,0,L|217:170,1,150,2|2,0:0|0:0,0:0:0:0:
479,133,41381,6,0,L|235:119,2,225,2|2|2,0:0|0:0|0:0,0:0:0:0:
294,291,42731,2,0,P|237:247|315:136,1,225,2|2,0:0|0:0,0:0:0:0:
467,137,43481,1,2,0:0:0:0:
206,261,43781,6,0,P|83:215|46:130,2,225,6|2|2,0:0|0:0|0:0,0:0:0:0:
386,264,45131,2,0,P|428:223|380:142,1,150,2|2,0:0|0:0,0:0:0:0:
314,136,45581,2,0,L|494:123,1,150,2|2,0:0|0:0,0:0:0:0:
177,175,46181,6,0,L|422:198,2,225,6|2|2,0:0|0:0|0:0,0:0:0:0:
365,260,47381,6,0,L|363:168,1,75,0|0,1:2|0:0,0:0:0:0:
277,193,47681,2,0,L|274:113,1,75,0|0,0:0|0:0,0:0:0:0:
416,123,47981,2,0,L|427:78,2,37.5,0|0|0,1:2|0:0|1:2,0:0:0:0:
192,128,48281,2,0,L|180:84,2,37.5,0|0|0,1:2|0:0|1:2,0:0:0:0:
459,238,48581,6,0,P|486:193|429:106,1,150,6|8,1:2|0:2,0:0:0:0:
350,96,49031,1,0,0:0:0:0:
259,132,49181,2,0,L|253:227,1,75,0|0,1:2|0:0,0:0:0:0:
334,248,49481,1,10,0:2:0:0:
245,274,49631,1,0,0:0:0:0:
471,288,49781,6,0,P|478:222|413:158,1,150,2|8,1:2|0:2,0:0:0:0:
329,159,50231,2,0,L|493:144,1,150,2|0,0:0|0:0,0:0:0:0:
408,106,50681,1,10,0:2:0:0:
329,93,50831,1,0,0:0:0:0:
101,86,50981,6,0,P|53:120|98:183,1,150,6|10,1:1|1:1,0:0:0:0:
176,185,51431,2,0,L|19:202,1,150,2|0,0:0|0:0,0:0:0:0:
109,270,51881,1,10,1:1:0:0:
187,265,52031,1,2,1:1:0:0:
415,265,52181,6,0,L|483:262,2,49.499999848938,6|2|2,1:2|0:0|0:0,0:0:0:0:
361,269,52481,2,0,L|354:209,1,49.499999848938,10|2,0:2|0:0,0:0:0:0:
408,205,52681,1,2,0:0:0:0:
458,181,52781,1,2,1:2:0:0:
473,134,52881,1,2,0:0:0:0:
450,91,52981,1,2,0:0:0:0:
407,67,53081,2,0,L|305:55,1,75,10|0,0:2|0:0,0:0:0:0:
79,182,53381,6,0,P|66:127|138:56,1,150,6|8,1:2|0:2,0:0:0:0:
217,56,53831,1,0,0:0:0:0:
306,115,53981,2,0,L|310:214,1,75,0|0,1:2|0:0,0:0:0:0:
229,208,54281,1,10,0:2:0:0:
144,222,54431,1,0,0:0:0:0:
387,292,54581,6,0,P|428:256|364:172,1,150,2|8,1:2|0:0,0:0:0:0:
317,176,55031,2,0,L|157:165,1,150,2|0,0:0|0:0,0:0:0:0:
87,122,55481,1,10,0:2:0:0:
173,83,55631,1,0,0:0:0:0:
322,101,55781,6,0,P|362:142|314:238,1,150,2|8,1:2|0:2,0:0:0:0:
256,242,56231,1,2,0:0:0:0:
477,253,56381,2,0,L|479:165,1,75,4|0,1:2|0:0,0:0:0:0:
340,138,56681,2,0,L|423:134,1,75,12|0,0:2|0:0,0:0:0:0:
190,91,56981,5,6,1:2:0:0:
152,120,57081,1,0,0:0:0:0:
148,168,57181,1,0,0:0:0:0:
181,203,57281,1,10,0:2:0:0:
233,215,57381,1,0,0:0:0:0:
277,237,57481,1,0,0:0:0:0:
296,282,57581,1,2,1:2:0:0:
282,329,57681,1,0,0:0:0:0:
240,355,57781,1,0,0:0:0:0:
191,343,57881,2,0,L|90:344,1,75,10|2,0:2|0:0,0:0:0:0:
352,330,58181,6,0,P|397:299|352:225,1,150,6|8,1:2|0:2,0:0:0:0:
277,216,58631,1,0,0:0:0:0:
182,200,58781,2,0,L|183:118,1,75,0|0,1:2|0:0,0:0:0:0:
258,109,59081,1,10,0:2:0:0:
183,63,59231,1,0,0:0:0:0:
409,69,59381,6,0,P|460:104|434:195,1,150,2|8,1:2|0:2,0:0:0:0:
383,201,59831,2,0,L|221:218,1,150,2|0,0:0|0:0,0:0:0:0:
290,145,60281,1,10,0:2:0:0:
372,132,60431,1,0,0:0:0:0:
123,283,60581,6,0,P|75:259|124:194,1,150,6|10,1:1|1:1,0:0:0:0:
199,189,61031,2,0,P|244:168|219:79,1,150,2|0,0:0|0:0,0:0:0:0:
132,84,61481,2,0,L|131:-1,1,75,10|2,1:1|1:1,0:0:0:0:
388,61,61781,5,6,1:2:0:0:
435,73,61881,1,0,0:0:0:0:
466,111,61981,1,0,0:0:0:0:
468,160,62081,1,10,0:2:0:0:
442,201,62181,1,0,0:0:0:0:
396,218,62281,1,0,0:0:0:0:
344,207,62381,2,0,L|290:182,2,49.499999848938,2|0|0,1:2|0:0|0:0,0:0:0:0:
396,218,62681,2,0,L|497:242,1,75,10|0,0:2|0:0,0:0:0:0:
187,302,62981,6,0,L|17:301,1,150,6|8,1:2|0:2,0:0:0:0:
132,223,63431,1,0,0:0:0:0:
227,224,63581,2,0,L|224:133,1,75,0|0,1:2|0:0,0:0:0:0:
127,117,63881,1,10,0:2:0:0:
39,113,64031,1,0,0:0:0:0:
320,255,64181,6,0,P|339:199|279:134,1,150,6|8,1:2|0:2,0:0:0:0:
192,131,64631,2,0,L|369:108,1,150,2|0,0:0|0:0,0:0:0:0:
437,136,65081,2,0,L|442:213,1,75,10|0,0:2|0:0,0:0:0:0:
183,303,65381,6,0,P|144:258|193:172,1,150,6|0,1:2|0:0,0:0:0:0:
257,174,65831,1,0,1:2:0:0:
414,175,65981,2,0,P|446:111|332:28,1,225,12|0,0:2|1:2,0:0:0:0:
133,109,66581,6,0,L|132:194,1,75,12|0,0:2|1:2,0:0:0:0:
224,209,66881,2,0,L|316:216,1,75,4|0,1:2|1:2,0:0:0:0:
209,337,67181,2,0,L|114:333,1,75,4|0,1:2|1:2,0:0:0:0:
347,277,67481,2,0,L|397:278,2,37.5,0|0|0,1:2|1:2|1:2,0:0:0:0:
77,290,67781,6,0,P|56:242|113:167,1,150,6|8,1:2|0:2,0:0:0:0:
186,162,68231,2,0,L|345:152,1,150,2|0,0:0|0:0,0:0:0:0:
178,131,68681,2,0,L|172:48,1,75,10|0,0:2|0:0,0:0:0:0:
389,185,68981,6,0,L|245:108,1,150,2|8,1:2|0:2,0:0:0:0:
343,105,69431,2,0,P|419:62|403:13,1,150,2|0,0:0|0:0,0:0:0:0:
333,13,69881,1,10,0:2:0:0:
427,63,70031,1,0,0:0:0:0:
269,189,70181,6,0,L|453:184,1,150,2|8,1:2|0:2,0:0:0:0:
329,145,70631,2,0,L|173:146,1,150,2|0,0:0|0:0,0:0:0:0:
338,95,71081,2,0,L|424:93,1,75,10|0,0:2|0:0,0:0:0:0:
187,30,71381,5,2,1:2:0:0:
114,40,71531,1,0,0:0:0:0:
52,82,71681,1,10,0:2:0:0:
15,146,71831,1,0,0:0:0:0:
10,220,71981,1,2,1:2:0:0:
38,289,72131,1,0,0:0:0:0:
93,339,72281,1,10,0:2:0:0:
165,359,72431,1,0,0:0:0:0:
411,274,72581,6,0,P|451:241|399:167,1,150,2|8,1:2|0:2,0:0:0:0:
326,156,73031,2,0,L|321:4,1,150,2|0,0:0|0:0,0:0:0:0:
435,94,73481,2,0,L|431:2,1,75,10|0,0:2|0:0,0:0:0:0:
139,207,73781,6,0,P|79:187|47:97,1,150,2|8,1:2|0:2,0:0:0:0:
145,107,74231,2,0,L|-25:95,1,150,2|0,0:0|0:0,0:0:0:0:
71,67,74681,1,10,0:2:0:0:
154,68,74831,1,0,0:0:0:0:
313,261,74981,6,0,P|354:230|326:137,1,150,2|8,1:2|0:2,0:0:0:0:
250,144,75431,2,0,L|406:145,1,150,2|0,0:0|0:0,0:0:0:0:
241,79,75881,2,0,L|155:77,1,75,10|0,0:2|0:0,0:0:0:0:
328,151,76181,6,0,L|435:152,1,75,2|0,1:2|0:0,0:0:0:0:
131,227,76481,2,0,L|116:330,1,75,10|0,0:0|0:0,0:0:0:0:
359,294,76781,2,0,L|367:209,1,75,2|0,1:2|0:0,0:0:0:0:
237,212,77081,2,0,L|237:129,1,75,10|0,0:0|0:0,0:0:0:0:
474,157,77381,6,0,L|308:114,1,150,6|8,1:2|0:2,0:0:0:0:
263,180,77831,2,0,P|236:146|275:50,1,150,2|0,0:0|0:0,0:0:0:0:
410,56,78281,2,0,L|422:134,1,75,10|0,0:2|0:0,0:0:0:0:
184,302,78581,6,0,P|140:243|181:190,1,150,2|8,1:2|0:2,0:0:0:0:
255,185,79031,2,0,L|96:175,1,150,2|0,0:0|0:0,0:0:0:0:
133,13,79481,1,10,0:2:0:0:
212,19,79631,1,0,0:0:0:0:
372,234,79781,6,0,P|366:184|261:147,1,150,2|8,1:2|0:2,0:0:0:0:
183,145,80231,2,0,L|339:146,1,150,2|0,0:0|0:0,0:0:0:0:
174,95,80681,2,0,L|88:93,1,75,10|0,0:2|0:0,0:0:0:0:
384,33,80981,5,2,1:2:0:0:
464,80,81131,1,0,0:0:0:0:
512,153,81281,1,10,0:2:0:0:
511,227,81431,1,0,0:0:0:0:
460,288,81581,1,2,1:2:0:0:
378,331,81731,1,0,0:0:0:0:
253,338,81881,2,0,L|251:244,1,75,8|0,0:2|0:0,0:0:0:0:
412,264,82181,6,0,P|451:231|398:152,1,150,2|8,1:2|0:2,0:0:0:0:
331,151,82631,2,0,P|272:121|302:46,1,150,2|0,0:0|0:0,0:0:0:0:
387,74,83081,2,0,L|381:-9,1,75,10|0,0:2|0:0,0:0:0:0:
219,135,83381,6,0,L|404:127,1,150,2|8,1:2|0:2,0:0:0:0:
468,96,83831,2,0,L|303:103,1,150,2|0,0:0|0:0,0:0:0:0:
389,167,84281,1,10,0:2:0:0:
312,216,84431,1,0,0:0:0:0:
88,238,84581,6,0,P|54:202|101:122,1,150,6|0,1:2|0:0,0:0:0:0:
183,122,85031,1,0,1:2:0:0:
427,123,85181,2,0,P|461:152|413:244,1,150,14|0,0:2|1:2,0:0:0:0:
347,252,85631,1,0,1:2:0:0:
98,251,85781,6,0,L|95:167,1,75,14|2,0:2|1:2,0:0:0:0:
204,178,86081,2,0,L|298:176,1,75,4|2,1:2|1:2,0:0:0:0:
64,133,86381,2,0,L|63:50,1,75,6|2,1:2|1:2,0:0:0:0:
169,22,86681,2,0,L|68:24,1,75,6|2,1:2|1:2,0:0:0:0:
261,95,86981,6,0,L|276:58,2,37.5,2|2|2,0:1|0:1|0:1,0:0:0:0:
174,110,87281,2,0,L|167:206,1,75,0|0,0:0|0:0,0:0:0:0:
430,185,87581,2,0,L|432:100,1,75,4|0,1:2|0:0,0:0:0:0:
342,106,87881,1,10,0:2:0:0:
258,99,88031,1,0,0:0:0:0:
41,227,88181,6,0,P|1:186|48:111,1,150,2|8,1:2|0:2,0:0:0:0:
245,94,88781,2,0,L|248:187,1,75,2|0,1:2|0:0,0:0:0:0:
161,178,89081,2,0,L|158:266,1,75,10|0,0:2|0:0,0:0:0:0:
371,290,89381,6,0,P|406:261|363:173,1,150,2|8,1:2|0:2,0:0:0:0:
185,181,89981,1,2,1:2:0:0:
104,153,90131,1,0,0:0:0:0:
107,72,90281,1,10,0:2:0:0:
184,22,90431,1,0,0:0:0:0:
416,123,90581,6,0,L|251:151,1,150,2|8,1:2|0:2,0:0:0:0:
353,200,91031,2,0,L|361:256,2,37.5,2|2|2,0:0|0:0|1:2,0:0:0:0:
248,197,91331,1,2,0:0:0:0:
353,192,91481,2,0,L|357:106,1,75,10|0,0:2|0:0,0:0:0:0:
94,219,91781,6,0,P|57:175|115:103,1,150,2|8,1:2|0:2,0:0:0:0:
277,91,92381,2,0,L|277:177,1,75,2|0,1:2|0:0,0:0:0:0:
196,183,92681,1,10,0:2:0:0:
106,194,92831,1,0,0:0:0:0:
335,278,92981,6,0,P|377:248|328:167,1,150,2|8,1:2|0:2,0:0:0:0:
150,179,93581,2,0,L|143:95,1,75,2|0,1:2|0:0,0:0:0:0:
239,106,93881,2,0,L|243:18,1,75,10|0,0:2|0:0,0:0:0:0:
27,236,94181,6,0,P|13:179|77:103,1,150,2|8,1:2|0:2,0:0:0:0:
253,116,94781,2,0,L|250:214,1,75,2|0,1:2|0:0,0:0:0:0:
162,220,95081,1,10,0:2:0:0:
65,237,95231,1,0,0:0:0:0:
278,265,95381,6,0,L|143:190,1,150,2|8,1:2|0:2,0:0:0:0:
104,170,95831,1,2,0:0:0:0:
254,290,95981,2,0,L|258:199,1,75,2|2,1:2|0:0,0:0:0:0:
169,195,96281,1,10,0:2:0:0:
265,145,96431,1,0,0:0:0:0:
111,136,96581,6,0,L|104:228,1,75,2|0,1:1|0:0,0:0:0:0:
377,254,96881,2,0,P|414:223|366:146,1,150,4|2,1:2|1:2,0:0:0:0:
286,146,97331,1,0,0:0:0:0:
369,93,97481,1,10,0:2:0:0:
204,88,97781,6,0,L|194:173,1,75,2|0,1:2|1:2,0:0:0:0:
233,192,98006,2,0,L|286:191,1,37.5,0|0,1:2|1:2,0:0:0:0:
142,265,98231,1,0,1:2:0:0:
286,284,98381,2,0,L|385:285,1,75,8|0,0:2|0:0,0:0:0:0:
247,243,98681,2,0,L|165:244,1,75,0|0,1:2|1:2,0:0:0:0:
416,244,98981,6,0,P|471:233|394:72,1,300,4|8,1:2|0:2,0:0:0:0:
330,69,99731,1,0,0:0:0:0:
421,29,99881,1,0,1:2:0:0:
203,204,100181,5,0,1:2:0:0:
95,203,100331,1,0,1:2:0:0:
69,180,100406,2,0,L|69:134,1,37.5,0|0,1:2|1:2,0:0:0:0:
154,110,100631,1,0,1:2:0:0:
254,155,100781,2,0,L|258:253,1,75,8|0,0:2|0:0,0:0:0:0:
103,234,101081,2,0,L|92:315,1,75,4|0,1:2|1:2,0:0:0:0:
387,318,101381,5,4,1:2:0:0:
475,275,101531,1,0,1:2:0:0:
478,181,101681,1,8,0:2:0:0:
388,116,101831,1,2,1:2:0:0:
272,113,101981,2,0,L|263:196,1,75,2|0,1:2|1:2,0:0:0:0:
359,192,102281,2,0,L|367:287,1,75,8|0,0:2|1:2,0:0:0:0:
130,322,102581,5,4,1:2:0:0:
42,279,102731,1,0,1:2:0:0:
39,185,102881,1,8,0:2:0:0:
129,120,103031,1,2,1:2:0:0:
245,117,103181,2,0,L|254:200,1,75,2|0,1:2|1:2,0:0:0:0:
158,196,103481,2,0,L|150:291,1,75,8|0,0:2|1:2,0:0:0:0:
401,296,103781,6,0,P|460:275|395:164,1,225,4|0,1:2|1:2,0:0:0:0:
251,253,104381,2,0,L|338:256,1,75,12|0,0:2|0:0,0:0:0:0:
437,254,104681,2,0,L|431:346,1,75,0|0,1:2|1:2,0:0:0:0:
159,195,104981,6,0,L|154:296,1,75,12|0,0:2|1:2,0:0:0:0:
293,282,105281,2,0,L|349:344,1,75,4|0,1:2|1:2,0:0:0:0:
206,334,105581,2,0,L|128:328,1,75,4|0,1:2|1:2,0:0:0:0:
389,166,105881,2,0,L|396:114,2,37.5,0|0|0,1:2|1:2|1:2,0:0:0:0:
176,170,106181,6,0,P|82:141|18:20,2,225,6|0|2,0:2|0:0|0:0,0:0:0:0:
433,168,107381,2,0,L|197:132,2,225,2|0|0,0:0|0:0|0:0,0:0:0:0:
197,298,108581,6,0,P|201:211|328:172,2,225,2|2|2,0:0|0:0|0:0,0:0:0:0:
481,296,109781,2,0,L|7:282,1,450,2|0,0:0|0:0,0:0:0:0:
242,262,110981,6,0,L|484:242,2,225,2|0|2,0:0|0:0|0:0,0:0:0:0:
33,238,112181,2,0,P|36:153|165:90,2,225,2|0|0,0:0|0:0|0:0,0:0:0:0:
255,226,113381,6,0,P|139:177|102:76,2,225,2|2|2,0:0|0:0|0:0,0:0:0:0:
417,223,114581,1,2,0:0:0:0:
161,223,114881,2,0,L|329:205,2,150,2|2|2,0:0|0:0|0:0,0:0:0:0:
460,279,115781,6,0,L|219:252,2,225,6|0|2,0:2|0:0|0:0,0:0:0:0:
243,300,116981,2,0,P|243:247|390:147,2,225,2|0|0,0:0|0:0|0:0,0:0:0:0:
32,273,118181,6,0,L|275:208,2,225,2|2|2,0:0|0:0|0:0,0:0:0:0:
246,329,119381,2,0,P|418:279|446:29,1,450,2|0,0:0|0:0,0:0:0:0:
257,71,120581,6,0,L|75:210,2,225,2|0|0,0:0|0:0|0:0,0:0:0:0:
488,199,121781,2,0,L|257:164,2,225,2|0|0,0:0|0:0|0:0,0:0:0:0:
43,222,122981,6,0,P|30:169|139:47,1,225,4|0,1:2|1:2,0:0:0:0:
413,77,123581,2,0,P|437:125|403:225,1,150,12|0,0:2|1:2,0:0:0:0:
312,227,124031,1,0,1:2:0:0:
52,204,124181,6,0,L|48:106,1,75,12|0,0:2|1:2,0:0:0:0:
129,102,124481,1,4,1:2:0:0:
52,67,124631,1,0,1:2:0:0:
150,33,124781,1,2,0:1:0:0:
112,27,124856,1,0,0:0:0:0:
75,20,124931,1,0,0:0:0:0:
330,112,125081,2,0,L|340:168,2,37.5,8|8|8,0:2|0:2|0:2,0:0:0:0:
80,272,125381,6,0,P|40:239|92:165,1,150,6|8,1:2|0:2,0:0:0:0:
153,161,125831,2,0,L|312:151,1,150,2|0,0:0|0:0,0:0:0:0:
145,132,126281,2,0,L|139:49,1,75,10|0,0:2|0:0,0:0:0:0:
434,190,126581,6,0,L|290:113,1,150,2|8,1:2|0:2,0:0:0:0:
376,122,127031,2,0,P|421:98|382:8,1,150,2|2,0:0|0:0,0:0:0:0:
314,13,127481,1,10,0:2:0:0:
427,63,127631,1,0,0:0:0:0:
269,189,127781,6,0,L|453:184,1,150,2|8,1:2|0:2,0:0:0:0:
329,145,128231,2,0,L|173:146,1,150,2|2,0:0|0:0,0:0:0:0:
338,95,128681,2,0,L|424:93,1,75,10|0,0:2|0:0,0:0:0:0:
126,100,128981,6,0,L|120:201,1,75,2|0,1:2|0:0,0:0:0:0:
213,181,129281,2,0,L|218:279,1,75,8|2,0:2|0:0,0:0:0:0:
129,282,129581,2,0,L|51:290,1,75,0|0,1:2|0:0,0:0:0:0:
152,211,129881,2,0,L|69:203,1,75,10|2,0:2|0:0,0:0:0:0:
319,273,130181,6,0,P|400:213|387:146,1,150,2|8,1:2|0:2,0:0:0:0:
311,162,130631,2,0,P|287:132|317:22,1,150,2|0,0:0|0:0,0:0:0:0:
413,31,131081,2,0,L|502:22,1,75,10|0,0:2|0:0,0:0:0:0:
223,219,131381,6,0,L|64:210,1,150,2|8,1:2|0:2,0:0:0:0:
179,213,131831,2,0,P|208:268|156:342,1,150,2|2,0:0|0:0,0:0:0:0:
70,331,132281,1,10,0:2:0:0:
159,319,132431,1,0,0:0:0:0:
313,261,132581,6,0,P|354:230|326:137,1,150,2|8,1:2|0:2,0:0:0:0:
250,144,133031,2,0,L|80:149,1,150,2|2,0:0|0:0,0:0:0:0:
259,222,133481,2,0,L|262:324,1,75,10|0,0:2|0:0,0:0:0:0:
104,305,133781,6,0,L|88:393,1,75,2|0,1:2|0:0,0:0:0:0:
330,376,134081,2,0,L|412:376,1,75,10|0,0:0|0:0,0:0:0:0:
178,311,134381,2,0,L|178:229,1,75,2|0,1:2|0:0,0:0:0:0:
316,249,134681,2,0,L|316:153,1,75,10|0,0:0|0:0,0:0:0:0:
101,274,134981,6,0,P|61:241|113:167,1,150,6|8,1:2|0:2,0:0:0:0:
186,162,135431,2,0,P|213:128|174:32,1,150,2|0,0:0|0:0,0:0:0:0:
20,112,135881,2,0,L|14:29,1,75,10|0,0:2|0:0,0:0:0:0:
294,196,136181,6,0,L|150:119,1,150,2|8,1:2|0:2,0:0:0:0:
72,124,136631,2,0,P|27:100|66:10,1,150,2|2,0:0|0:0,0:0:0:0:
133,13,137081,1,10,0:2:0:0:
212,19,137231,1,0,0:0:0:0:
372,234,137381,6,0,P|366:184|261:147,1,150,2|8,1:2|0:2,0:0:0:0:
183,145,137831,2,0,L|339:146,1,150,2|2,0:0|0:0,0:0:0:0:
174,95,138281,2,0,L|88:93,1,75,10|0,0:2|0:0,0:0:0:0:
347,97,138581,6,0,L|443:95,1,75,2|0,1:2|0:0,0:0:0:0:
317,70,138881,2,0,L|240:69,1,75,10|0,0:2|0:0,0:0:0:0:
361,144,139181,2,0,L|368:242,1,75,2|0,1:2|0:0,0:0:0:0:
209,269,139481,2,0,L|118:224,1,75,10|0,0:2|0:0,0:0:0:0:
412,264,139781,6,0,P|451:231|398:152,1,150,2|8,1:2|0:2,0:0:0:0:
331,151,140231,2,0,P|272:121|302:46,1,150,2|2,0:0|0:0,0:0:0:0:
387,74,140681,2,0,L|381:-9,1,75,10|0,0:2|0:0,0:0:0:0:
151,125,140981,6,0,P|126:180|191:248,1,150,2|8,1:2|0:2,0:0:0:0:
248,259,141431,2,0,L|413:266,1,150,2|0,0:0|0:0,0:0:0:0:
480,265,141881,1,10,0:2:0:0:
391,174,142031,1,0,0:0:0:0:
88,238,142181,6,0,P|54:202|101:122,1,150,6|0,1:2|0:0,0:0:0:0:
183,122,142631,1,0,1:2:0:0:
427,123,142781,2,0,P|461:152|413:244,1,150,12|0,0:2|1:2,0:0:0:0:
347,252,143231,1,0,1:2:0:0:
98,251,143381,6,0,L|95:167,1,75,12|0,0:2|1:2,0:0:0:0:
204,178,143681,2,0,L|298:176,1,75,4|0,1:2|1:2,0:0:0:0:
64,133,143981,2,0,L|63:50,1,75,4|0,1:2|1:2,0:0:0:0:
169,22,144281,2,0,L|68:24,1,75,0|0,1:2|1:2,0:0:0:0:
330,118,144581,6,0,L|416:121,2,75,6|2|2,1:2|0:0|1:2,0:0:0:0:
254,116,145031,2,0,P|210:129|258:257,1,225,2|0,0:0|0:0,0:0:0:0:
419,303,145781,1,0,1:0:0:0:
419,303,146081,1,0,1:0:0:0:
419,303,146981,5,0,1:0:0:0:
419,303,147281,1,0,1:0:0:0:
419,303,148181,5,0,1:0:0:0:
419,303,148481,1,0,1:0:0:0:
