osu file format v14

[General]
AudioFilename: audio.mp3
AudioLeadIn: 0
PreviewTime: 106181
Countdown: 0
SampleSet: Soft
StackLeniency: 0.7
Mode: 2
LetterboxInBreaks: 0
WidescreenStoryboard: 1

[Editor]
DistanceSpacing: 1.2
BeatDivisor: 4
GridSize: 4
TimelineZoom: 2.7

[Metadata]
Title:Cross Over
TitleUnicode:Cross†Over
Artist:HyuN feat. LyuU
ArtistUnicode:HyuN feat. LyuU
Creator:Razor Sharp
Version:AutoLs' Deluge
Source:osu!
Tags:fa featured artist nelly autols spectator rocma autofanboy roxy migurdia Realazy AFB alienflybot Arthas _Asriel Benita Electronic Korean hyunesis ft. Digital Step Core Artcore PUMP IT UP PRIME PIU Crossover Benny-
BeatmapID:2566886
BeatmapSetID:1233114

[Difficulty]
HPDrainRate:6
CircleSize:4.5
OverallDifficulty:9.7
ApproachRate:9.7
SliderMultiplier:2
SliderTickRate:2

[Events]
//Background and Video events
0,0,"dreamy-world-background-13.jpg",0,0
//Break Periods
//Storyboard Layer 0 (Background)
//Storyboard Layer 1 (Fail)
//Storyboard Layer 2 (Pass)
//Storyboard Layer 3 (Foreground)
//Storyboard Layer 4 (Overlay)
//Storyboard Sound Samples

[TimingPoints]
581,300,4,2,1,30,1,0
9281,-100,4,2,1,50,0,0
10181,-83.3333333333333,4,2,1,70,0,0
20081,-66.6666666666667,4,2,1,70,0,0
20381,-83.3333333333333,4,2,1,70,0,0
29381,-100,4,2,1,70,0,0
67781,-83.3333333333333,4,2,1,70,0,1
87281,-66.6666666666667,4,2,1,70,0,1
87581,-83.3333333333333,4,2,1,70,0,0
106181,-100,4,2,1,70,0,0
125381,-83.3333333333333,4,2,1,70,0,1
144581,-100,4,2,1,70,0,0

[Colours]
Combo1 : 255,128,64
Combo2 : 0,0,255
Combo3 : 255,128,255
Combo4 : 128,255,128

[HitObjects]
93,341,581,6,0,L|84:206,1,100,2|2,1:2|0:0,0:0:0:0:
216,224,881,1,2,1:2:0:0:
96,202,1031,1,2,0:0:0:0:
196,167,1181,5,0,0:0:0:0:
96,156,1331,1,0,0:0:0:0:
159,117,1406,2,0,L|217:117,2,50,0|0|0,0:0|0:0|0:0,0:0:0:0:
94,235,1631,2,0,L|94:167,1,50,0|0,0:0|0:0,0:0:0:0:
244,337,1781,6,0,L|244:246,1,50,0|0,1:0|0:0,0:0:0:0:
174,269,1931,2,0,L|174:211,1,50,0|0,0:0|0:0,0:0:0:0:
249,220,2081,2,0,L|109:220,1,100,0|0,1:0|0:0,0:0:0:0:
269,160,2381,5,0,0:0:0:0:
369,119,2531,1,0,0:0:0:0:
409,161,2606,1,0,0:0:0:0:
404,211,2681,1,0,0:0:0:0:
354,211,2756,1,0,0:0:0:0:
404,211,2831,1,0,0:0:0:0:
354,211,2906,1,0,0:0:0:0:
154,288,2981,5,2,1:2:0:0:
254,276,3131,1,2,0:0:0:0:
154,288,3281,2,0,L|148:177,1,100,2|2,1:2|0:0,0:0:0:0:
249,184,3581,5,0,0:0:0:0:
204,161,3656,1,0,0:0:0:0:
159,138,3731,1,0,0:0:0:0:
280,327,3881,2,0,L|280:254,1,50,0|0,0:0|0:0,0:0:0:0:
210,271,4031,2,0,L|210:204,1,50,0|0,0:0|0:0,0:0:0:0:
385,212,4181,5,2,1:2:0:0:
285,204,4331,1,2,0:0:0:0:
385,212,4481,2,0,L|397:88,1,100,2|2,1:2|0:0,0:0:0:0:
275,294,4781,5,0,0:0:0:0:
175,248,4931,2,0,L|241:248,1,50,2|0,0:0|0:0,0:0:0:0:
275,226,5081,1,2,0:0:0:0:
290,179,5156,1,0,0:0:0:0:
269,135,5231,1,2,0:0:0:0:
224,116,5306,1,0,0:0:0:0:
74,361,5381,6,0,L|13:248,1,100,2|2,1:2|0:0,0:0:0:0:
176,286,5681,2,0,L|296:268,1,100,2|2,1:2|0:0,0:0:0:0:
170,241,5981,1,0,0:0:0:0:
225,333,6131,1,0,0:0:0:0:
175,339,6206,1,0,0:0:0:0:
125,338,6281,1,0,0:0:0:0:
101,295,6356,1,0,0:0:0:0:
112,247,6431,1,0,0:0:0:0:
153,221,6506,1,0,0:0:0:0:
303,250,6581,6,0,L|303:168,1,50,0|0,1:0|0:0,0:0:0:0:
233,192,6731,2,0,L|233:127,1,50,0|0,0:0|0:0,0:0:0:0:
303,130,6881,1,0,1:0:0:0:
173,103,7031,1,0,0:0:0:0:
273,340,7181,6,0,L|273:252,1,50,0|0,0:0|0:0,0:0:0:0:
203,279,7331,2,0,L|203:190,1,50,0|0,0:0|0:0,0:0:0:0:
273,340,7481,2,0,L|273:252,1,50,0|0,0:0|0:0,0:0:0:0:
343,273,7631,2,0,L|343:184,1,50,0|0,0:0|0:0,0:0:0:0:
193,233,7781,6,0,L|87:201,1,100,2|2,1:2|0:0,0:0:0:0:
247,161,8081,2,0,L|354:142,1,100,2|0,1:2|0:0,0:0:0:0:
245,267,8381,2,0,L|258:217,1,50,0|0,0:0|0:0,0:0:0:0:
323,212,8531,2,0,L|312:157,1,50,0|0,0:0|0:0,0:0:0:0:
173,216,8681,2,0,L|106:208,1,50,0|0,0:0|0:0,0:0:0:0:
184,184,8831,2,0,L|244:178,1,50,0|0,0:0|0:0,0:0:0:0:
384,302,8981,6,0,L|297:300,3,50,8|8|8|8,0:0|0:0|0:0|0:0,0:0:0:0:
49,346,9281,2,0,P|51:294|164:239,1,150,8|0,0:0|0:0,0:0:0:0:
285,289,9581,6,0,L|240:289,6,25,4|0|0|0|0|0|0,0:0|0:0|0:0|0:0|0:0|0:0|0:0,0:0:0:0:
435,188,9881,2,0,L|343:188,1,50,4|4,1:2|1:2,0:0:0:0:
185,197,10031,2,0,L|106:197,1,50,4|4,1:2|1:2,0:0:0:0:
357,147,10181,6,0,L|180:147,1,119.999996337891,6|0,1:2|0:0,0:0:0:0:
381,210,10481,2,0,L|229:210,1,119.999996337891,8|2,0:2|0:0,0:0:0:0:
117,306,10781,2,0,L|269:306,3,119.999996337891,2|0|10|0,1:2|0:0|0:2|0:0,0:0:0:0:
477,273,11381,6,0,L|327:273,1,119.999996337891,2|0,1:2|0:0,0:0:0:0:
213,231,11681,2,0,L|366:231,1,119.999996337891,8|2,0:2|0:0,0:0:0:0:
213,338,11981,2,0,L|213:202,1,119.999996337891,2|0,1:2|0:0,0:0:0:0:
357,202,12281,2,0,L|210:202,1,119.999996337891,10|0,0:2|0:0,0:0:0:0:
33,294,12581,6,0,L|33:143,1,119.999996337891,2|0,1:2|0:0,0:0:0:0:
177,160,12881,2,0,L|34:160,1,119.999996337891,8|2,0:2|0:0,0:0:0:0:
201,243,13181,2,0,L|335:243,3,119.999996337891,2|0|10|0,1:2|0:0|0:2|0:0,0:0:0:0:
81,339,13781,6,0,L|342:339,1,239.999992675781,2|8,1:2|0:2,0:0:0:0:
201,302,14231,2,0,L|278:301,1,59.9999981689454,2|2,0:0|0:0,0:0:0:0:
413,278,14381,1,2,1:2:0:0:
391,223,14456,1,0,0:0:0:0:
341,192,14531,1,2,0:0:0:0:
101,177,14681,1,10,0:2:0:0:
101,177,14831,1,0,0:0:0:0:
317,268,14981,6,0,L|144:268,1,119.999996337891,2|0,1:2|0:0,0:0:0:0:
437,333,15281,2,0,L|437:160,1,119.999996337891,8|2,0:2|0:0,0:0:0:0:
293,202,15581,2,0,L|459:202,1,119.999996337891,2|0,1:2|0:0,0:0:0:0:
173,333,15881,2,0,L|173:199,1,119.999996337891,10|0,0:2|0:0,0:0:0:0:
413,156,16181,6,0,L|279:156,1,119.999996337891,2|0,1:2|0:0,0:0:0:0:
149,122,16481,1,8,0:2:0:0:
293,131,16631,1,2,0:0:0:0:
173,283,16781,2,0,L|173:152,1,119.999996337891,2|0,1:2|0:0,0:0:0:0:
389,184,17081,2,0,L|240:184,1,119.999996337891,10|0,0:2|0:0,0:0:0:0:
53,341,17381,6,0,L|162:254,1,119.999996337891,2|0,1:2|0:0,0:0:0:0:
274,227,17681,2,0,L|431:216,1,119.999996337891,8|2,0:2|0:0,0:0:0:0:
178,179,17981,2,0,L|13:172,3,119.999996337891,2|0|10|0,1:2|0:0|0:2|0:0,0:0:0:0:
396,121,18581,6,0,L|122:121,1,239.999992675781,2|8,1:2|0:2,0:0:0:0:
276,90,19031,2,0,L|190:90,1,59.9999981689454,2|2,0:0|0:0,0:0:0:0:
36,215,19181,1,4,1:2:0:0:
58,160,19256,1,0,0:0:0:0:
111,136,19331,1,0,0:0:0:0:
328,161,19481,1,8,0:2:0:0:
184,225,19631,1,8,0:2:0:0:
424,299,19781,6,0,L|366:280,1,59.9999981689454,2|2,1:1|0:1,0:0:0:0:
235,260,19931,1,2,0:1:0:0:
103,261,20006,1,2,0:1:0:0:
235,260,20081,2,0,P|356:234|306:128,1,225.000008583069,0|0,0:1|0:0,0:0:0:0:
168,147,20381,6,0,L|317:136,1,119.999996337891,6|0,1:2|0:0,0:0:0:0:
144,91,20681,2,0,L|277:80,1,119.999996337891,10|0,0:2|0:0,0:0:0:0:
48,291,20981,6,0,P|66:221|149:189,1,119.999996337891,2|0,1:2|0:0,0:0:0:0:
247,191,21281,2,0,L|95:181,1,119.999996337891,8|2,0:2|0:0,0:0:0:0:
247,160,21581,2,0,L|172:155,1,59.9999981689454,2|0,1:2|0:0,0:0:0:0:
127,119,21731,2,0,L|204:110,1,59.9999981689454,0|0,0:0|0:0,0:0:0:0:
357,188,21881,2,0,L|214:167,1,119.999996337891,10|0,0:2|0:0,0:0:0:0:
454,308,22181,6,0,P|453:231|379:188,1,119.999996337891,2|0,1:2|0:0,0:0:0:0:
305,247,22481,2,0,L|242:240,1,59.9999981689454,8|0,0:2|0:0,0:0:0:0:
396,197,22631,2,0,L|463:188,1,59.9999981689454,2|2,0:0|0:0,0:0:0:0:
243,318,22781,1,2,1:2:0:0:
240,259,22856,1,0,0:0:0:0:
273,210,22931,1,0,0:0:0:0:
329,190,23006,1,0,0:0:0:0:
480,167,23081,2,0,L|312:146,1,119.999996337891,10|0,0:2|0:0,0:0:0:0:
143,287,23381,6,0,L|151:224,1,59.9999981689454,2|0,1:2|0:0,0:0:0:0:
224,214,23531,2,0,L|152:214,1,59.9999981689454,0|0,0:0|0:0,0:0:0:0:
332,283,23681,2,0,L|333:207,1,59.9999981689454,8|0,0:2|0:0,0:0:0:0:
261,204,23831,2,0,L|347:204,1,59.9999981689454,2|2,0:0|0:0,0:0:0:0:
171,154,23981,6,0,L|80:154,1,59.9999981689454,2|0,1:2|0:0,0:0:0:0:
261,276,24131,2,0,L|341:276,1,59.9999981689454,2|0,0:0|0:0,0:0:0:0:
111,337,24281,1,10,0:2:0:0:
124,279,24356,1,0,0:0:0:0:
167,239,24431,1,0,0:0:0:0:
225,230,24506,1,0,0:0:0:0:
405,202,24581,6,0,L|235:195,1,119.999996337891,6|0,1:2|0:0,0:0:0:0:
429,157,24881,2,0,L|288:151,1,119.999996337891,8|2,0:2|0:0,0:0:0:0:
188,154,25181,2,0,L|260:137,1,59.9999981689454,2|0,1:2|0:0,0:0:0:0:
319,114,25331,2,0,L|239:108,1,59.9999981689454,0|0,0:0|0:0,0:0:0:0:
91,264,25481,1,10,0:2:0:0:
86,205,25556,1,0,0:0:0:0:
120,157,25631,1,0,0:0:0:0:
177,142,25706,1,0,0:0:0:0:
345,241,25781,6,0,L|190:235,1,119.999996337891,6|0,1:2|0:0,0:0:0:0:
370,198,26081,2,0,L|206:189,1,119.999996337891,8|2,0:2|0:0,0:0:0:0:
371,149,26381,2,0,L|434:142,1,59.9999981689454,2|0,1:2|0:0,0:0:0:0:
370,119,26531,2,0,L|302:114,1,59.9999981689454,0|0,0:0|0:0,0:0:0:0:
140,145,26681,1,10,0:2:0:0:
200,145,26756,1,0,0:0:0:0:
260,145,26831,1,0,0:0:0:0:
320,145,26906,1,0,0:0:0:0:
146,338,26981,5,4,1:2:0:0:
112,288,27056,1,0,0:0:0:0:
99,230,27131,1,0,0:0:0:0:
108,171,27206,1,0,0:0:0:0:
139,120,27281,1,0,0:0:0:0:
187,84,27356,1,0,0:0:0:0:
244,69,27431,1,0,1:2:0:0:
187,84,27506,1,0,0:0:0:0:
46,274,27581,6,0,L|30:211,1,59.9999981689454,12|0,0:2|0:0,0:0:0:0:
92,193,27731,2,0,L|161:185,1,59.9999981689454,0|0,0:0|0:0,0:0:0:0:
322,246,27881,2,0,L|301:163,1,59.9999981689454,0|0,1:2|0:0,0:0:0:0:
222,195,28031,2,0,L|205:119,1,59.9999981689454,0|0,1:2|0:0,0:0:0:0:
401,188,28181,6,0,L|312:188,1,59.9999981689454,12|0,0:2|0:0,0:0:0:0:
209,264,28331,2,0,L|306:263,1,59.9999981689454,0|0,1:2|1:2,0:0:0:0:
136,137,28481,2,0,L|59:137,1,59.9999981689454,4|0,1:2|0:0,0:0:0:0:
226,102,28631,2,0,L|306:102,1,59.9999981689454,0|0,1:2|1:2,0:0:0:0:
497,144,28781,1,4,1:2:0:0:
221,208,28931,1,0,1:2:0:0:
436,294,29081,2,0,L|361:294,1,59.9999981689454,0|0,1:2|1:2,0:0:0:0:
208,328,29231,2,0,L|106:328,1,59.9999981689454,0|0,1:2|1:2,0:0:0:0:
322,350,29381,6,0,P|370:308|108:232,1,600,6|2,0:2|0:0,0:0:0:0:
209,193,30431,1,2,0:0:0:0:
89,338,30581,6,0,P|53:280|151:174,1,200,2|0,0:0|0:0,0:0:0:0:
236,290,31031,2,0,L|380:275,1,100,2|0,0:0|0:0,0:0:0:0:
234,244,31331,2,0,L|119:244,2,100,0|2|2,0:0|0:0|0:0,0:0:0:0:
366,95,31781,6,0,P|425:121|410:264,1,200,2|0,0:0|0:0,0:0:0:0:
313,291,32231,2,0,P|191:257|210:168,1,200,2|0,0:0|0:0,0:0:0:0:
309,211,32681,2,0,B|447:210|447:210|446:141|446:141|317:148|317:148|435:144|435:144|317:127|317:127|441:125|441:125|307:89,1,800,2|2,0:0|0:0,0:0:0:0:
225,111,34031,1,2,0:0:0:0:
108,347,34181,6,0,P|68:287|386:133,1,600,2|2,0:0|0:0,0:0:0:0:
296,349,35231,1,2,0:0:0:0:
416,352,35381,6,0,P|429:286|358:179,1,200,2|0,0:0|0:0,0:0:0:0:
239,167,35831,1,2,0:0:0:0:
379,135,35981,2,0,L|253:135,1,100,0|0,0:0|0:0,0:0:0:0:
159,235,36281,2,0,L|27:235,1,100,2|2,0:0|0:0,0:0:0:0:
199,341,36581,6,0,P|205:256|110:189,1,200,2|0,0:0|0:0,0:0:0:0:
261,172,37031,2,0,L|472:161,1,200,2|0,0:0|0:0,0:0:0:0:
208,323,37481,2,0,B|90:234|58:12|213:179|213:179|422:-31|387:291|203:336,1,800,2|2,0:0|0:0,0:0:0:0:
86,314,38831,1,2,0:0:0:0:
337,307,38981,6,0,L|116:307,1,200,6|0,1:2|0:0,0:0:0:0:
257,305,39431,2,0,L|264:84,1,200,2|0,0:0|0:0,0:0:0:0:
142,106,39881,2,0,L|139:224,1,100,2|0,0:0|0:0,0:0:0:0:
259,209,40181,1,0,0:0:0:0:
489,332,40331,6,0,L|489:213,1,100,2|0,0:0|0:0,0:0:0:0:
369,208,40631,1,2,0:0:0:0:
249,318,40781,2,0,L|391:318,1,100,2|0,0:0|0:0,0:0:0:0:
229,277,41081,2,0,L|354:277,1,100,2|0,0:0|0:0,0:0:0:0:
99,320,41381,6,0,L|99:95,1,200,2|0,0:0|0:0,0:0:0:0:
219,163,41831,2,0,L|219:47,1,100,2|0,0:0|0:0,0:0:0:0:
339,244,42131,1,0,0:0:0:0:
219,340,42281,2,0,L|219:212,1,100,2|0,0:0|0:0,0:0:0:0:
99,238,42581,1,0,0:0:0:0:
219,213,42731,6,0,L|219:85,1,100,2|0,0:0|0:0,0:0:0:0:
339,235,43031,1,0,0:0:0:0:
219,179,43181,2,0,L|347:179,1,100,2|0,0:0|0:0,0:0:0:0:
199,131,43481,2,0,L|328:131,1,100,2|0,0:0|0:0,0:0:0:0:
69,312,43781,6,0,P|64:246|198:162,1,200,6|0,0:0|0:0,0:0:0:0:
276,269,44231,2,0,L|276:138,1,100,2|0,0:0|0:0,0:0:0:0:
156,271,44531,1,0,0:0:0:0:
277,271,44681,2,0,L|277:158,1,100,2|0,0:0|0:0,0:0:0:0:
157,172,44981,5,0,0:0:0:0:
377,326,45131,2,0,L|377:190,1,100,2|0,0:0|0:0,0:0:0:0:
287,196,45431,1,2,0:0:0:0:
167,334,45581,2,0,L|303:334,1,100,2|0,0:0|0:0,0:0:0:0:
147,283,45881,2,0,L|147:144,1,100,2|0,0:0|0:0,0:0:0:0:
417,335,46181,6,0,P|459:255|374:154,1,200,6|0,0:0|0:0,0:0:0:0:
289,167,46631,2,0,L|485:106,1,200,2|0,0:0|0:0,0:0:0:0:
360,265,47081,2,0,L|360:162,1,100,2|0,0:0|0:0,0:0:0:0:
240,303,47381,6,0,L|240:221,1,50,0|0,1:2|0:0,0:0:0:0:
310,238,47531,2,0,L|310:149,1,50,0|0,0:0|0:0,0:0:0:0:
160,229,47681,2,0,L|160:147,1,50,0|0,0:0|0:0,0:0:0:0:
240,165,47831,2,0,L|240:76,1,50,0|0,0:0|0:0,0:0:0:0:
55,262,47981,5,0,1:2:0:0:
54,212,48056,1,0,0:0:0:0:
104,171,48131,1,0,1:2:0:0:
174,158,48206,1,0,0:0:0:0:
338,141,48281,1,0,1:2:0:0:
278,135,48356,1,0,0:0:0:0:
218,128,48431,1,0,1:2:0:0:
158,124,48506,1,0,1:2:0:0:
333,308,48581,6,0,L|198:303,1,100,6|0,1:2|0:0,0:0:0:0:
353,266,48881,2,0,L|226:261,1,100,8|0,0:2|0:0,0:0:0:0:
373,268,49181,2,0,L|387:132,1,100,0|0,1:2|0:0,0:0:0:0:
243,208,49481,2,0,L|232:89,1,100,10|0,0:2|0:0,0:0:0:0:
464,317,49781,6,0,P|476:253|377:164,1,200,2|8,1:2|0:2,0:0:0:0:
268,252,50231,1,2,0:0:0:0:
388,331,50381,2,0,L|397:191,1,100,0|0,1:2|0:0,0:0:0:0:
254,185,50681,2,0,L|379:181,1,100,10|0,0:2|0:0,0:0:0:0:
114,303,50981,6,0,P|92:243|203:144,1,200,6|10,1:1|1:1,0:0:0:0:
289,217,51431,2,0,L|167:217,2,100,2|2|0,0:0|1:1|0:0,0:0:0:0:
169,199,51881,2,0,L|52:199,1,100,10|2,1:1|1:1,0:0:0:0:
289,52,52181,5,6,1:2:0:0:
222,52,52281,1,2,0:0:0:0:
155,52,52381,1,2,0:0:0:0:
329,124,52481,5,10,0:2:0:0:
262,124,52581,1,2,0:0:0:0:
195,124,52681,1,2,0:0:0:0:
369,208,52781,5,2,1:2:0:0:
302,208,52881,1,2,0:0:0:0:
235,208,52981,1,2,0:0:0:0:
408,303,53081,5,10,0:2:0:0:
358,303,53156,1,0,0:0:0:0:
308,303,53231,1,0,0:0:0:0:
258,303,53306,1,0,0:0:0:0:
72,323,53381,6,0,L|206:323,1,100,6|0,1:2|0:0,0:0:0:0:
52,267,53681,2,0,L|164:267,1,100,8|0,0:2|0:0,0:0:0:0:
272,225,53981,2,0,L|295:92,1,100,0|0,1:2|0:0,0:0:0:0:
148,147,54281,2,0,L|125:39,1,100,10|0,0:2|0:0,0:0:0:0:
377,294,54581,6,0,P|391:211|290:146,1,200,2|8,1:2|0:0,0:0:0:0:
188,304,55031,1,2,0:0:0:0:
308,309,55181,2,0,L|308:185,1,100,0|0,0:0|0:0,0:0:0:0:
188,195,55481,2,0,L|70:195,1,100,10|0,0:2|0:0,0:0:0:0:
328,299,55781,6,0,P|380:267|336:124,1,200,2|8,1:2|0:2,0:0:0:0:
248,204,56231,1,2,0:0:0:0:
468,302,56381,2,0,L|468:177,1,100,4|0,1:2|0:0,0:0:0:0:
128,165,56681,1,12,0:2:0:0:
178,165,56756,1,0,0:0:0:0:
228,165,56831,1,0,0:0:0:0:
453,209,56981,6,0,L|334:196,1,100,6|0,1:2|0:0,0:0:0:0:
303,186,57206,1,2,0:0:0:0:
152,232,57281,6,0,L|102:231,3,50,10|0|0|0,0:2|0:0|0:0|0:0,0:0:0:0:
291,216,57581,6,0,L|341:216,3,50,2|2|2|2,1:2|0:0|0:0|0:0,0:0:0:0:
155,166,57881,6,0,L|232:166,1,50,10|2,0:2|0:0,0:0:0:0:
275,128,58031,2,0,L|213:129,1,50,2|2,0:0|0:0,0:0:0:0:
74,302,58181,6,0,P|68:237|125:199,1,100,6|0,1:2|0:0,0:0:0:0:
208,214,58481,2,0,L|127:110,1,100,8|0,0:2|0:0,0:0:0:0:
267,132,58781,2,0,L|122:132,1,100,0|0,1:2|0:0,0:0:0:0:
287,98,59081,2,0,L|157:98,1,100,10|0,0:2|0:0,0:0:0:0:
417,291,59381,6,0,P|436:232|390:187,1,100,2|0,1:2|0:0,0:0:0:0:
279,201,59681,2,0,L|387:197,1,100,8|2,0:2|0:0,0:0:0:0:
110,325,59981,6,0,L|102:191,1,100,0|0,1:2|0:0,0:0:0:0:
224,205,60281,2,0,L|140:204,1,50,10|0,0:2|0:0,0:0:0:0:
104,160,60431,2,0,L|175:160,1,50,0|0,0:0|0:0,0:0:0:0:
314,320,60581,5,6,1:1:0:0:
364,281,60656,1,0,0:0:0:0:
364,223,60731,1,0,0:0:0:0:
314,191,60806,1,0,0:0:0:0:
164,180,60881,1,10,1:1:0:0:
213,178,60956,1,0,0:0:0:0:
263,177,61031,1,2,0:0:0:0:
313,175,61106,1,0,0:0:0:0:
138,307,61181,6,0,L|159:229,1,50,2|0,1:1|0:0,0:0:0:0:
236,252,61331,2,0,L|254:175,1,50,0|0,0:0|0:0,0:0:0:0:
102,224,61481,1,10,1:1:0:0:
52,181,61556,1,0,0:0:0:0:
52,122,61631,1,2,1:1:0:0:
102,98,61706,1,0,0:0:0:0:
302,108,61781,5,6,1:2:0:0:
235,105,61881,1,0,0:0:0:0:
168,102,61981,1,0,0:0:0:0:
342,201,62081,6,0,L|443:200,2,66.6666666666667,10|0|0,0:2|0:0|0:0,0:0:0:0:
167,260,62381,5,2,1:2:0:0:
233,260,62481,1,0,0:0:0:0:
300,260,62581,1,0,0:0:0:0:
127,221,62681,6,0,L|42:221,1,50,10|0,0:2|0:0,0:0:0:0:
27,186,62831,2,0,L|96:186,1,50,0|0,0:0|0:0,0:0:0:0:
282,315,62981,6,0,L|282:182,1,100,6|0,1:2|0:0,0:0:0:0:
142,269,63281,2,0,L|142:163,1,100,8|0,0:2|0:0,0:0:0:0:
262,197,63581,2,0,L|262:78,1,100,0|0,1:2|0:0,0:0:0:0:
122,101,63881,2,0,L|224:101,1,100,10|0,0:2|0:0,0:0:0:0:
442,333,64181,6,0,P|462:267|368:172,1,200,6|8,1:2|0:2,0:0:0:0:
264,217,64631,2,0,L|402:213,2,100,2|0|0,0:0|0:0|0:0,0:0:0:0:
143,308,65081,2,0,P|70:287|67:231,1,100,10|0,0:2|0:0,0:0:0:0:
285,266,65381,6,0,L|169:266,1,100,6|0,1:2|0:0,0:0:0:0:
285,202,65681,1,0,0:0:0:0:
299,155,65756,1,0,0:0:0:0:
277,111,65831,1,0,1:2:0:0:
231,95,65906,1,0,0:0:0:0:
50,99,65981,6,0,L|105:90,1,50,12|0,0:2|0:0,0:0:0:0:
250,90,66131,2,0,L|330:92,1,50,0|0,0:0|0:0,0:0:0:0:
148,235,66281,2,0,L|221:237,1,50,0|0,1:2|0:0,0:0:0:0:
348,243,66431,2,0,L|429:244,1,50,0|0,1:2|0:0,0:0:0:0:
246,190,66581,6,0,L|173:188,1,50,12|0,0:2|0:0,0:0:0:0:
346,163,66731,2,0,L|407:157,1,50,0|0,1:2|1:2,0:0:0:0:
196,134,66881,2,0,L|137:122,1,50,4|0,1:2|0:0,0:0:0:0:
401,129,67031,2,0,L|456:108,1,50,0|0,1:2|1:2,0:0:0:0:
143,90,67181,6,0,L|96:53,1,50,4|0,1:2|0:0,0:0:0:0:
279,62,67331,2,0,L|289:14,1,50,0|0,1:2|1:2,0:0:0:0:
439,199,67481,2,0,L|439:108,1,50,0|0,1:2|1:2,0:0:0:0:
254,234,67631,2,0,L|238:169,1,50,0|0,1:2|1:2,0:0:0:0:
60,340,67781,6,0,P|49:271|209:189,1,239.999992675781,6|8,1:2|0:2,0:0:0:0:
316,183,68231,2,0,L|180:175,2,119.999996337891,2|0|0,0:0|1:2|0:0,0:0:0:0:
448,287,68681,2,0,L|448:150,1,119.999996337891,10|0,0:2|0:0,0:0:0:0:
208,199,68981,6,0,P|115:192|149:47,1,239.999992675781,2|8,1:2|0:2,0:0:0:0:
255,337,69431,1,2,0:0:0:0:
129,335,69581,2,0,L|129:167,1,119.999996337891,0|0,1:2|0:0,0:0:0:0:
390,213,69881,2,0,L|217:213,1,119.999996337891,10|0,0:2|0:0,0:0:0:0:
53,285,70181,6,0,L|331:285,1,239.999992675781,2|8,1:2|0:2,0:0:0:0:
197,237,70631,1,2,0:0:0:0:
317,231,70781,1,0,1:2:0:0:
317,231,70931,1,0,0:0:0:0:
221,316,71081,2,0,L|358:312,1,119.999996337891,10|0,0:2|0:0,0:0:0:0:
125,253,71381,6,0,L|280:253,3,119.999996337891,2|0|10|0,1:2|0:0|0:2|0:0,0:0:0:0:
389,208,71981,2,0,L|222:208,1,119.999996337891,2|0,1:2|0:0,0:0:0:0:
413,163,72281,2,0,L|272:163,1,119.999996337891,10|0,0:2|0:0,0:0:0:0:
53,285,72581,6,0,P|68:206|241:153,1,239.999992675781,2|8,1:2|0:2,0:0:0:0:
346,228,73031,2,0,L|181:214,2,119.999996337891,2|0|0,0:0|1:2|0:0,0:0:0:0:
483,323,73481,2,0,P|462:240|395:208,1,119.999996337891,10|0,0:2|0:0,0:0:0:0:
162,195,73781,6,0,L|429:190,1,239.999992675781,2|8,1:2|0:2,0:0:0:0:
258,156,74231,2,0,L|419:153,2,119.999996337891,2|0|0,0:0|1:2|0:0,0:0:0:0:
114,262,74681,2,0,P|122:191|188:158,1,119.999996337891,10|0,0:2|0:0,0:0:0:0:
399,196,74981,6,0,L|242:187,1,119.999996337891,2|0,1:2|0:0,0:0:0:0:
138,184,75281,1,8,0:2:0:0:
282,134,75431,2,0,L|115:134,2,119.999996337891,2|0|0,0:0|1:2|0:0,0:0:0:0:
42,314,75881,2,0,L|42:165,1,119.999996337891,10|0,0:2|0:0,0:0:0:0:
402,208,76181,6,0,L|273:208,1,119.999996337891,2|0,1:2|0:0,0:0:0:0:
42,172,76481,2,0,L|200:172,1,119.999996337891,10|0,0:0|0:0,0:0:0:0:
462,137,76781,2,0,L|315:137,1,119.999996337891,2|0,1:2|0:0,0:0:0:0:
102,126,77081,2,0,L|237:126,1,119.999996337891,10|0,0:0|0:0,0:0:0:0:
462,318,77381,6,0,P|442:257|253:184,1,239.999992675781,6|8,1:2|0:2,0:0:0:0:
441,151,77831,2,0,L|321:151,2,119.999996337891,2|0|0,0:0|1:2|0:0,0:0:0:0:
152,229,78281,2,0,L|321:229,1,119.999996337891,10|0,0:2|0:0,0:0:0:0:
32,343,78581,6,0,P|72:281|226:250,1,239.999992675781,2|8,1:2|0:2,0:0:0:0:
370,270,79031,2,0,L|108:255,1,239.999992675781,2|0,0:0|0:0,0:0:0:0:
442,242,79481,2,0,L|292:242,1,119.999996337891,10|0,0:2|0:0,0:0:0:0:
82,323,79781,6,0,L|355:323,1,239.999992675781,2|8,1:2|0:2,0:0:0:0:
178,292,80231,2,0,L|44:292,2,119.999996337891,2|0|0,0:0|1:2|0:0,0:0:0:0:
418,308,80681,2,0,L|418:161,1,119.999996337891,10|0,0:2|0:0,0:0:0:0:
202,196,80981,6,0,L|372:197,1,119.999996337891,2|0,1:2|0:0,0:0:0:0:
176,158,81281,2,0,L|341:157,1,119.999996337891,10|0,0:2|0:0,0:0:0:0:
152,120,81581,2,0,L|315:120,1,119.999996337891,2|0,1:2|0:0,0:0:0:0:
128,80,81881,2,0,L|293:80,1,119.999996337891,8|0,0:2|0:0,0:0:0:0:
464,321,82181,6,0,P|472:233|343:134,1,239.999992675781,2|8,1:2|0:2,0:0:0:0:
223,254,82631,1,2,0:0:0:0:
343,250,82781,2,0,L|343:97,1,119.999996337891,0|0,0:0|0:0,0:0:0:0:
103,351,83081,2,0,L|103:186,1,119.999996337891,10|0,0:2|0:0,0:0:0:0:
343,187,83381,6,0,L|59:187,1,239.999992675781,2|8,1:2|0:2,0:0:0:0:
247,156,83831,1,2,0:0:0:0:
127,246,83981,2,0,L|127:98,1,119.999996337891,0|0,0:0|0:0,0:0:0:0:
367,110,84281,2,0,L|367:285,1,119.999996337891,10|0,0:2|0:0,0:0:0:0:
103,330,84581,5,6,1:2:0:0:
107,271,84656,1,0,0:0:0:0:
145,225,84731,1,0,0:0:0:0:
202,210,84806,1,0,0:0:0:0:
395,248,84881,1,0,0:0:0:0:
378,191,84956,1,0,0:0:0:0:
335,151,85031,1,0,1:2:0:0:
277,139,85106,1,0,0:0:0:0:
97,154,85181,6,0,L|171:154,3,59.9999981689454,14|0|0|0,0:2|0:0|0:0|0:0,0:0:0:0:
337,293,85481,2,0,L|324:217,1,59.9999981689454,0|0,1:2|0:0,0:0:0:0:
243,223,85631,2,0,L|225:115,1,59.9999981689454,0|0,1:2|0:0,0:0:0:0:
437,165,85781,6,0,L|373:145,1,59.9999981689454,14|0,0:2|0:0,0:0:0:0:
206,130,85931,2,0,L|116:130,1,59.9999981689454,2|2,1:2|1:2,0:0:0:0:
326,187,86081,2,0,L|389:187,3,59.9999981689454,4|0|2|2,1:2|0:0|1:2|1:2,0:0:0:0:
131,310,86381,6,0,L|175:245,1,59.9999981689454,6|2,1:2|1:2,0:0:0:0:
345,235,86531,2,0,L|440:222,1,59.9999981689454,2|2,1:2|1:2,0:0:0:0:
191,178,86681,2,0,L|275:155,1,59.9999981689454,6|2,1:2|1:2,0:0:0:0:
429,141,86831,2,0,L|500:141,1,59.9999981689454,2|2,1:2|1:2,0:0:0:0:
399,92,86981,5,2,0:1:0:0:
249,92,87056,1,2,0:1:0:0:
99,99,87131,1,2,0:1:0:0:
249,92,87206,1,2,0:1:0:0:
399,92,87281,2,0,P|465:148|402:302,1,225.000008583069,0|0,0:0|0:0,0:0:0:0:
146,281,87581,6,0,L|282:265,1,119.999996337891,4|0,1:2|0:0,0:0:0:0:
48,336,87881,2,0,L|46:186,1,119.999996337891,10|0,0:2|0:0,0:0:0:0:
413,192,88181,6,0,L|273:186,1,119.999996337891,2|0,1:2|0:0,0:0:0:0:
148,212,88481,2,0,L|325:205,1,119.999996337891,8|2,0:2|0:0,0:0:0:0:
63,217,88781,2,0,P|86:147|145:122,1,119.999996337891,2|0,1:2|0:0,0:0:0:0:
268,129,89081,2,0,L|146:117,1,119.999996337891,10|0,0:2|0:0,0:0:0:0:
404,338,89381,5,2,1:2:0:0:
406,278,89456,1,0,0:0:0:0:
382,224,89531,1,0,0:0:0:0:
336,186,89606,1,0,0:0:0:0:
168,317,89681,2,0,L|195:218,1,59.9999981689454,8|0,0:2|0:0,0:0:0:0:
268,252,89831,2,0,L|199:243,1,59.9999981689454,2|0,0:0|0:0,0:0:0:0:
40,233,89981,6,0,L|181:224,1,119.999996337891,2|0,1:2|0:0,0:0:0:0:
376,211,90281,2,0,L|142:196,1,179.999994506836,10|0,0:2|0:0,0:0:0:0:
412,346,90581,5,2,1:2:0:0:
450,289,90656,1,0,0:0:0:0:
472,229,90731,1,0,0:0:0:0:
435,173,90806,1,0,0:0:0:0:
384,131,90881,1,8,0:2:0:0:
240,172,91031,2,0,L|309:167,1,59.9999981689454,2|2,0:0|0:0,0:0:0:0:
148,153,91181,2,0,L|26:137,3,119.999996337891,2|2|10|0,1:2|0:0|0:2|0:0,0:0:0:0:
469,210,91781,6,0,P|452:148|386:115,1,119.999996337891,2|0,1:2|0:0,0:0:0:0:
260,142,92081,2,0,L|98:142,1,119.999996337891,8|2,0:2|0:0,0:0:0:0:
380,217,92381,2,0,L|210:217,1,119.999996337891,2|0,1:2|0:0,0:0:0:0:
44,230,92681,2,0,P|81:158|183:131,1,179.999994506836,10|0,0:2|0:0,0:0:0:0:
353,247,92981,6,0,L|186:235,1,119.999996337891,2|0,1:2|0:0,0:0:0:0:
101,252,93281,2,0,L|185:252,1,59.9999981689454,8|0,0:2|0:0,0:0:0:0:
161,252,93431,2,0,L|79:253,1,59.9999981689454,2|2,0:0|0:0,0:0:0:0:
319,201,93581,2,0,L|485:201,1,119.999996337891,2|0,1:2|0:0,0:0:0:0:
75,283,93881,2,0,P|59:212|178:133,1,179.999994506836,10|0,0:2|0:0,0:0:0:0:
376,158,94181,6,0,L|247:145,1,119.999996337891,2|0,1:2|0:0,0:0:0:0:
101,187,94481,2,0,L|220:198,1,119.999996337891,8|2,0:2|0:0,0:0:0:0:
66,297,94781,2,0,L|214:241,1,119.999996337891,2|0,1:2|0:0,0:0:0:0:
420,333,95081,2,0,P|431:260|361:158,1,179.999994506836,10|0,0:2|0:0,0:0:0:0:
123,348,95381,5,2,1:2:0:0:
85,291,95456,1,0,0:0:0:0:
63,231,95531,1,0,0:0:0:0:
100,175,95606,1,0,0:0:0:0:
151,133,95681,1,8,0:2:0:0:
295,168,95831,2,0,L|209:168,1,59.9999981689454,2|2,0:0|0:0,0:0:0:0:
415,141,95981,6,0,L|475:136,1,59.9999981689454,2|0,1:2|0:0,0:0:0:0:
403,102,96131,2,0,L|332:93,1,59.9999981689454,2|0,0:0|0:0,0:0:0:0:
191,252,96281,2,0,L|277:244,1,59.9999981689454,10|0,0:2|0:0,0:0:0:0:
324,229,96431,2,0,L|248:219,1,59.9999981689454,0|0,0:0|0:0,0:0:0:0:
103,319,96581,6,0,L|57:312,2,29.9999990844727,2|0|0,1:1|0:0|0:0,0:0:0:0:
236,303,96731,1,0,0:0:0:0:
254,280,96768,1,0,0:0:0:0:
260,250,96806,1,0,0:0:0:0:
245,221,96843,1,0,0:0:0:0:
83,191,96881,6,0,P|35:164|131:59,1,239.999992675781,4|2,1:2|1:2,0:0:0:0:
257,138,97331,1,0,0:0:0:0:
137,238,97481,2,0,L|136:112,1,119.999996337891,10|0,0:2|0:0,0:0:0:0:
376,221,97781,6,0,L|287:214,1,59.9999981689454,2|0,1:2|0:0,0:0:0:0:
148,284,97931,2,0,L|236:273,1,59.9999981689454,0|0,1:2|1:2,0:0:0:0:
372,318,98081,2,0,L|363:250,1,59.9999981689454,0|0,1:2|0:0,0:0:0:0:
280,245,98231,2,0,L|359:237,1,59.9999981689454,0|0,1:2|0:0,0:0:0:0:
508,214,98381,6,0,P|469:146|416:114,1,119.999996337891,8|0,0:2|0:0,0:0:0:0:
195,158,98681,2,0,L|256:143,1,59.9999981689454,0|0,1:2|0:0,0:0:0:0:
418,140,98831,1,0,1:2:0:0:
166,315,98981,6,0,P|151:227|305:139,1,239.999992675781,4|0,1:2|0:0,0:0:0:0:
399,232,99431,1,0,0:0:0:0:
279,208,99581,2,0,L|420:208,1,119.999996337891,8|0,0:2|0:0,0:0:0:0:
135,333,99881,2,0,L|116:182,1,119.999996337891,0|0,1:2|0:0,0:0:0:0:
360,280,100181,6,0,L|277:207,1,59.9999981689454,0|0,1:2|0:0,0:0:0:0:
243,232,100331,2,0,L|157:226,1,59.9999981689454,0|0,1:2|1:2,0:0:0:0:
351,201,100481,2,0,L|442:201,1,59.9999981689454,0|0,1:2|0:0,0:0:0:0:
231,180,100631,2,0,L|231:102,1,59.9999981689454,0|0,1:2|0:0,0:0:0:0:
460,229,100781,5,8,0:2:0:0:
453,170,100856,1,0,0:0:0:0:
415,124,100931,1,0,0:0:0:0:
359,106,101006,1,0,0:0:0:0:
179,290,101081,1,4,1:2:0:0:
395,222,101231,1,0,1:2:0:0:
155,319,101381,5,4,1:2:0:0:
158,259,101456,1,0,0:0:0:0:
190,209,101531,1,0,1:2:0:0:
242,180,101606,1,0,0:0:0:0:
398,283,101681,2,0,P|434:237|432:175,1,119.999996337891,8|2,0:2|1:2,0:0:0:0:
361,164,101906,1,2,0:0:0:0:
212,288,101981,5,2,1:2:0:0:
334,240,102131,2,0,L|275:235,1,59.9999981689454,0|0,1:2|0:0,0:0:0:0:
106,343,102281,1,8,0:2:0:0:
56,311,102356,1,0,0:0:0:0:
31,257,102431,1,0,1:2:0:0:
41,199,102506,1,0,0:0:0:0:
251,307,102581,5,4,1:2:0:0:
303,279,102656,1,0,0:0:0:0:
334,229,102731,1,0,1:2:0:0:
336,169,102806,1,0,0:0:0:0:
198,179,102881,2,0,L|104:171,1,59.9999981689454,8|0,0:2|0:0,0:0:0:0:
212,142,103031,2,0,L|311:135,1,59.9999981689454,2|2,1:2|0:0,0:0:0:0:
482,239,103181,6,0,L|407:233,1,59.9999981689454,2|0,1:2|0:0,0:0:0:0:
252,242,103331,2,0,L|326:226,1,59.9999981689454,0|0,1:2|0:0,0:0:0:0:
481,335,103481,1,8,0:2:0:0:
462,278,103556,1,0,0:0:0:0:
422,234,103631,1,0,1:2:0:0:
368,209,103706,1,0,0:0:0:0:
200,338,103781,5,4,1:2:0:0:
141,329,103856,1,0,0:0:0:0:
93,293,103931,1,0,0:0:0:0:
68,240,104006,1,0,0:0:0:0:
69,182,104081,1,0,0:0:0:0:
99,132,104156,1,0,0:0:0:0:
159,104,104231,1,0,1:2:0:0:
399,98,104381,6,0,L|250:98,1,119.999996337891,12|0,0:2|0:0,0:0:0:0:
399,98,104681,2,0,L|294:92,1,59.9999981689454,0|0,1:2|0:0,0:0:0:0:
159,157,104831,1,0,1:2:0:0:
375,316,104981,6,0,P|367:250|345:225,1,59.9999981689454,12|0,0:2|0:0,0:0:0:0:
201,231,105131,2,0,L|279:213,1,59.9999981689454,0|0,1:2|1:2,0:0:0:0:
429,205,105281,2,0,P|428:137|359:103,1,119.999996337891,4|0,1:2|1:2,0:0:0:0:
330,94,105506,1,0,1:2:0:0:
189,201,105581,6,0,L|262:201,1,59.9999981689454,4|0,1:2|0:0,0:0:0:0:
321,170,105731,2,0,L|229:170,1,59.9999981689454,0|0,1:2|1:2,0:0:0:0:
81,126,105881,2,0,L|183:126,1,59.9999981689454,0|0,1:2|1:2,0:0:0:0:
327,103,106031,2,0,L|421:103,1,59.9999981689454,0|0,1:2|1:2,0:0:0:0:
237,320,106181,6,0,P|171:307|141:175,1,200,6|0,0:2|0:0,0:0:0:0:
252,178,106631,2,0,L|118:178,2,100,0|0|0,0:0|0:0|0:0,0:0:0:0:
152,316,107081,2,0,L|152:197,1,100,2|0,0:0|0:0,0:0:0:0:
404,72,107381,6,0,L|179:72,1,200,2|0,0:0|0:0,0:0:0:0:
325,285,107831,1,0,0:0:0:0:
205,280,107981,1,0,0:0:0:0:
205,280,108131,1,0,0:0:0:0:
325,241,108281,1,0,0:0:0:0:
325,141,108431,1,0,0:0:0:0:
105,338,108581,6,0,P|46:292|85:157,1,200,2|0,0:0|0:0,0:0:0:0:
179,172,109031,2,0,L|301:172,2,100,2|0|0,0:0|0:0|0:0,0:0:0:0:
59,159,109481,2,0,L|185:159,1,100,2|0,0:0|0:0,0:0:0:0:
379,332,109781,6,0,P|392:279|292:163,1,200,2|0,0:0|0:0,0:0:0:0:
193,249,110231,1,0,0:0:0:0:
313,251,110381,2,0,L|313:126,1,100,0|0,0:0|0:0,0:0:0:0:
193,127,110681,2,0,L|330:127,1,100,0|0,0:0|0:0,0:0:0:0:
73,295,110981,6,0,P|57:235|192:157,1,200,2|0,0:0|0:0,0:0:0:0:
268,231,111431,1,0,0:0:0:0:
148,307,111581,2,0,L|149:194,1,100,0|0,0:0|0:0,0:0:0:0:
269,195,111881,2,0,L|143:195,1,100,2|0,0:0|0:0,0:0:0:0:
389,327,112181,6,0,P|402:264|285:177,1,200,2|0,0:0|0:0,0:0:0:0:
193,242,112631,2,0,L|86:242,2,100,0|0|0,0:0|0:0|0:0,0:0:0:0:
313,214,113081,2,0,L|177:215,1,100,0|0,0:0|0:0,0:0:0:0:
434,333,113381,6,0,P|465:221|418:131,1,200,2|0,0:0|0:0,0:0:0:0:
314,258,113831,2,0,L|101:258,1,200,2|0,0:0|0:0,0:0:0:0:
234,224,114281,2,0,L|380:224,1,100,2|0,0:0|0:0,0:0:0:0:
114,180,114581,6,0,L|8:180,1,100,2|0,0:0|0:0,0:0:0:0:
314,181,114881,2,0,L|438:181,1,100,2|0,0:0|0:0,0:0:0:0:
194,138,115181,2,0,L|81:138,1,100,2|0,0:0|0:0,0:0:0:0:
214,247,115481,2,0,L|340:247,1,100,2|0,0:0|0:0,0:0:0:0:
94,355,115781,6,0,P|71:272|168:190,1,200,6|0,0:2|0:0,0:0:0:0:
262,185,116231,2,0,L|51:162,1,200,0|0,0:0|0:0,0:0:0:0:
183,152,116681,2,0,L|68:142,1,100,2|0,0:0|0:0,0:0:0:0:
325,328,116981,6,0,P|321:251|210:185,1,200,2|0,0:0|0:0,0:0:0:0:
106,185,117431,2,0,L|337:174,1,200,0|0,0:0|0:0,0:0:0:0:
186,152,117881,2,0,L|297:146,1,100,0|0,0:0|0:0,0:0:0:0:
495,276,118181,6,0,P|503:216|409:118,1,200,2|0,0:0|0:0,0:0:0:0:
286,284,118631,1,2,0:0:0:0:
406,283,118781,2,0,L|409:164,1,100,0|0,0:0|0:0,0:0:0:0:
288,195,119081,2,0,L|151:175,1,100,2|0,0:0|0:0,0:0:0:0:
411,161,119381,6,0,L|199:128,1,200,2|0,0:0|0:0,0:0:0:0:
333,241,119831,1,0,0:0:0:0:
213,338,119981,2,0,L|213:216,1,100,0|0,0:0|0:0,0:0:0:0:
333,241,120281,2,0,L|216:241,1,100,0|0,0:0|0:0,0:0:0:0:
17,300,120581,6,0,P|17:241|133:135,1,200,2|0,0:0|0:0,0:0:0:0:
223,177,121031,2,0,L|78:177,2,100,0|0|0,0:0|0:0|0:0,0:0:0:0:
103,309,121481,2,0,L|103:187,1,100,0|0,0:0|0:0,0:0:0:0:
323,347,121781,6,0,P|382:295|331:162,1,200,2|0,0:0|0:0,0:0:0:0:
244,185,122231,2,0,L|38:179,1,200,0|0,0:0|0:0,0:0:0:0:
164,149,122681,2,0,L|294:147,1,100,0|0,0:0|0:0,0:0:0:0:
43,317,122981,5,4,1:2:0:0:
43,267,123056,1,0,0:0:0:0:
67,224,123131,1,0,0:0:0:0:
108,196,123206,1,0,0:0:0:0:
189,191,123281,2,0,L|127:178,1,50,0|0,0:0|0:0,0:0:0:0:
80,164,123431,2,0,L|164:157,1,50,0|0,1:2|0:0,0:0:0:0:
307,269,123581,6,0,L|293:209,1,50,12|0,0:2|0:0,0:0:0:0:
215,223,123731,2,0,L|199:147,1,50,0|0,0:0|0:0,0:0:0:0:
415,175,123881,2,0,L|347:161,1,50,0|0,1:2|0:0,0:0:0:0:
209,134,124031,2,0,L|284:124,1,50,0|0,1:2|0:0,0:0:0:0:
403,320,124181,6,0,L|309:313,1,50,12|0,0:2|0:0,0:0:0:0:
73,283,124331,1,0,1:2:0:0:
223,291,124406,1,0,1:2:0:0:
373,249,124481,2,0,L|318:243,1,50,4|0,1:2|0:0,0:0:0:0:
158,203,124631,2,0,L|220:199,1,50,0|0,1:2|1:2,0:0:0:0:
373,211,124781,5,2,0:1:0:0:
366,186,124818,1,0,0:0:0:0:
353,165,124856,1,0,0:0:0:0:
336,147,124893,1,0,0:0:0:0:
314,135,124931,1,0,0:0:0:0:
290,128,124968,1,0,0:0:0:0:
265,128,125006,1,0,0:0:0:0:
40,150,125081,1,8,0:2:0:0:
190,146,125156,1,8,0:2:0:0:
340,146,125231,1,8,0:2:0:0:
490,142,125306,1,8,0:2:0:0:
258,283,125381,6,0,L|188:280,1,59.9999981689454,6|0,1:2|0:0,0:0:0:0:
258,253,125531,2,0,L|320:249,1,59.9999981689454,0|0,0:0|0:0,0:0:0:0:
378,222,125681,2,0,L|291:209,1,59.9999981689454,8|0,0:2|0:0,0:0:0:0:
126,335,125831,5,2,0:0:0:0:
92,285,125906,1,0,0:0:0:0:
91,226,125981,1,0,1:2:0:0:
121,176,126056,1,0,0:0:0:0:
175,149,126131,1,0,0:0:0:0:
235,148,126206,1,0,0:0:0:0:
385,272,126281,6,0,L|319:259,1,59.9999981689454,10|0,0:2|0:0,0:0:0:0:
266,238,126431,2,0,L|326:225,1,59.9999981689454,0|0,0:0|0:0,0:0:0:0:
475,278,126581,5,2,1:2:0:0:
490,221,126656,1,0,0:0:0:0:
469,166,126731,1,0,0:0:0:0:
419,134,126806,1,0,0:0:0:0:
239,316,126881,2,0,L|170:311,1,59.9999981689454,8|0,0:2|0:0,0:0:0:0:
392,316,127031,6,0,L|334:268,1,59.9999981689454,2|0,0:0|0:0,0:0:0:0:
285,276,127181,2,0,L|366:278,1,59.9999981689454,0|0,1:2|0:0,0:0:0:0:
410,261,127331,1,2,0:0:0:0:
409,201,127406,1,2,0:0:0:0:
277,200,127481,5,10,0:2:0:0:
227,168,127556,1,0,0:0:0:0:
168,164,127631,1,0,0:0:0:0:
227,168,127706,1,0,0:0:0:0:
481,201,127781,5,2,1:2:0:0:
488,142,127856,1,0,0:0:0:0:
459,91,127931,1,0,0:0:0:0:
405,67,128006,1,0,0:0:0:0:
345,69,128081,1,8,0:2:0:0:
285,74,128156,1,0,0:0:0:0:
123,334,128231,5,2,0:0:0:0:
81,291,128306,1,0,0:0:0:0:
68,233,128381,1,0,1:2:0:0:
87,177,128456,1,0,0:0:0:0:
132,139,128531,1,2,0:0:0:0:
191,130,128606,1,2,0:0:0:0:
327,249,128681,6,0,L|255:237,1,59.9999981689454,10|0,0:2|0:0,0:0:0:0:
208,219,128831,2,0,L|304:207,1,59.9999981689454,0|0,0:0|0:0,0:0:0:0:
424,309,128981,6,0,L|439:229,3,59.9999981689454,2|0|0|2,1:2|0:0|0:0|0:0,0:0:0:0:
191,219,129281,1,8,0:2:0:0:
250,219,129356,1,0,0:0:0:0:
310,219,129431,1,2,0:0:0:0:
370,219,129506,1,0,0:0:0:0:
130,304,129581,6,0,L|115:224,3,59.9999981689454,0|2|0|0,1:2|0:0|0:0|0:0,0:0:0:0:
299,198,129881,2,0,L|220:198,1,59.9999981689454,10|0,0:2|0:0,0:0:0:0:
179,179,130031,2,0,L|265:179,1,59.9999981689454,2|0,0:0|0:0,0:0:0:0:
382,287,130181,5,2,1:2:0:0:
418,242,130256,1,0,0:0:0:0:
407,185,130331,1,0,0:0:0:0:
356,157,130406,1,0,0:0:0:0:
163,228,130481,1,8,0:2:0:0:
214,201,130556,1,0,0:0:0:0:
371,191,130631,6,0,L|307:183,1,59.9999981689454,2|0,0:0|0:0,0:0:0:0:
252,176,130781,2,0,L|155:177,1,59.9999981689454,0|0,1:2|0:0,0:0:0:0:
132,146,130931,2,0,L|230:144,1,59.9999981689454,0|0,0:0|0:0,0:0:0:0:
450,306,131081,5,10,0:2:0:0:
470,250,131156,1,0,0:0:0:0:
451,195,131231,1,0,0:0:0:0:
400,165,131306,1,0,0:0:0:0:
208,240,131381,5,2,1:2:0:0:
267,240,131456,1,0,0:0:0:0:
327,240,131531,1,0,0:0:0:0:
387,240,131606,1,0,0:0:0:0:
225,191,131681,2,0,L|321:191,1,59.9999981689454,8|0,0:2|0:0,0:0:0:0:
435,312,131831,5,2,0:0:0:0:
435,253,131906,1,0,0:0:0:0:
399,205,131981,1,0,1:2:0:0:
342,189,132056,1,0,0:0:0:0:
399,205,132131,1,2,0:0:0:0:
342,189,132206,1,2,0:0:0:0:
174,173,132281,6,0,L|70:173,1,59.9999981689454,10|0,0:2|0:0,0:0:0:0:
294,141,132431,2,0,L|387:141,1,59.9999981689454,0|0,0:0|0:0,0:0:0:0:
162,343,132581,5,2,1:2:0:0:
133,290,132656,1,0,0:0:0:0:
138,231,132731,1,0,0:0:0:0:
173,184,132806,1,0,0:0:0:0:
229,164,132881,1,8,0:2:0:0:
173,184,132956,1,0,0:0:0:0:
36,183,133031,6,0,L|119:145,1,59.9999981689454,2|0,0:0|0:0,0:0:0:0:
241,146,133181,2,0,L|345:147,1,59.9999981689454,0|0,1:2|0:0,0:0:0:0:
453,111,133331,2,0,L|366:111,1,59.9999981689454,2|2,0:0|0:0,0:0:0:0:
243,312,133481,5,10,0:2:0:0:
236,253,133556,1,0,0:0:0:0:
269,204,133631,1,0,0:0:0:0:
325,188,133706,1,0,0:0:0:0:
193,171,133781,6,0,L|132:166,1,59.9999981689454,2|0,1:2|0:0,0:0:0:0:
194,148,133931,2,0,L|285:129,1,59.9999981689454,0|0,0:0|0:0,0:0:0:0:
430,318,134081,1,10,0:0:0:0:
462,269,134156,1,0,0:0:0:0:
453,211,134231,1,0,0:0:0:0:
408,174,134306,1,0,0:0:0:0:
232,271,134381,6,0,L|224:205,1,59.9999981689454,2|0,1:2|0:0,0:0:0:0:
303,210,134531,2,0,L|292:124,1,59.9999981689454,0|0,0:0|0:0,0:0:0:0:
115,263,134681,1,10,0:0:0:0:
81,214,134756,1,0,0:0:0:0:
92,157,134831,1,0,0:0:0:0:
140,124,134906,1,0,0:0:0:0:
308,150,134981,6,0,L|384:146,1,59.9999981689454,6|0,1:2|0:0,0:0:0:0:
307,119,135131,2,0,L|235:115,1,59.9999981689454,0|0,0:0|0:0,0:0:0:0:
307,119,135281,2,0,L|405:109,1,59.9999981689454,8|0,0:2|0:0,0:0:0:0:
186,339,135431,5,2,0:0:0:0:
135,308,135506,1,0,0:0:0:0:
110,254,135581,1,0,1:2:0:0:
120,196,135656,1,0,0:0:0:0:
161,153,135731,1,0,0:0:0:0:
219,141,135806,1,0,0:0:0:0:
369,207,135881,6,0,L|470:207,1,59.9999981689454,10|0,0:2|0:0,0:0:0:0:
369,207,136031,2,0,L|295:207,1,59.9999981689454,0|0,0:0|0:0,0:0:0:0:
159,284,136181,6,0,L|241:283,1,59.9999981689454,2|0,1:2|0:0,0:0:0:0:
279,253,136331,2,0,L|200:253,1,59.9999981689454,0|0,0:0|0:0,0:0:0:0:
75,227,136481,2,0,L|146:227,1,59.9999981689454,8|0,0:2|0:0,0:0:0:0:
327,302,136631,6,0,L|392:302,1,59.9999981689454,2|0,0:0|0:0,0:0:0:0:
207,235,136781,2,0,L|128:235,1,59.9999981689454,0|0,1:2|0:0,0:0:0:0:
303,193,136931,2,0,L|387:192,1,59.9999981689454,2|2,0:0|0:0,0:0:0:0:
117,293,137081,5,10,0:2:0:0:
85,244,137156,1,0,0:0:0:0:
97,187,137231,1,0,0:0:0:0:
147,156,137306,1,0,0:0:0:0:
327,175,137381,6,0,L|258:159,1,59.9999981689454,2|0,1:2|0:0,0:0:0:0:
208,151,137531,2,0,L|285:143,1,59.9999981689454,0|0,0:0|0:0,0:0:0:0:
328,136,137681,2,0,L|233:115,1,59.9999981689454,8|0,0:2|0:0,0:0:0:0:
87,318,137831,5,2,0:0:0:0:
83,258,137906,1,0,0:0:0:0:
109,205,137981,1,0,1:2:0:0:
158,172,138056,1,0,0:0:0:0:
217,168,138131,1,2,0:0:0:0:
158,172,138206,1,2,0:0:0:0:
20,206,138281,5,10,0:2:0:0:
39,149,138356,1,0,0:0:0:0:
81,107,138431,1,0,0:0:0:0:
138,88,138506,1,0,0:0:0:0:
306,345,138581,6,0,L|292:264,1,59.9999981689454,2|0,1:2|0:0,0:0:0:0:
217,303,138731,2,0,L|202:224,1,59.9999981689454,0|0,0:0|0:0,0:0:0:0:
356,217,138881,2,0,L|288:211,1,59.9999981689454,10|0,0:2|0:0,0:0:0:0:
236,189,139031,2,0,L|216:127,1,59.9999981689454,0|0,0:0|0:0,0:0:0:0:
383,168,139181,6,0,L|308:167,1,59.9999981689454,2|0,1:2|0:0,0:0:0:0:
262,170,139331,2,0,L|254:87,1,59.9999981689454,0|0,0:0|0:0,0:0:0:0:
424,282,139481,1,10,0:2:0:0:
442,226,139556,1,0,0:0:0:0:
422,171,139631,1,0,0:0:0:0:
372,140,139706,1,0,0:0:0:0:
192,272,139781,6,0,L|103:267,1,59.9999981689454,2|0,1:2|0:0,0:0:0:0:
192,241,139931,2,0,L|298:232,1,59.9999981689454,0|0,0:0|0:0,0:0:0:0:
192,241,140081,2,0,L|124:234,1,59.9999981689454,8|0,0:2|0:0,0:0:0:0:
313,335,140231,5,2,0:0:0:0:
327,277,140306,1,0,0:0:0:0:
315,218,140381,1,0,1:2:0:0:
279,171,140456,1,0,0:0:0:0:
226,143,140531,1,2,0:0:0:0:
279,171,140606,1,2,0:0:0:0:
430,231,140681,6,0,L|500:231,1,59.9999981689454,10|0,0:2|0:0,0:0:0:0:
430,231,140831,2,0,L|348:231,1,59.9999981689454,0|0,0:0|0:0,0:0:0:0:
190,316,140981,5,2,1:2:0:0:
175,258,141056,1,0,0:0:0:0:
185,199,141131,1,0,0:0:0:0:
217,149,141206,1,0,0:0:0:0:
266,115,141281,1,8,0:2:0:0:
217,149,141356,1,0,0:0:0:0:
73,189,141431,6,0,L|1:189,1,59.9999981689454,2|0,0:0|0:0,0:0:0:0:
73,189,141581,2,0,L|161:189,1,59.9999981689454,0|0,1:2|0:0,0:0:0:0:
73,189,141731,2,0,L|-13:189,1,59.9999981689454,0|0,0:0|0:0,0:0:0:0:
253,290,141881,6,0,L|242:199,1,59.9999981689454,10|0,0:2|0:0,0:0:0:0:
167,234,142031,2,0,L|152:150,1,59.9999981689454,0|0,0:0|0:0,0:0:0:0:
397,228,142181,6,0,L|330:204,1,59.9999981689454,6|0,1:2|0:0,0:0:0:0:
158,335,142331,1,0,0:0:0:0:
134,280,142406,1,0,0:0:0:0:
145,222,142481,1,0,0:0:0:0:
185,179,142556,1,0,0:0:0:0:
353,178,142631,2,0,L|273:174,1,59.9999981689454,0|0,1:2|0:0,0:0:0:0:
101,258,142781,6,0,L|197:253,1,59.9999981689454,12|0,0:2|0:0,0:0:0:0:
377,317,142931,1,0,0:0:0:0:
371,258,143006,1,0,0:0:0:0:
331,215,143081,1,0,1:2:0:0:
273,205,143156,1,0,0:0:0:0:
93,194,143231,2,0,L|177:194,1,59.9999981689454,0|0,1:2|0:0,0:0:0:0:
363,157,143381,6,0,L|208:136,1,119.999996337891,12|0,0:2|1:2,0:0:0:0:
305,127,143606,1,0,1:2:0:0:
461,314,143681,6,0,P|465:224|426:195,1,119.999996337891,4|0,1:2|1:2,0:0:0:0:
376,201,143906,1,0,1:2:0:0:
196,269,143981,6,0,L|352:258,1,119.999996337891,4|0,1:2|1:2,0:0:0:0:
256,254,144206,1,0,1:2:0:0:
100,222,144281,6,0,L|177:214,1,59.9999981689454,0|0,1:2|1:2,0:0:0:0:
340,200,144431,1,0,1:2:0:0:
202,180,144506,1,0,1:2:0:0:
52,325,144581,5,6,1:2:0:0:
152,320,144731,1,2,0:0:0:0:
52,325,144881,1,2,1:2:0:0:
52,325,145031,1,2,0:0:0:0:
256,192,145781,5,0,1:0:0:0:
256,192,146081,1,0,1:0:0:0:
256,192,146981,5,0,1:0:0:0:
256,192,147281,1,0,1:0:0:0:
256,192,148181,5,0,1:0:0:0:
256,192,148481,1,0,1:0:0:0:
