osu file format v14

[General]
AudioFilename: audio.mp3
AudioLeadIn: 0
PreviewTime: 125306
Countdown: 0
SampleSet: Normal
StackLeniency: 0.7
Mode: 1
LetterboxInBreaks: 0
WidescreenStoryboard: 1

[Editor]
Bookmarks: 8981,144581
DistanceSpacing: 0.2
BeatDivisor: 4
GridSize: 32
TimelineZoom: 2.799999

[Metadata]
Title:CROSS OVER
TitleUnicode:CROSS†OVER
Artist:HyuN feat. LyuU
ArtistUnicode:HyuN feat. LyuU
Creator:Nozdormu
Version:davidminh's Futsuu
Source:
Tags:davidminh0111 yuemiao ph0eniixz phoeniixz phoenix defectum _Illustrious_ fa featured artist korean electronic intermediate global taiko showdown 2023 igts2023 igts qualifiers hr1 digital step core pump it up 2018 prime 2 arcaea infx crossover
BeatmapID:4289396
BeatmapSetID:1972391

[Difficulty]
HPDrainRate:7
CircleSize:2
OverallDifficulty:4
ApproachRate:10
SliderMultiplier:1.4
SliderTickRate:1

[Events]
//Background and Video events
0,0,"crossover.jpg",0,50
//Break Periods
2,29581,38531
//Storyboard Layer 0 (Background)
//Storyboard Layer 1 (Fail)
//Storyboard Layer 2 (Pass)
//Storyboard Layer 3 (Foreground)
//Storyboard Layer 4 (Overlay)
//Storyboard Sound Samples

[TimingPoints]
581,300,4,1,0,80,1,0
10171,-100,4,1,0,90,0,0
29531,-100,4,1,0,75,0,0
38831,-100,4,1,0,80,0,0
48121,-100,4,1,0,80,0,0
48271,-100,4,1,0,80,0,0
48421,-100,4,1,0,80,0,0
48496,-100,4,1,0,80,0,0
48571,-100,4,1,0,90,0,0
67771,-100,4,1,0,95,0,0
67781,-100,4,1,0,95,0,1
86681,-100,4,1,0,95,0,0
86831,-100,4,1,0,80,0,0
86971,-100,4,1,0,80,0,0
87046,-100,4,1,0,80,0,0
87121,-100,4,1,0,80,0,0
87271,-100,4,1,0,80,0,0
87431,-100,4,1,0,90,0,0
106171,-100,4,1,0,80,0,0
106621,-100,4,1,0,80,0,0
107071,-100,4,1,0,80,0,0
107371,-100,4,1,0,80,0,0
107821,-100,4,1,0,80,0,0
108271,-100,4,1,0,80,0,0
108571,-100,4,1,0,80,0,0
109021,-100,4,1,0,80,0,0
109471,-100,4,1,0,80,0,0
109771,-100,4,1,0,80,0,0
110971,-100,4,1,0,80,0,0
111421,-100,4,1,0,80,0,0
111871,-100,4,1,0,80,0,0
112171,-100,4,1,0,80,0,0
112621,-100,4,1,0,80,0,0
113071,-100,4,1,0,80,0,0
113371,-100,4,1,0,80,0,0
113821,-100,4,1,0,80,0,0
114271,-100,4,1,0,80,0,0
114571,-100,4,1,0,80,0,0
114871,-100,4,1,0,80,0,0
115171,-100,4,1,0,80,0,0
115471,-100,4,1,0,80,0,0
115771,-100,4,1,0,80,0,0
116221,-100,4,1,0,80,0,0
116671,-100,4,1,0,80,0,0
116971,-100,4,1,0,80,0,0
117421,-100,4,1,0,80,0,0
117871,-100,4,1,0,80,0,0
118171,-100,4,1,0,80,0,0
118621,-100,4,1,0,80,0,0
119071,-100,4,1,0,80,0,0
119371,-100,4,1,0,80,0,0
120271,-100,4,1,0,80,0,0
120571,-100,4,1,0,80,0,0
121021,-100,4,1,0,80,0,0
121471,-100,4,1,0,80,0,0
121771,-100,4,1,0,80,0,0
122221,-100,4,1,0,80,0,0
122671,-100,4,1,0,80,0,0
122831,-100,4,1,0,90,0,0
122971,-100,4,1,0,90,0,0
123421,-100,4,1,0,90,0,0
123571,-100,4,1,0,90,0,0
123871,-100,4,1,0,90,0,0
124021,-100,4,1,0,90,0,0
124171,-100,4,1,0,90,0,0
124321,-100,4,1,0,90,0,0
124396,-100,4,1,0,90,0,0
124471,-100,4,1,0,90,0,0
124621,-100,4,1,0,90,0,0
124771,-100,4,1,0,90,0,0
125146,-100,4,1,0,90,0,0
125221,-100,4,1,0,90,0,0
125371,-100,4,1,0,100,0,0
125381,-100,4,1,0,100,0,1
144506,-100,4,1,0,100,0,0

[HitObjects]
256,192,6581,12,8,8681,0:0:0:0:
256,192,8981,5,8,0:0:0:0:
256,192,9131,1,8,0:0:0:0:
256,192,9281,1,0,0:0:0:0:
256,192,9581,1,8,0:0:0:0:
256,192,9881,1,8,0:0:0:0:
256,192,10031,1,0,0:0:0:0:
256,192,10181,1,12,0:0:0:0:
256,192,10781,1,0,0:0:0:0:
256,192,10931,1,0,0:0:0:0:
256,192,11081,1,8,0:0:0:0:
256,192,11381,1,0,0:0:0:0:
256,192,11681,1,8,0:0:0:0:
256,192,11981,1,8,0:0:0:0:
256,192,12131,1,0,0:0:0:0:
256,192,12281,1,8,0:0:0:0:
256,192,12581,1,0,0:0:0:0:
256,192,12881,1,8,0:0:0:0:
256,192,13181,1,8,0:0:0:0:
256,192,13331,1,8,0:0:0:0:
256,192,13481,1,0,0:0:0:0:
256,192,13781,1,8,0:0:0:0:
256,192,14231,1,8,0:0:0:0:
256,192,14381,1,0,0:0:0:0:
256,192,14531,1,8,0:0:0:0:
256,192,14681,1,0,0:0:0:0:
256,192,14981,1,8,0:0:0:0:
256,192,15581,1,8,0:0:0:0:
256,192,15731,1,0,0:0:0:0:
256,192,15881,1,8,0:0:0:0:
256,192,16181,1,0,0:0:0:0:
256,192,16481,1,8,0:0:0:0:
256,192,16781,1,0,0:0:0:0:
256,192,16931,1,8,0:0:0:0:
256,192,17081,1,8,0:0:0:0:
256,192,17381,1,0,0:0:0:0:
256,192,17681,1,8,0:0:0:0:
256,192,17981,1,0,0:0:0:0:
256,192,18131,1,0,0:0:0:0:
256,192,18281,1,0,0:0:0:0:
256,192,18581,1,8,0:0:0:0:
256,192,19031,1,8,0:0:0:0:
256,192,19181,1,0,0:0:0:0:
256,192,19331,1,0,0:0:0:0:
256,192,19481,1,8,0:0:0:0:
256,192,19781,1,8,0:0:0:0:
256,192,20381,1,4,0:0:0:0:
256,192,20681,1,8,0:0:0:0:
256,192,20981,1,0,0:0:0:0:
256,192,21281,1,8,0:0:0:0:
256,192,21581,1,0,0:0:0:0:
256,192,21731,1,0,0:0:0:0:
256,192,21881,1,8,0:0:0:0:
256,192,22181,1,0,0:0:0:0:
256,192,22481,1,8,0:0:0:0:
256,192,22781,1,8,0:0:0:0:
256,192,22931,1,8,0:0:0:0:
256,192,23081,1,0,0:0:0:0:
256,192,23381,1,8,0:0:0:0:
256,192,23831,1,0,0:0:0:0:
256,192,23981,1,8,0:0:0:0:
256,192,24131,1,8,0:0:0:0:
256,192,24281,1,0,0:0:0:0:
256,192,24581,1,12,0:0:0:0:
256,192,25181,1,0,0:0:0:0:
256,192,25331,1,8,0:0:0:0:
256,192,25481,1,0,0:0:0:0:
256,192,25781,1,12,0:0:0:0:
256,192,26081,1,8,0:0:0:0:
256,192,26381,1,0,0:0:0:0:
256,192,26531,1,0,0:0:0:0:
256,192,26681,1,0,0:0:0:0:
256,192,26981,1,12,0:0:0:0:
256,192,27581,1,12,0:0:0:0:
256,192,27881,1,0,0:0:0:0:
256,192,28181,1,12,0:0:0:0:
256,192,28481,1,12,0:0:0:0:
256,192,28781,1,12,0:0:0:0:
256,192,29081,1,12,0:0:0:0:
256,192,29381,1,4,0:0:0:0:
256,192,38981,5,0,0:0:0:0:
256,192,39431,1,8,0:0:0:0:
256,192,39881,1,8,0:0:0:0:
256,192,40331,1,0,0:0:0:0:
256,192,40781,1,8,0:0:0:0:
256,192,41081,1,8,0:0:0:0:
256,192,41381,1,8,0:0:0:0:
256,192,41831,1,0,0:0:0:0:
256,192,42281,1,8,0:0:0:0:
256,192,42731,1,0,0:0:0:0:
256,192,43181,1,8,0:0:0:0:
256,192,43481,1,8,0:0:0:0:
256,192,43781,1,12,0:0:0:0:
256,192,44231,1,0,0:0:0:0:
256,192,44681,1,8,0:0:0:0:
256,192,45131,1,0,0:0:0:0:
256,192,45581,1,8,0:0:0:0:
256,192,45881,1,8,0:0:0:0:
256,192,46181,1,12,0:0:0:0:
256,192,46631,1,0,0:0:0:0:
256,192,47381,1,0,0:0:0:0:
256,192,47681,1,8,0:0:0:0:
256,192,47981,1,0,0:0:0:0:
256,192,48281,1,0,0:0:0:0:
256,192,48431,1,0,0:0:0:0:
256,192,48581,1,12,0:0:0:0:
256,192,49181,1,0,0:0:0:0:
256,192,49481,1,8,0:0:0:0:
256,192,49631,1,0,0:0:0:0:
256,192,49781,1,8,0:0:0:0:
256,192,49931,1,8,0:0:0:0:
256,192,50231,1,0,0:0:0:0:
256,192,50381,1,8,0:0:0:0:
256,192,50681,1,8,0:0:0:0:
256,192,50831,1,8,0:0:0:0:
256,192,50981,1,4,0:0:0:0:
256,192,51581,1,0,0:0:0:0:
256,192,51881,1,8,0:0:0:0:
256,192,52181,1,4,0:0:0:0:
256,192,52481,1,8,0:0:0:0:
256,192,52781,1,0,0:0:0:0:
256,192,52931,1,0,0:0:0:0:
256,192,53081,1,8,0:0:0:0:
256,192,53381,1,12,0:0:0:0:
256,192,53981,1,0,0:0:0:0:
256,192,54281,1,8,0:0:0:0:
256,192,54431,1,8,0:0:0:0:
256,192,54581,1,0,0:0:0:0:
256,192,54731,1,8,0:0:0:0:
256,192,55031,1,0,0:0:0:0:
256,192,55181,1,8,0:0:0:0:
256,192,55481,1,0,0:0:0:0:
256,192,55631,1,0,0:0:0:0:
256,192,55781,1,8,0:0:0:0:
256,192,56381,1,4,0:0:0:0:
256,192,56681,1,12,0:0:0:0:
256,192,56981,1,12,0:0:0:0:
256,192,57281,1,0,0:0:0:0:
256,192,57581,1,0,0:0:0:0:
256,192,57731,1,0,0:0:0:0:
256,192,57881,1,0,0:0:0:0:
256,192,58031,1,0,0:0:0:0:
256,192,58181,1,12,0:0:0:0:
256,192,58781,1,0,0:0:0:0:
256,192,59081,1,0,0:0:0:0:
256,192,59231,1,0,0:0:0:0:
256,192,59381,1,8,0:0:0:0:
256,192,59531,1,8,0:0:0:0:
256,192,59831,1,0,0:0:0:0:
256,192,59981,1,8,0:0:0:0:
256,192,60281,1,0,0:0:0:0:
256,192,60431,1,8,0:0:0:0:
256,192,60581,1,4,0:0:0:0:
256,192,60881,1,0,0:0:0:0:
256,192,61181,1,0,0:0:0:0:
256,192,61481,1,0,0:0:0:0:
256,192,61781,1,8,0:0:0:0:
256,192,62081,1,8,0:0:0:0:
256,192,62381,1,0,0:0:0:0:
256,192,62531,1,0,0:0:0:0:
256,192,62681,1,0,0:0:0:0:
256,192,62981,1,12,0:0:0:0:
256,192,63581,1,0,0:0:0:0:
256,192,63881,1,8,0:0:0:0:
256,192,64031,1,8,0:0:0:0:
256,192,64181,1,4,0:0:0:0:
256,192,64481,1,0,0:0:0:0:
256,192,64781,1,8,0:0:0:0:
256,192,65081,1,0,0:0:0:0:
256,192,65231,1,8,0:0:0:0:
256,192,65381,1,4,0:0:0:0:
256,192,65831,1,0,0:0:0:0:
256,192,65981,1,12,0:0:0:0:
256,192,66581,1,12,0:0:0:0:
256,192,66881,1,12,0:0:0:0:
256,192,67181,1,12,0:0:0:0:
256,192,67481,1,4,0:0:0:0:
256,192,67781,1,12,0:0:0:0:
256,192,68081,1,0,0:0:0:0:
256,192,68231,1,0,0:0:0:0:
256,192,68531,1,8,0:0:0:0:
256,192,68681,1,8,0:0:0:0:
256,192,68981,1,8,0:0:0:0:
256,192,69281,1,0,0:0:0:0:
256,192,69431,1,8,0:0:0:0:
256,192,69731,1,8,0:0:0:0:
256,192,69881,1,0,0:0:0:0:
256,192,70181,1,8,0:0:0:0:
256,192,70481,1,8,0:0:0:0:
256,192,70631,1,0,0:0:0:0:
256,192,70931,1,0,0:0:0:0:
256,192,71081,1,8,0:0:0:0:
256,192,71381,1,8,0:0:0:0:
256,192,71981,1,8,0:0:0:0:
256,192,72281,1,0,0:0:0:0:
256,192,72581,1,8,0:0:0:0:
256,192,72881,1,0,0:0:0:0:
256,192,73031,1,0,0:0:0:0:
256,192,73331,1,8,0:0:0:0:
256,192,73481,1,0,0:0:0:0:
256,192,73781,1,8,0:0:0:0:
256,192,74081,1,0,0:0:0:0:
256,192,74231,1,8,0:0:0:0:
256,192,74531,1,0,0:0:0:0:
256,192,74681,1,8,0:0:0:0:
256,192,74981,1,0,0:0:0:0:
256,192,75281,1,8,0:0:0:0:
256,192,75431,1,8,0:0:0:0:
256,192,75731,1,0,0:0:0:0:
256,192,75881,1,0,0:0:0:0:
256,192,76181,1,8,0:0:0:0:
256,192,76481,1,8,0:0:0:0:
256,192,76631,1,8,0:0:0:0:
256,192,76781,1,0,0:0:0:0:
256,192,77081,1,0,0:0:0:0:
256,192,77381,1,12,0:0:0:0:
256,192,77681,1,8,0:0:0:0:
256,192,77831,1,0,0:0:0:0:
256,192,78131,1,8,0:0:0:0:
256,192,78281,1,0,0:0:0:0:
256,192,78581,1,8,0:0:0:0:
256,192,78881,1,0,0:0:0:0:
256,192,79031,1,8,0:0:0:0:
256,192,79331,1,0,0:0:0:0:
256,192,79481,1,0,0:0:0:0:
256,192,79781,1,8,0:0:0:0:
256,192,80081,1,0,0:0:0:0:
256,192,80231,1,8,0:0:0:0:
256,192,80531,1,8,0:0:0:0:
256,192,80681,1,0,0:0:0:0:
256,192,80981,1,8,0:0:0:0:
256,192,81581,1,0,0:0:0:0:
256,192,81881,1,0,0:0:0:0:
256,192,82181,1,8,0:0:0:0:
256,192,82481,1,0,0:0:0:0:
256,192,82631,1,0,0:0:0:0:
256,192,82931,1,0,0:0:0:0:
256,192,83081,1,0,0:0:0:0:
256,192,83381,1,8,0:0:0:0:
256,192,83681,1,0,0:0:0:0:
256,192,83831,1,8,0:0:0:0:
256,192,84131,1,0,0:0:0:0:
256,192,84281,1,8,0:0:0:0:
256,192,84581,1,4,0:0:0:0:
256,192,85181,1,4,0:0:0:0:
256,192,85481,1,8,0:0:0:0:
256,192,85781,1,4,0:0:0:0:
256,192,86081,1,4,0:0:0:0:
256,192,86381,1,4,0:0:0:0:
256,192,86681,1,4,0:0:0:0:
256,192,86981,1,12,0:0:0:0:
256,192,87581,1,4,0:0:0:0:
256,192,87881,1,8,0:0:0:0:
256,192,88181,1,0,0:0:0:0:
256,192,88481,1,8,0:0:0:0:
256,192,88781,1,8,0:0:0:0:
256,192,88931,1,0,0:0:0:0:
256,192,89081,1,8,0:0:0:0:
256,192,89381,1,0,0:0:0:0:
256,192,89681,1,8,0:0:0:0:
256,192,89981,1,0,0:0:0:0:
256,192,90131,1,0,0:0:0:0:
256,192,90281,1,8,0:0:0:0:
256,192,90581,1,8,0:0:0:0:
256,192,91031,1,0,0:0:0:0:
256,192,91181,1,8,0:0:0:0:
256,192,91331,1,0,0:0:0:0:
256,192,91481,1,8,0:0:0:0:
256,192,91781,1,8,0:0:0:0:
256,192,92081,1,8,0:0:0:0:
256,192,92381,1,0,0:0:0:0:
256,192,92531,1,0,0:0:0:0:
256,192,92681,1,8,0:0:0:0:
256,192,92981,1,0,0:0:0:0:
256,192,93281,1,8,0:0:0:0:
256,192,93581,1,8,0:0:0:0:
256,192,93731,1,8,0:0:0:0:
256,192,93881,1,0,0:0:0:0:
256,192,94181,1,8,0:0:0:0:
256,192,94481,1,0,0:0:0:0:
256,192,94781,1,0,0:0:0:0:
256,192,94931,1,8,0:0:0:0:
256,192,95081,1,0,0:0:0:0:
256,192,95381,1,8,0:0:0:0:
256,192,95831,1,8,0:0:0:0:
256,192,95981,1,0,0:0:0:0:
256,192,96131,1,8,0:0:0:0:
256,192,96281,1,0,0:0:0:0:
256,192,96881,1,12,0:0:0:0:
256,192,97181,1,0,0:0:0:0:
256,192,97481,1,8,0:0:0:0:
256,192,97781,1,0,0:0:0:0:
256,192,98381,1,8,0:0:0:0:
256,192,98681,1,8,0:0:0:0:
256,192,98981,1,4,0:0:0:0:
256,192,99581,1,0,0:0:0:0:
256,192,99881,1,0,0:0:0:0:
256,192,100181,1,8,0:0:0:0:
256,192,100781,1,8,0:0:0:0:
256,192,101081,1,0,0:0:0:0:
256,192,101381,1,12,0:0:0:0:
256,192,101981,1,0,0:0:0:0:
256,192,102281,1,0,0:0:0:0:
256,192,102581,1,12,0:0:0:0:
256,192,103181,1,0,0:0:0:0:
256,192,103481,1,0,0:0:0:0:
256,192,103781,1,12,0:0:0:0:
256,192,104381,1,12,0:0:0:0:
256,192,104681,1,0,0:0:0:0:
256,192,104981,1,12,0:0:0:0:
256,192,105281,1,12,0:0:0:0:
256,192,105581,1,12,0:0:0:0:
256,192,105881,1,12,0:0:0:0:
256,192,106181,1,4,0:0:0:0:
256,192,107081,1,0,0:0:0:0:
256,192,107381,1,8,0:0:0:0:
256,192,108281,1,8,0:0:0:0:
256,192,108581,1,0,0:0:0:0:
256,192,109481,1,0,0:0:0:0:
256,192,109781,1,8,0:0:0:0:
256,192,110981,1,8,0:0:0:0:
256,192,111881,1,0,0:0:0:0:
256,192,112181,1,8,0:0:0:0:
256,192,113081,1,8,0:0:0:0:
256,192,113381,1,0,0:0:0:0:
256,192,114281,1,0,0:0:0:0:
256,192,114581,1,8,0:0:0:0:
256,192,115181,1,8,0:0:0:0:
256,192,115781,1,4,0:0:0:0:
256,192,116681,1,8,0:0:0:0:
256,192,116981,1,0,0:0:0:0:
256,192,117881,1,0,0:0:0:0:
256,192,118181,1,8,0:0:0:0:
256,192,119081,1,0,0:0:0:0:
256,192,119381,1,8,0:0:0:0:
256,192,120281,1,8,0:0:0:0:
256,192,120581,1,0,0:0:0:0:
256,192,121481,1,0,0:0:0:0:
256,192,121781,1,8,0:0:0:0:
256,192,122681,1,8,0:0:0:0:
256,192,122981,1,12,0:0:0:0:
256,192,123581,1,12,0:0:0:0:
256,192,124181,1,4,0:0:0:0:
256,192,124481,1,4,0:0:0:0:
256,192,124781,1,8,0:0:0:0:
256,192,125081,1,0,0:0:0:0:
256,192,125231,1,0,0:0:0:0:
256,192,125381,1,12,0:0:0:0:
256,192,125681,1,0,0:0:0:0:
256,192,125831,1,8,0:0:0:0:
256,192,126131,1,8,0:0:0:0:
256,192,126281,1,0,0:0:0:0:
256,192,126581,1,8,0:0:0:0:
256,192,126881,1,0,0:0:0:0:
256,192,127031,1,8,0:0:0:0:
256,192,127331,1,8,0:0:0:0:
256,192,127481,1,0,0:0:0:0:
256,192,127781,1,8,0:0:0:0:
256,192,128081,1,8,0:0:0:0:
256,192,128231,1,0,0:0:0:0:
256,192,128531,1,0,0:0:0:0:
256,192,128681,1,8,0:0:0:0:
256,192,128831,1,0,0:0:0:0:
256,192,128981,1,8,0:0:0:0:
256,192,129581,1,0,0:0:0:0:
256,192,129881,1,0,0:0:0:0:
256,192,130181,1,8,0:0:0:0:
256,192,130481,1,8,0:0:0:0:
256,192,130631,1,0,0:0:0:0:
256,192,130931,1,8,0:0:0:0:
256,192,131081,1,0,0:0:0:0:
256,192,131381,1,8,0:0:0:0:
256,192,131681,1,0,0:0:0:0:
256,192,131831,1,0,0:0:0:0:
256,192,132131,1,8,0:0:0:0:
256,192,132281,1,0,0:0:0:0:
256,192,132581,1,8,0:0:0:0:
256,192,132881,1,8,0:0:0:0:
256,192,133031,1,8,0:0:0:0:
256,192,133331,1,0,0:0:0:0:
256,192,133481,1,8,0:0:0:0:
256,192,133631,1,0,0:0:0:0:
256,192,133781,1,8,0:0:0:0:
256,192,134081,1,0,0:0:0:0:
256,192,134231,1,0,0:0:0:0:
256,192,134381,1,8,0:0:0:0:
256,192,134681,1,0,0:0:0:0:
256,192,134981,1,12,0:0:0:0:
256,192,135281,1,0,0:0:0:0:
256,192,135431,1,8,0:0:0:0:
256,192,135731,1,8,0:0:0:0:
256,192,135881,1,0,0:0:0:0:
256,192,136181,1,8,0:0:0:0:
256,192,136481,1,8,0:0:0:0:
256,192,136631,1,0,0:0:0:0:
256,192,136931,1,8,0:0:0:0:
256,192,137081,1,0,0:0:0:0:
256,192,137381,1,8,0:0:0:0:
256,192,137681,1,8,0:0:0:0:
256,192,137831,1,0,0:0:0:0:
256,192,138131,1,0,0:0:0:0:
256,192,138281,1,8,0:0:0:0:
256,192,138431,1,8,0:0:0:0:
256,192,138581,1,0,0:0:0:0:
256,192,139181,1,0,0:0:0:0:
256,192,139481,1,0,0:0:0:0:
256,192,139781,1,8,0:0:0:0:
256,192,140081,1,0,0:0:0:0:
256,192,140231,1,8,0:0:0:0:
256,192,140531,1,0,0:0:0:0:
256,192,140681,1,8,0:0:0:0:
256,192,140981,1,0,0:0:0:0:
256,192,141281,1,0,0:0:0:0:
256,192,141431,1,8,0:0:0:0:
256,192,141731,1,8,0:0:0:0:
256,192,141881,1,0,0:0:0:0:
256,192,142031,1,0,0:0:0:0:
256,192,142181,1,12,0:0:0:0:
256,192,142781,1,12,0:0:0:0:
256,192,143081,1,0,0:0:0:0:
256,192,143381,1,12,0:0:0:0:
256,192,143681,1,12,0:0:0:0:
256,192,143981,1,12,0:0:0:0:
256,192,144281,1,12,0:0:0:0:
256,192,144581,1,4,0:0:0:0:
