osu file format v14

[General]
AudioFilename: audio.mp3
AudioLeadIn: 0
PreviewTime: 67772
Countdown: 0
SampleSet: Soft
StackLeniency: 0.7
Mode: 0
LetterboxInBreaks: 0
WidescreenStoryboard: 0

[Editor]
Bookmarks: 420,570,8970,10170,16095,19333,24133,29370,48570,67770,87570,96570,106170,125370,144570,149370
DistanceSpacing: 1
BeatDivisor: 8
GridSize: 8
TimelineZoom: 1

[Metadata]
Title:Cross Over
TitleUnicode:Cross†Over
Artist:HyuN feat. LyuU
ArtistUnicode:HyuN feat. LyuU
Creator:Kaguya_Sama
Version:Normal
Source:
Tags:cross+over featured artist fa video game videogame pop kpop korean electronic digital step core pump it up prime 2 2018 piu arcaea osu! Dailycare morinaga SharPlaw mappers' guild
BeatmapID:2902846
BeatmapSetID:1063700

[Difficulty]
HPDrainRate:4
CircleSize:3.2
OverallDifficulty:4
ApproachRate:6
SliderMultiplier:1.1
SliderTickRate:1

[Events]
//Background and Video events
0,0,"BG MISSILE228.jpg",0,0
//Break Periods
2,29647,37997
2,106447,121997
//Storyboard Layer 0 (Background)
//Storyboard Layer 1 (Fail)
//Storyboard Layer 2 (Pass)
//Storyboard Layer 3 (Foreground)
//Storyboard Layer 4 (Overlay)
//Storyboard Sound Samples

[TimingPoints]
647,300,4,2,2,70,1,0
9047,-100,4,2,2,60,0,0
9497,-100,4,2,2,70,0,0
9647,-100,4,2,2,60,0,0
10247,-100,4,2,2,80,0,0
20597,-100,4,2,2,90,0,0
20747,-100,4,2,2,80,0,0
39047,-125,4,2,2,60,0,0
40697,-125,4,2,2,65,0,0
40847,-125,4,2,2,60,0,0
45497,-125,4,2,2,65,0,0
45647,-125,4,2,2,60,0,0
48047,-100,4,2,2,60,0,0
48647,-100,4,2,2,70,0,0
52997,-100,4,2,2,80,0,0
53147,-100,4,2,2,70,0,0
61997,-100,4,2,2,80,0,0
62147,-100,4,2,2,70,0,0
62297,-100,4,2,2,80,0,0
62447,-100,4,2,2,70,0,0
67847,-100,4,2,2,80,0,0
87647,-100,4,2,2,90,0,0
96647,-100,4,2,2,75,0,0
97247,-100,4,2,2,60,0,0
97397,-100,4,2,2,60,0,0
97547,-100,4,2,2,60,0,0
98897,-100,4,2,2,60,0,0
99047,-100,4,2,2,60,0,0
99347,-100,4,2,2,75,0,0
99647,-100,4,2,2,60,0,0
101447,-100,4,2,2,80,0,0
106247,-100,4,2,2,60,0,0
123047,-100,4,2,2,85,0,0
125447,-95.2380952380952,4,2,2,100,0,1
142247,-100,4,2,2,100,0,0
144647,-100,4,2,99,100,0,0
145022,-100,4,2,99,5,0,0
145847,-100,4,2,99,90,0,0
146222,-100,4,2,99,5,0,0
147047,-100,4,2,99,80,0,0
147422,-100,4,2,99,5,0,0
148247,-100,4,2,99,70,0,0
148622,-100,4,2,99,5,0,0

[Colours]
Combo1 : 123,136,210
Combo2 : 150,35,199
Combo3 : 195,195,195
Combo4 : 241,151,251
Combo5 : 158,139,139

[HitObjects]
42,154,9047,6,0,B|83:149|83:149|156:181|156:181|219:172,1,165,10|0,0:0|0:0,0:0:0:0:
254,165,9647,1,12,1:2:0:0:
348,109,9947,2,0,L|417:120,1,55,8|8,0:0|0:0,0:0:0:0:
446,150,10247,6,0,B|459:175|459:175|438:275,1,110,6|8,1:2|0:0,0:0:0:0:
369,337,10847,2,0,L|289:325,1,55,2|2,1:2|0:0,0:0:0:0:
259,322,11147,1,10,0:0:0:0:
178,247,11447,2,0,P|148:298|153:356,2,110,2|8|2,1:2|0:0|1:2,0:0:0:0:
232,230,12197,1,2,0:2:0:0:
232,230,12347,1,10,0:0:0:0:
173,136,12647,6,0,L|51:149,1,110,2|8,1:2|0:0,0:0:0:0:
6,242,13247,2,0,L|12:308,1,55,2|2,1:2|0:0,0:0:0:0:
19,351,13547,1,10,0:0:0:0:
127,366,13847,2,0,B|171:338|171:338|299:349,1,165,2|2,1:2|0:0,0:0:0:0:
331,374,14447,2,0,L|395:362,1,55,2|2,1:2|0:2,0:0:0:0:
439,354,14747,1,10,0:0:0:0:
440,244,15047,6,0,L|308:264,1,110,2|8,1:2|0:0,0:0:0:0:
228,223,15647,2,0,P|217:187|226:151,1,55,2|2,1:2|0:0,0:0:0:0:
233,116,15947,1,10,0:0:0:0:
335,158,16247,2,0,B|352:190|352:190|328:271,1,110,2|8,1:2|0:0,0:0:0:0:
275,355,16847,2,0,P|242:348|197:342,1,55,2|2,1:2|0:0,0:0:0:0:
166,338,17147,1,10,0:0:0:0:
60,368,17447,6,0,P|19:351|25:273,1,110,2|8,1:2|0:0,0:0:0:0:
83,208,18047,2,0,P|97:170|97:140,1,55,2|2,1:2|0:0,0:0:0:0:
86,101,18347,1,10,0:0:0:0:
173,34,18647,2,0,B|217:6|217:6|351:19,1,165,2|2,1:2|0:0,0:0:0:0:
371,52,19247,2,0,L|365:119,1,55,14|2,0:0|0:0,0:0:0:0:
345,157,19547,2,0,L|351:224,1,55,10|2,1:2|1:2,0:0:0:0:
364,265,19847,6,0,B|317:269|317:269|300:264|300:264|240:270,1,110,8|0,0:0|1:0,0:0:0:0:
157,320,20447,2,0,P|145:278|153:246,1,55,6|0,1:2|0:0,0:0:0:0:
166,215,20747,1,10,0:0:0:0:
148,106,21047,2,0,B|225:96|179:136|271:130,1,110,2|8,1:2|0:0,0:0:0:0:
349,80,21647,2,0,L|424:74,1,55,2|2,1:2|0:0,0:0:0:0:
458,71,21947,1,10,0:0:0:0:
446,180,22247,6,0,B|392:184|392:184|387:180|387:180|317:183,2,110,2|8|2,1:2|0:0|1:2,0:0:0:0:
491,220,22997,1,2,0:0:0:0:
491,220,23147,1,10,0:0:0:0:
441,318,23447,2,0,P|400:337|321:305,1,110,2|8,1:2|0:0,0:0:0:0:
294,289,23897,1,2,0:0:0:0:
294,289,24047,2,0,L|215:302,1,55,2|2,1:2|0:0,0:0:0:0:
186,282,24347,1,10,0:0:0:0:
94,221,24647,6,0,P|55:154|72:117,2,110,6|8|2,1:2|0:0|1:2,0:0:0:0:
145,200,25397,1,2,0:0:0:0:
195,177,25547,1,10,0:0:0:0:
295,222,25847,6,0,P|342:160|323:115,2,110,6|10|2,1:2|0:0|1:2,0:0:0:0:
251,255,26597,1,2,0:0:0:0:
205,286,26747,1,8,0:0:0:0:
95,280,27047,6,0,P|106:227|90:116,1,165,12|0,0:0|1:0,0:0:0:0:
126,76,27647,1,12,0:0:0:0:
234,95,27947,1,2,1:2:0:0:
340,66,28247,2,0,B|374:63|374:63|378:64|378:64|408:62,1,55,12|0,0:0|1:0,0:0:0:0:
446,80,28547,1,12,0:0:0:0:
467,187,28847,2,0,L|398:190,1,55,12|0,0:0|1:0,0:0:0:0:
359,205,29147,2,0,P|343:244|341:282,1,55,12|8,0:0|0:0,0:0:0:0:
343,311,29447,5,12,0:0:0:0:
58,230,39047,6,0,P|110:193|187:213,1,132,6|2,1:2|0:0,0:0:0:0:
223,325,39947,1,2,0:0:0:0:
351,296,40397,2,0,L|457:293,1,88,2|0,0:0|0:0,0:0:0:0:
478,274,40847,2,0,P|496:235|494:176,1,88,2|2,0:0|0:0,0:0:0:0:
501,102,41447,5,2,0:0:0:0:
406,10,41897,1,2,0:0:0:0:
281,53,42347,2,0,B|219:42|219:42|214:35|214:35|141:20,1,132,2|2,0:0|0:0,0:0:0:0:
49,102,43247,1,2,0:0:0:0:
100,173,43547,1,2,0:0:0:0:
67,254,43847,5,6,0:0:0:0:
8,372,44297,1,2,0:0:0:0:
139,373,44747,2,0,L|289:366,1,132,2|2,0:0|0:0,0:0:0:0:
348,322,45497,1,0,0:0:0:0:
348,322,45647,2,0,P|395:333|455:342,1,88,2|2,0:0|0:0,0:0:0:0:
499,280,46247,6,0,L|493:137,1,132,6|2,0:0|0:0,0:0:0:0:
388,68,47147,1,2,0:0:0:0:
342,144,47447,1,0,1:0:0:0:
342,144,47597,2,0,L|245:155,1,88,2|2,0:0|0:0,0:0:0:0:
215,192,48047,2,0,B|148:184,1,55,2|0,1:2|1:0,0:0:0:0:
106,197,48347,1,2,1:2:0:0:
20,127,48647,6,0,P|43:77|107:91,2,110,4|10|0,1:2|0:0|1:2,0:0:0:0:
13,236,49547,2,0,P|10:265|20:293,1,55,8|2,0:0|0:0,0:0:0:0:
66,315,49847,2,0,L|197:302,1,110,0|8,1:0|0:0,0:0:0:0:
229,293,50297,2,0,B|267:254|267:254|251:137,1,165,2|8,0:0|0:0,0:0:0:0:
244,34,51047,6,0,B|194:46|194:46|181:57|181:57|120:69,1,110,6|10,1:2|0:0,0:0:0:0:
29,64,51647,2,0,B|38:114|38:114|49:127|49:127|61:177,1,110,2|10,1:2|0:0,0:0:0:0:
15,269,52247,2,0,L|-1:401,1,110,6|10,1:2|0:0,0:0:0:0:
107,346,52847,2,0,L|181:331,1,55,2|0,1:2|0:0,0:0:0:0:
214,346,53147,2,0,L|291:356,1,55,10|2,0:0|0:0,0:0:0:0:
321,337,53447,6,0,P|387:342|414:292,2,110,4|8|0,1:2|0:0|1:0,0:0:0:0:
341,228,54347,2,0,P|381:217|413:200,1,55,8|2,0:0|0:0,0:0:0:0:
414,160,54647,2,0,P|396:108|331:101,1,110,0|8,1:0|0:0,0:0:0:0:
293,103,55097,2,0,B|225:117|243:69|166:90,1,110,2|2,0:0|0:0,0:0:0:0:
138,61,55547,1,8,0:0:0:0:
28,71,55847,6,0,L|39:203,1,110,0|8,1:0|0:0,0:0:0:0:
50,289,56447,1,6,1:2:0:0:
160,289,56747,1,14,1:2:0:0:
160,179,57047,2,0,L|286:191,1,110,6|10,1:2|0:0,0:0:0:0:
315,289,57647,2,0,L|434:275,1,110,0|10,1:0|0:0,0:0:0:0:
471,245,58097,1,10,0:0:0:0:
471,245,58247,6,0,B|464:204|464:204|468:191|468:191|457:111,2,110,4|8|0,1:2|0:0|1:0,0:0:0:0:
371,198,59147,2,0,P|337:178|302:169,1,55,8|2,0:0|0:0,0:0:0:0:
285,213,59447,2,0,B|248:227|248:227|157:212,1,110,0|8,1:0|0:0,0:0:0:0:
124,205,59897,2,0,B|98:174|98:174|115:90|115:90|165:70,1,165,2|8,0:0|0:0,0:0:0:0:
239,9,60647,6,0,B|289:21|289:21|302:32|302:32|363:44,1,110,6|8,1:2|0:0,0:0:0:0:
452,52,61247,2,0,B|440:102|440:102|429:115|429:115|417:176,1,110,2|10,1:2|0:0,0:0:0:0:
457,260,61847,2,0,L|527:252,2,55,6|0|10,1:2|0:0|0:0,0:0:0:0:
416,296,62297,1,0,0:0:0:0:
416,296,62447,1,2,1:2:0:0:
312,334,62747,2,0,L|249:339,1,55,10|2,0:0|0:0,0:0:0:0:
213,304,63047,6,0,P|172:303|129:367,2,110,4|8|0,1:2|0:0|1:0,0:0:0:0:
306,246,63947,2,0,P|334:213|340:178,1,55,8|2,0:0|0:0,0:0:0:0:
326,148,64247,2,0,L|197:163,1,110,4|8,1:2|0:0,0:0:0:0:
174,125,64697,2,0,P|103:109|71:196,1,165,2|8,0:0|0:0,0:0:0:0:
11,276,65447,6,0,P|72:233|176:263,1,165,12|0,0:2|1:0,0:0:0:0:
194,287,66047,1,12,0:0:0:0:
281,353,66347,2,0,P|320:360|353:353,1,55,0|0,1:0|1:0,0:0:0:0:
382,330,66647,2,0,L|386:251,1,55,14|0,0:0|1:0,0:0:0:0:
371,221,66947,1,12,0:0:0:0:
424,124,67247,2,0,P|423:80|407:53,1,55,12|0,1:2|1:0,0:0:0:0:
371,42,67547,2,0,L|292:50,1,55,12|8,0:0|0:0,0:0:0:0:
264,64,67847,6,0,B|230:97|230:97|237:179,1,110,4|8,1:2|0:0,0:0:0:0:
211,208,68297,2,0,B|157:236|157:236|98:203,1,110,2|2,0:0|0:0,0:0:0:0:
69,178,68747,1,8,0:0:0:0:
27,279,69047,2,0,L|141:346,1,110,0|8,1:0|0:0,0:0:0:0:
170,360,69497,2,0,P|230:364|287:327,1,110,2|2,0:0|0:0,0:0:0:0:
318,310,69947,1,8,0:0:0:0:
405,243,70247,6,0,P|362:203|303:202,1,110,0|8,1:0|0:0,0:0:0:0:
270,164,70697,2,0,L|141:175,1,110,2|2,0:0|0:0,0:0:0:0:
120,210,71147,1,8,0:0:0:0:
45,290,71447,2,0,P|10:228|19:177,1,110,0|8,1:0|0:0,0:0:0:0:
72,99,72047,2,0,L|201:86,1,110,0|8,1:0|0:0,0:0:0:0:
266,158,72647,6,0,P|292:104|276:37,1,110,0|8,1:0|0:0,0:0:0:0:
280,1,73097,2,0,P|331:26|398:10,1,110,2|2,0:0|0:0,0:0:0:0:
436,6,73547,1,8,0:0:0:0:
495,98,73847,2,0,P|481:168|474:231,1,110,0|8,1:0|0:0,0:0:0:0:
469,260,74297,2,0,P|426:277|359:240,1,110,2|2,0:0|0:0,0:0:0:0:
343,205,74747,1,8,0:0:0:0:
236,175,75047,6,0,P|241:240|243:311,1,110,0|8,1:0|0:0,0:0:0:0:
211,330,75497,2,0,B|155:337|155:337|146:333|146:333|81:340,1,110,2|2,0:0|0:0,0:0:0:0:
50,318,75947,2,0,P|38:281|46:247,1,55,8|2,0:0|0:0,0:0:0:0:
71,221,76247,1,0,1:0:0:0:
31,118,76547,1,8,0:0:0:0:
111,43,76847,2,0,L|241:57,1,110,0|8,1:0|0:0,0:0:0:0:
317,2,77447,6,0,P|336:49|301:120,1,110,4|8,1:2|0:0,0:0:0:0:
283,146,77897,2,0,P|264:193|299:264,1,110,2|2,0:0|0:0,0:0:0:0:
318,288,78347,1,8,0:0:0:0:
421,250,78647,2,0,B|444:217|444:217|438:126,1,110,0|8,1:0|0:0,0:0:0:0:
412,98,79097,2,0,B|365:106|365:106|360:110|360:110|285:121,1,110,2|2,0:0|0:0,0:0:0:0:
249,113,79547,1,8,0:0:0:0:
149,159,79847,6,0,L|131:291,1,110,0|8,1:0|0:0,0:0:0:0:
147,321,80297,2,0,P|194:355|256:348,1,110,2|2,0:0|0:0,0:0:0:0:
287,318,80747,1,8,0:0:0:0:
361,236,81047,2,0,P|312:207|240:218,1,110,0|8,1:0|0:0,0:0:0:0:
171,144,81647,2,0,P|153:88|185:26,1,110,0|8,1:0|0:0,0:0:0:0:
267,92,82247,6,0,L|450:117,2,165,0|2|8,1:0|0:0|0:0,0:0:0:0:
171,144,83447,2,0,P|137:191|153:261,1,110,0|8,1:0|0:0,0:0:0:0:
170,287,83897,2,0,L|247:299,1,55,2|0,0:0|1:0,0:0:0:0:
324,250,84347,1,8,0:0:0:0:
428,282,84647,6,0,L|439:100,1,165,12|0,0:0|1:0,0:0:0:0:
405,72,85247,1,12,0:0:0:0:
295,71,85547,2,0,L|217:81,1,55,0|0,1:0|1:0,0:0:0:0:
185,85,85847,1,12,0:0:0:0:
90,141,86147,2,0,P|91:180|98:201,1,55,12|0,0:0|1:0,0:0:0:0:
117,247,86447,2,0,L|246:258,1,110,12|12,0:0|1:2,0:0:0:0:
278,233,86897,1,0,1:0:0:0:
278,233,87047,6,0,B|331:222|331:222|342:228|342:228|400:213,1,110,10|2,0:0|1:2,0:0:0:0:
401,108,87647,2,0,L|334:90,1,55,6|0,1:2|0:0,0:0:0:0:
300,66,87947,1,10,0:0:0:0:
214,135,88247,2,0,P|173:185|115:173,2,110,2|8|2,1:2|0:0|1:2,0:0:0:0:
208,84,88997,1,2,0:0:0:0:
208,84,89147,1,10,0:0:0:0:
98,90,89447,6,0,P|46:128|35:194,1,110,2|8,1:2|0:0,0:0:0:0:
66,274,90047,2,0,L|135:287,1,55,2|2,1:2|0:0,0:0:0:0:
173,297,90347,1,10,0:0:0:0:
269,349,90647,2,0,B|304:368|304:368|453:340,1,165,2|2,1:2|0:0,0:0:0:0:
470,310,91247,2,0,L|485:237,1,55,2|2,1:2|0:0,0:0:0:0:
494,202,91547,1,10,0:0:0:0:
450,100,91847,6,0,P|408:80|331:111,1,110,2|8,1:2|0:0,0:0:0:0:
276,177,92447,2,0,L|283:243,1,55,2|2,1:2|0:0,0:0:0:0:
288,286,92747,1,10,0:0:0:0:
197,348,93047,2,0,B|140:370|140:370|71:349,1,110,2|8,1:2|0:0,0:0:0:0:
26,267,93647,2,0,L|35:196,1,55,2|2,1:2|0:0,0:0:0:0:
37,157,93947,1,10,0:0:0:0:
98,66,94247,6,0,P|140:46|217:70,1,110,2|8,1:2|0:0,0:0:0:0:
263,147,94847,2,0,L|272:218,1,55,2|2,1:2|0:0,0:0:0:0:
281,255,95147,1,10,0:0:0:0:
382,298,95447,2,0,B|412:251|412:251|395:119,1,165,2|2,1:2|0:0,0:0:0:0:
395,87,96047,2,0,L|326:77,1,55,2|2,1:2|0:0,0:0:0:0:
286,66,96347,1,10,0:0:0:0:
205,140,96647,6,0,B|189:160|189:160|160:166|160:166|136:157|136:157|103:161,1,110,0|12,1:0|0:0,0:0:0:0:
31,80,97247,2,0,L|109:63,1,55,0|0,1:0|0:0,0:0:0:0:
138,55,97547,1,0,1:0:0:0:
107,160,97847,2,0,P|104:223|103:239,1,55,8|0,0:1|1:0,0:0:0:0:
78,263,98147,2,0,L|73:339,1,55,8|8,1:1|0:1,0:0:0:0:
100,367,98447,1,8,1:2:0:0:
201,324,98747,2,0,P|258:316|275:317,1,55,0|8,1:0|0:1,0:0:0:0:
302,343,99047,6,0,P|358:357|418:332,1,110,4|0,1:2|0:0,0:0:0:0:
390,232,99647,2,0,L|317:236,1,55,8|8,0:0|1:1,0:0:0:0:
285,211,99947,1,0,1:0:0:0:
183,169,100247,2,0,L|110:172,1,55,8|8,0:1|0:1,0:0:0:0:
73,165,100547,2,0,P|45:138|35:106,1,55,8|0,0:1|1:0,0:0:0:0:
45,69,100847,1,8,0:0:0:0:
141,17,101147,1,12,1:2:0:0:
233,76,101447,6,0,P|290:83|366:95,1,110,4|8,1:2|1:2,0:0:0:0:
437,144,102047,2,0,P|430:201|428:219,1,55,8|8,0:1|0:1,0:0:0:0:
425,253,102347,1,8,0:2:0:0:
369,348,102647,2,0,L|238:335,1,110,4|8,1:2|1:2,0:0:0:0:
149,331,103247,2,0,L|75:346,1,55,8|8,0:1|0:1,0:0:0:0:
40,351,103547,1,8,0:2:0:0:
41,241,103847,6,0,P|2:191|39:88,1,165,12|0,0:0|1:0,0:0:0:0:
74,72,104447,1,12,0:0:0:0:
163,136,104747,1,0,1:0:0:0:
268,120,105047,2,0,L|343:115,1,55,12|0,0:0|1:0,0:0:0:0:
374,137,105347,1,12,0:0:0:0:
433,229,105647,2,0,P|424:269|409:298,1,55,12|0,0:0|1:0,0:0:0:0:
379,320,105947,2,0,B|350:324|350:324|347:322|347:322|314:326,1,55,12|8,0:2|0:0,0:0:0:0:
270,330,106247,5,4,1:2:0:0:
256,190,123047,5,12,0:0:0:0:
133,299,123497,1,0,1:0:0:0:
133,299,123647,1,12,0:0:0:0:
30,260,123947,2,0,P|12:211|15:191,1,55,0|0,1:0|1:0,0:0:0:0:
38,160,124247,2,0,P|95:127|158:140,2,110,12|12|0,0:0|0:0|1:2,0:0:0:0:
119,233,125147,2,0,P|119:277|103:308,1,55,8|8,0:0|0:0,0:0:0:0:
96,341,125447,6,0,P|161:326|234:329,1,115.49999647522,4|8,1:2|0:0,0:0:0:0:
267,350,125897,1,2,0:0:0:0:
267,350,126047,2,0,P|302:302|308:278,1,57.7499982376099,0|2,1:0|0:0,0:0:0:0:
312,247,126347,1,8,0:0:0:0:
219,178,126647,2,0,P|253:144|340:139,1,115.49999647522,0|8,1:0|0:0,0:0:0:0:
372,163,127097,1,2,0:0:0:0:
372,163,127247,2,0,L|506:175,1,115.49999647522,0|8,1:0|0:0,0:0:0:0:
497,58,127847,6,0,L|363:46,1,115.49999647522,0|8,1:0|0:0,0:0:0:0:
328,25,128297,2,0,B|275:34|275:34|262:30|262:30|190:39,1,115.49999647522,2|2,0:0|0:0,0:0:0:0:
157,25,128747,1,8,0:0:0:0:
49,67,129047,2,0,P|61:120|67:208,1,115.49999647522,0|8,1:0|0:0,0:0:0:0:
13,283,129647,2,0,B|47:289|47:289|51:286|51:286|90:294,1,57.7499982376099,0|2,1:0|0:0,0:0:0:0:
114,324,129947,1,8,0:0:0:0:
226,296,130247,6,0,P|252:245|208:182,1,115.49999647522,0|8,1:2|0:0,0:0:0:0:
187,164,130697,1,2,0:0:0:0:
187,164,130847,2,0,L|182:92,1,57.7499982376099,0|2,1:0|0:0,0:0:0:0:
174,49,131147,1,8,0:0:0:0:
289,53,131447,2,0,P|352:64|421:84,1,115.49999647522,0|8,1:0|0:0,0:0:0:0:
445,124,131897,1,2,0:0:0:0:
445,124,132047,2,0,P|452:160|446:195,1,57.7499982376099,0|2,1:0|0:0,0:0:0:0:
421,224,132347,1,8,0:0:0:0:
306,208,132647,6,0,P|269:220|238:359,2,173.24999471283,0|2|8,1:0|0:0|0:0,0:0:0:0:
267,98,133847,1,0,1:0:0:0:
158,136,134147,2,0,L|178:194,1,57.7499982376099,8|0,0:0|0:0,0:0:0:0:
199,244,134447,2,0,L|265:222,1,57.7499982376099,0|0,1:0|0:0,0:0:0:0:
307,208,134747,1,8,0:0:0:0:
422,215,135047,6,0,B|434:265|434:265|432:273|432:273|446:337,1,115.49999647522,4|8,1:2|0:0,0:0:0:0:
404,369,135497,1,2,0:0:0:0:
404,369,135647,2,0,P|360:348|325:341,1,57.7499982376099,0|2,1:0|0:0,0:0:0:0:
293,339,135947,1,8,0:0:0:0:
179,357,136247,2,0,P|126:350|80:284,1,115.49999647522,0|8,1:0|0:0,0:0:0:0:
94,252,136697,1,2,0:0:0:0:
94,252,136847,2,0,P|98:208|95:182,1,57.7499982376099,0|2,1:0|0:0,0:0:0:0:
71,142,137147,1,8,0:0:0:0:
131,43,137447,6,0,P|189:52|262:58,1,115.49999647522,0|8,1:0|0:0,0:0:0:0:
301,39,137897,2,0,P|342:25|392:92,1,115.49999647522,2|2,0:0|0:0,0:0:0:0:
383,125,138347,1,8,0:0:0:0:
455,215,138647,2,0,P|416:241|333:222,1,115.49999647522,0|8,1:0|0:0,0:0:0:0:
246,183,139247,2,0,L|108:196,1,115.49999647522,0|8,1:0|0:0,0:0:0:0:
78,184,139697,1,2,0:0:0:0:
78,184,139847,6,0,B|52:157|52:157|68:54,1,115.49999647522,0|8,1:2|0:0,0:0:0:0:
102,37,140297,2,0,B|157:47|157:47|166:52|166:52|235:66,1,115.49999647522,2|2,0:0|0:0,0:0:0:0:
268,41,140747,1,8,0:0:0:0:
382,57,141047,2,0,P|418:84|405:158,1,115.49999647522,0|8,1:0|0:0,0:0:0:0:
381,198,141497,1,2,0:0:0:0:
381,198,141647,2,0,L|385:266,1,57.7499982376099,0|2,1:0|0:0,0:0:0:0:
389,313,141947,1,8,0:0:0:0:
286,353,142247,6,0,P|245:335|57:360,1,220,12|12,0:0|0:0,0:0:0:0:
6,263,143147,2,0,L|19:198,1,55,0|0,1:0|1:0,0:0:0:0:
33,156,143447,1,12,0:0:0:0:
116,84,143747,1,12,0:0:0:0:
224,103,144047,2,0,P|263:115|275:132,1,55,12|0,0:0|1:0,0:0:0:0:
284,178,144347,2,0,L|271:243,2,55,12|0|2,1:2|1:0|0:2,0:0:0:0:
256,192,144722,12,0,149447,0:0:0:0:
