osu file format v14

[General]
AudioFilename: audio.mp3
AudioLeadIn: 0
PreviewTime: 67772
Countdown: 0
SampleSet: Soft
StackLeniency: 0.4
Mode: 0
LetterboxInBreaks: 0
WidescreenStoryboard: 0

[Editor]
Bookmarks: 420,570,8970,10170,16095,19333,24133,29370,48570,67770,87570,96570,106170,125370,143833,144570,149370
DistanceSpacing: 0.9
BeatDivisor: 8
GridSize: 4
TimelineZoom: 3.199999

[Metadata]
Title:Cross Over
TitleUnicode:Cross†Over
Artist:HyuN feat. LyuU
ArtistUnicode:HyuN feat. LyuU
Creator:Kaguya_Sama
Version:Insane
Source:
Tags:cross+over featured artist fa video game videogame pop kpop korean electronic digital step core pump it up prime 2 2018 piu arcaea osu! Dailycare morinaga SharPlaw mappers' guild
BeatmapID:2464689
BeatmapSetID:1063700

[Difficulty]
HPDrainRate:5
CircleSize:4
OverallDifficulty:8
ApproachRate:9
SliderMultiplier:1.62
SliderTickRate:1

[Events]
//Background and Video events
0,0,"BG MISSILE228.jpg",0,0
//Break Periods
2,29647,38447
2,106447,115247
2,116047,122447
//Storyboard Layer 0 (Background)
//Storyboard Layer 1 (Fail)
//Storyboard Layer 2 (Pass)
//Storyboard Layer 3 (Foreground)
//Storyboard Layer 4 (Overlay)
//Storyboard Sound Samples

[TimingPoints]
647,300,4,2,2,70,1,0
9047,-100,4,2,2,60,0,0
9572,-100,4,2,2,5,0,0
9647,-71.4285714285714,4,2,2,60,0,0
9871,-71.4285714285714,4,2,2,5,0,0
9947,-71.4285714285714,4,2,2,60,0,0
10247,-100,4,2,2,80,0,0
20147,-166.666666666667,4,2,2,80,0,0
20371,-166.666666666667,4,2,2,5,0,0
20447,-100,4,2,2,80,0,0
20597,-100,4,2,2,90,0,0
20747,-100,4,2,2,80,0,0
39047,-125,4,2,2,60,0,0
40697,-125,4,2,2,65,0,0
40847,-125,4,2,2,60,0,0
43097,-125,4,2,2,65,0,0
43247,-125,4,2,2,60,0,0
45497,-125,4,2,2,65,0,0
45647,-125,4,2,2,60,0,0
48647,-100,4,2,2,70,0,0
51047,-125,4,2,2,70,0,0
51272,-125,4,2,2,5,0,0
51347,-105.263157894737,4,2,2,70,0,0
51571,-105.263157894737,4,2,2,5,0,0
51647,-90.9090909090909,4,2,2,70,0,0
51872,-90.9090909090909,4,2,2,5,0,0
51947,-80,4,2,2,70,0,0
52172,-80,4,2,2,5,0,0
52247,-100,4,2,2,70,0,0
60647,-125,4,2,2,70,0,0
60872,-125,4,2,2,5,0,0
60947,-105.263157894737,4,2,2,70,0,0
61171,-105.263157894737,4,2,2,5,0,0
61247,-90.9090909090909,4,2,2,70,0,0
61472,-90.9090909090909,4,2,2,5,0,0
61547,-80,4,2,2,70,0,0
61772,-80,4,2,2,5,0,0
61847,-100,4,2,2,70,0,0
65597,-100,4,2,2,80,0,0
65897,-100,4,2,2,70,0,0
67847,-100,4,2,2,80,0,0
76547,-83.3333333333333,4,2,2,80,0,0
77447,-100,4,2,2,80,0,0
87347,-166.666666666667,4,2,2,80,0,0
87571,-166.666666666667,4,2,2,5,0,0
87647,-100,4,2,2,90,0,0
96647,-71.4285714285714,4,2,2,75,0,0
96871,-71.4285714285714,4,2,2,5,0,0
96947,-90.9090909090909,4,2,2,75,0,0
97172,-90.9090909090909,4,2,2,5,0,0
97247,-125,4,2,2,60,0,0
97697,-125,4,2,2,75,0,0
97847,-125,4,2,2,60,0,0
98897,-125,4,2,2,60,0,0
99047,-83.3333333333333,4,2,2,60,0,0
99647,-125,4,2,2,60,0,0
100097,-125,4,2,2,75,0,0
100247,-125,4,2,2,60,0,0
101147,-83.3333333333333,4,2,2,60,0,0
101296,-83.3333333333333,4,2,2,75,0,0
101447,-83.3333333333333,4,2,2,80,0,0
106247,-83.3333333333333,4,2,2,60,0,0
123047,-83.3333333333333,4,2,2,85,0,0
124847,-166.666666666667,4,2,2,85,0,0
125447,-76.9230769230769,4,2,2,100,0,1
134147,-66.6666666666667,4,2,2,100,0,1
135047,-76.9230769230769,4,2,2,100,0,1
141947,-125,4,2,2,100,0,1
142247,-83.3333333333333,4,2,2,100,0,0
144647,-250,4,2,99,100,0,0
145022,-250,4,2,99,5,0,0
145847,-250,4,2,99,90,0,0
146222,-250,4,2,99,5,0,0
147047,-250,4,2,99,80,0,0
147422,-250,4,2,99,5,0,0
148247,-250,4,2,99,70,0,0
148622,-250,4,2,99,5,0,0

[Colours]
Combo1 : 123,136,210
Combo2 : 150,35,199
Combo3 : 195,195,195
Combo4 : 241,151,251
Combo5 : 158,139,139

[HitObjects]
110,77,9047,5,10,0:0:0:0:
128,85,9122,1,10,0:0:0:0:
146,93,9197,1,10,0:0:0:0:
164,100,9272,1,10,0:0:0:0:
179,112,9347,6,0,B|174:165|174:165|181:173|181:173|177:247,1,121.5,8|0,1:2|0:0,0:0:0:0:
105,278,9647,6,0,B|213:261|164:315|307:289,1,170.09999480896,12|0,1:2|0:0,0:0:0:0:
358,259,9947,5,8,0:0:0:0:
354,230,10022,1,8,0:0:0:0:
350,201,10097,1,8,0:0:0:0:
346,172,10172,1,8,0:0:0:0:
346,143,10247,6,0,P|426:168|509:173,1,162,6|8,1:2|0:0,0:0:0:0:
429,204,10697,1,2,0:0:0:0:
328,61,10847,2,0,P|291:75|259:123,1,81,2|2,1:2|0:0,0:0:0:0:
281,198,11147,2,0,P|247:149|183:157,1,121.5,10|0,0:0|0:0,0:0:0:0:
175,164,11447,6,0,B|89:145|122:207|9:185,1,162,2|8,1:2|0:0,0:0:0:0:
51,111,11897,1,2,0:0:0:0:
152,243,12047,2,0,L|146:338,1,81,2|2,1:2|0:2,0:0:0:0:
232,225,12347,2,0,L|224:351,1,121.5,10|0,0:0|0:0,0:0:0:0:
239,361,12647,6,0,P|339:359|368:307,1,162,2|8,1:2|0:0,0:0:0:0:
288,297,13097,1,2,0:0:0:0:
435,275,13247,2,0,P|401:244|361:239,1,81,2|2,1:2|0:0,0:0:0:0:
512,158,13547,2,0,P|465:138|401:172,1,121.5,10|0,0:0|0:0,0:0:0:0:
327,167,13847,6,0,B|281:145|281:145|231:157|231:157|147:122,1,162,2|8,1:2|0:0,0:0:0:0:
91,56,14297,1,2,0:0:0:0:
110,60,14372,1,2,0:0:0:0:
126,71,14447,1,2,1:2:0:0:
182,217,14597,1,2,0:2:0:0:
25,234,14747,2,0,B|2:253|2:253|105:244,1,121.5,10|0,0:0|0:0,0:0:0:0:
105,257,15047,6,0,L|293:241,1,162,2|8,1:2|0:0,0:0:0:0:
308,168,15497,1,2,0:0:0:0:
402,312,15647,2,0,B|360:310|360:310|332:278,1,81,2|2,1:2|0:0,0:0:0:0:
389,147,15947,2,0,B|412:133|412:133|393:247,1,121.5,10|0,0:0|0:0,0:0:0:0:
414,233,16247,6,0,P|460:254|458:367,1,162,2|8,1:2|0:0,0:0:0:0:
400,384,16697,1,2,0:0:0:0:
241,328,16847,2,0,L|255:227,1,81,2|2,1:2|0:0,0:0:0:0:
154,95,17147,2,0,L|170:215,1,121.5,10|0,0:0|0:0,0:0:0:0:
165,235,17447,6,0,P|117:260|102:174,1,162,2|8,1:2|0:0,0:0:0:0:
252,247,17897,1,2,0:0:0:0:
227,76,18047,2,0,P|166:82|144:106,1,81,2|2,1:2|0:0,0:0:0:0:
330,136,18347,2,0,B|420:154|366:98|473:121,1,121.5,10|0,0:0|0:0,0:0:0:0:
440,193,18647,6,0,L|425:355,1,162,2|8,1:2|0:0,0:0:0:0:
316,282,19097,1,2,0:0:0:0:
337,278,19172,1,2,0:0:0:0:
357,282,19247,1,14,0:0:0:0:
328,362,19397,1,2,0:0:0:0:
191,308,19547,1,10,1:2:0:0:
239,384,19697,1,2,1:2:0:0:
68,381,19847,5,8,0:0:0:0:
65,360,19922,1,8,0:0:0:0:
61,340,19997,1,8,0:0:0:0:
57,320,20072,1,8,0:0:0:0:
56,300,20147,6,0,L|66:215,1,72.8999977752686,0|0,1:0|0:0,0:0:0:0:
31,154,20447,6,0,B|70:143|70:143|125:168,1,81,6|0,1:2|0:0,0:0:0:0:
193,226,20747,2,0,B|173:233|173:233|200:119,1,121.5,10|0,0:0|0:0,0:0:0:0:
204,120,21047,6,0,P|276:98|283:186,1,162,2|8,1:2|0:0,0:0:0:0:
259,285,21497,1,2,0:0:0:0:
412,232,21647,2,0,L|323:241,1,81,2|2,1:2|0:0,0:0:0:0:
478,293,21947,2,0,B|502:265|502:265|485:154,1,121.5,10|0,0:0|0:0,0:0:0:0:
503,167,22247,6,0,L|482:3,1,162,2|8,1:2|0:0,0:0:0:0:
347,14,22697,1,2,0:0:0:0:
423,137,22847,2,0,L|412:40,1,81,2|2,1:2|0:0,0:0:0:0:
277,59,23147,2,0,B|228:55|228:55|215:60|215:60|142:56,1,121.5,10|0,0:0|0:0,0:0:0:0:
88,15,23447,6,0,P|112:26|48:73,1,162,2|8,1:2|0:0,0:0:0:0:
171,174,23897,1,2,0:0:0:0:
188,184,23972,1,2,0:0:0:0:
208,185,24047,2,0,P|249:156|246:118,1,81,2|2,1:2|0:0,0:0:0:0:
99,137,24347,2,0,P|92:192|150:251,1,121.5,10|0,0:0|0:0,0:0:0:0:
74,293,24647,6,0,L|253:287,1,162,6|8,1:2|0:0,0:0:0:0:
349,235,25097,1,2,0:0:0:0:
316,384,25247,2,0,B|312:353|312:353|316:344|316:344|310:284,1,81,2|2,1:2|0:0,0:0:0:0:
512,318,25547,2,0,L|380:311,1,121.5,10|0,0:0|0:0,0:0:0:0:
349,235,25847,6,0,L|521:242,1,162,6|10,1:2|0:0,0:0:0:0:
390,311,26297,1,2,0:0:0:0:
335,155,26447,2,0,P|297:173|274:214,1,81,2|2,1:2|0:0,0:0:0:0:
390,311,26747,2,0,P|423:284|425:198,1,121.5,8|0,0:0|0:0,0:0:0:0:
416,130,27047,5,12,0:0:0:0:
274,179,27497,5,0,1:0:0:0:
258,48,27647,1,12,0:0:0:0:
159,137,27947,5,2,1:2:0:0:
159,137,28097,1,2,1:2:0:0:
189,282,28247,5,12,0:0:0:0:
111,216,28397,2,0,L|63:205,2,40.5,0|0|12,1:0|1:0|0:0,0:0:0:0:
226,192,28697,2,0,L|274:181,2,40.5,0|0|12,1:0|1:0|0:0,0:0:0:0:
92,311,28997,2,0,L|36:300,1,40.5,0|0,1:0|1:0,0:0:0:0:
131,383,29147,5,12,0:0:0:0:
159,378,29222,1,8,0:0:0:0:
187,374,29297,1,8,0:0:0:0:
215,370,29372,1,8,0:0:0:0:
243,367,29447,1,12,0:0:0:0:
123,174,39047,6,0,P|176:192|252:79,2,194.4,6|2|2,1:2|0:0|0:0,0:0:0:0:
176,111,40397,2,0,P|204:170|165:245,1,129.6,2|0,0:0|0:0,0:0:0:0:
122,173,40847,2,0,P|91:182|67:203,1,64.8,2|0,0:0|0:0,0:0:0:0:
253,186,41147,2,0,P|292:204|316:242,1,64.8,2|0,0:0|0:0,0:0:0:0:
327,339,41447,6,0,B|337:260|337:260|348:252|348:252|363:132,2,194.4,2|2|2,0:0|0:0|0:0,0:0:0:0:
438,182,42797,2,0,L|421:321,1,129.6,2|0,0:0|0:0,0:0:0:0:
327,339,43247,2,0,P|297:307|293:270,1,64.8,2|0,0:0|0:0,0:0:0:0:
239,224,43547,2,0,P|251:182|281:160,1,64.8,2|0,0:0|0:0,0:0:0:0:
174,118,43847,6,0,B|227:102|272:136|272:136|310:164|360:151,2,194.4,6|2|2,0:0|0:0|0:0,0:0:0:0:
119,174,45197,2,0,L|139:18,1,129.6,2|0,0:0|0:0,0:0:0:0:
226,0,45647,2,0,L|237:76,1,64.8,2|0,0:0|0:0,0:0:0:0:
257,146,45947,2,0,L|246:222,1,64.8,2|0,0:0|0:0,0:0:0:0:
176,268,46247,6,0,B|153:241|153:241|327:266,2,194.4,6|2|2,0:0|0:0|0:0,0:0:0:0:
234,384,47447,5,0,1:0:0:0:
307,360,47597,2,0,B|351:314|339:272|339:272|289:256,1,129.6,2|2,0:0|0:0,0:0:0:0:
247,210,48047,2,0,L|249:177,3,32.4,2|2|0|0,1:2|0:0|1:0|1:0,0:0:0:0:
342,103,48347,5,2,1:2:0:0:
348,124,48422,1,2,1:2:0:0:
354,145,48497,1,10,0:0:0:0:
360,166,48572,1,10,0:0:0:0:
366,187,48647,6,0,P|416:216|514:167,1,162,4|10,1:2|0:0,0:0:0:0:
433,126,49097,1,2,0:0:0:0:
248,177,49247,2,0,B|209:184|209:184|204:189|204:189|149:200,1,81,0|2,1:2|0:0,0:0:0:0:
102,112,49547,2,0,B|69:106|69:106|64:101|64:101|25:94,1,81,8|2,0:0|0:0,0:0:0:0:
113,259,49847,6,0,B|82:231|82:231|105:94,1,162,0|8,1:0|0:0,0:0:0:0:
236,30,50297,2,0,B|267:58|267:58|247:176,1,162,2|2,0:0|0:0,0:0:0:0:
398,254,50747,2,0,L|384:174,1,81,8|2,0:0|0:0,0:0:0:0:
471,41,51047,6,0,P|421:72|374:66,1,97.2,6|0,1:2|0:0,0:0:0:0:
361,61,51347,6,0,L|386:188,1,115.42499691782,10|0,0:0|0:0,0:0:0:0:
370,195,51647,6,0,B|309:227|309:227|249:187,1,133.650004078674,2|0,1:2|0:0,0:0:0:0:
234,178,51947,6,0,B|198:160|198:160|219:301,1,151.875,10|0,0:0|0:0,0:0:0:0:
138,321,52247,6,0,L|144:374,2,54,6|2|2,1:2|0:0|0:0,0:0:0:0:
134,238,52547,2,0,L|84:217,2,54,10|2|2,0:0|0:0|0:0,0:0:0:0:
214,270,52847,2,0,L|256:237,2,54,2|2|2,1:2|0:0|0:0,0:0:0:0:
314,355,53147,5,10,0:0:0:0:
333,349,53222,1,2,0:0:0:0:
352,343,53297,1,2,0:0:0:0:
371,338,53372,1,2,0:0:0:0:
390,332,53447,6,0,B|434:297|434:297|416:154,1,162,4|8,1:2|0:0,0:0:0:0:
487,136,53897,1,2,0:0:0:0:
398,31,54047,2,0,L|413:146,1,81,0|2,1:0|0:0,0:0:0:0:
309,170,54347,2,0,L|319:89,1,81,8|2,0:0|0:0,0:0:0:0:
156,30,54647,6,0,P|223:27|335:-11,1,162,0|8,1:0|0:0,0:0:0:0:
221,152,55097,2,0,P|144:127|63:121,1,162,2|2,0:0|0:0,0:0:0:0:
7,232,55547,2,0,P|56:219|108:219,1,81,8|2,0:0|0:0,0:0:0:0:
247,309,55847,6,0,B|238:239|238:239|233:237|233:237|218:131,1,162,0|8,1:0|0:0,0:0:0:0:
325,55,56297,1,2,0:0:0:0:
400,140,56447,6,0,L|396:181,1,40.5,6|0,1:2|0:0,0:0:0:0:
340,228,56597,1,2,0:0:0:0:
408,297,56747,1,14,1:2:0:0:
408,297,56822,1,2,0:0:0:0:
408,297,56897,1,2,0:0:0:0:
340,364,57047,6,0,L|278:374,3,40.5,6|2|2|2,1:2|0:0|0:0|0:0,0:0:0:0:
247,309,57347,2,0,L|207:302,3,40.5,10|2|2|2,0:0|0:0|0:0|0:0,0:0:0:0:
119,265,57647,5,0,1:0:0:0:
107,260,57722,1,0,1:0:0:0:
96,255,57797,1,2,1:2:0:0:
85,249,57872,1,0,1:0:0:0:
74,243,57947,5,10,0:0:0:0:
55,224,58022,1,10,0:0:0:0:
52,197,58097,1,10,0:0:0:0:
65,174,58172,1,10,0:0:0:0:
91,164,58247,6,0,B|195:151|159:214|275:194,1,162,4|8,1:2|0:0,0:0:0:0:
362,130,58697,1,2,0:0:0:0:
277,49,58847,2,0,L|286:159,1,81,0|2,1:0|0:0,0:0:0:0:
317,284,59147,2,0,L|323:203,1,81,8|2,0:0|0:0,0:0:0:0:
427,79,59447,6,0,B|494:123|494:123|429:179,1,162,0|8,1:0|0:0,0:0:0:0:
298,181,59897,2,0,B|231:137|231:137|293:83,1,162,2|2,0:0|0:0,0:0:0:0:
405,252,60347,2,0,B|383:248|371:231|371:231|354:254|321:257,1,81,8|2,0:0|0:0,0:0:0:0:
181,361,60647,6,0,P|197:313|187:260,1,97.2,6|0,1:2|0:0,0:0:0:0:
199,252,60947,6,0,L|70:272,1,115.42499691782,8|0,0:0|0:0,0:0:0:0:
68,279,61247,6,0,B|20:246|20:246|0:192|48:161,1,133.650004078674,2|0,1:2|0:0,0:0:0:0:
23,157,61547,6,0,B|111:138|79:189|203:165,1,151.875,10|0,0:0|0:0,0:0:0:0:
228,107,61847,6,0,P|218:77|219:40,2,54,6|2|2,1:2|0:0|0:0,0:0:0:0:
297,154,62147,2,0,P|276:177|243:195,2,54,10|2|2,0:0|0:0|0:0,0:0:0:0:
303,71,62447,2,0,P|333:77|365:96,2,54,2|2|2,1:2|0:0|0:0,0:0:0:0:
415,210,62747,5,10,0:0:0:0:
409,229,62822,1,2,0:0:0:0:
403,248,62897,1,2,0:0:0:0:
398,267,62972,1,2,0:0:0:0:
392,286,63047,6,0,B|357:330|357:330|214:312,1,162,4|8,1:2|0:0,0:0:0:0:
192,250,63497,1,2,0:0:0:0:
122,381,63647,2,0,L|116:300,1,81,0|2,1:0|0:0,0:0:0:0:
35,250,63947,2,0,L|41:169,1,81,8|2,0:0|0:0,0:0:0:0:
156,118,64247,6,0,P|101:141|19:79,1,162,4|8,1:2|0:0,0:0:0:0:
218,52,64697,2,0,P|273:29|355:91,1,162,2|2,0:0|0:0,0:0:0:0:
256,219,65147,2,0,L|250:138,1,81,8|2,0:0|0:0,0:0:0:0:
351,81,65447,5,12,0:2:0:0:
376,164,65897,5,0,1:0:0:0:
265,124,66047,1,12,0:0:0:0:
460,139,66347,5,0,1:0:0:0:
460,139,66497,1,0,1:0:0:0:
359,244,66647,5,14,0:0:0:0:
440,216,66797,2,0,P|443:250|429:284,2,40.5,0|0|12,1:0|1:0|0:0,0:0:0:0:
338,322,67097,2,0,P|306:307|283:278,2,40.5,0|0|12,1:0|1:0|1:2,0:0:0:0:
296,186,67397,2,0,P|324:166|361:161,1,40.5,0|0,1:0|1:0,0:0:0:0:
235,241,67547,5,12,0:0:0:0:
207,236,67622,1,8,0:0:0:0:
179,232,67697,1,8,0:0:0:0:
151,228,67772,1,8,0:0:0:0:
123,225,67847,6,0,P|62:212|4:120,1,162,4|8,1:2|0:0,0:0:0:0:
46,2,68297,1,2,0:0:0:0:
162,113,68447,2,0,L|68:104,1,81,0|2,1:0|0:0,0:0:0:0:
284,32,68747,2,0,L|203:39,1,81,8|2,0:0|0:0,0:0:0:0:
355,95,69047,6,0,B|393:118|393:118|379:-18,1,162,0|8,1:0|0:0,0:0:0:0:
259,120,69497,1,2,0:0:0:0:
315,258,69647,2,0,B|322:228|322:228|318:221|318:221|322:179,1,81,0|2,1:0|0:0,0:0:0:0:
210,261,69947,2,0,B|203:230|203:230|207:223|207:223|203:181,1,81,8|2,0:0|0:0,0:0:0:0:
264,338,70247,6,0,P|206:359|122:304,1,162,0|8,1:0|0:0,0:0:0:0:
18,305,70697,2,0,P|79:304|139:224,1,162,2|2,0:0|0:0,0:0:0:0:
203,182,71147,2,0,P|162:147|115:146,1,81,8|2,0:0|0:0,0:0:0:0:
63,105,71447,6,0,L|69:203,1,81,0|2,1:0|0:0,0:0:0:0:
212,115,71747,2,0,L|216:34,1,81,8|2,0:0|0:0,0:0:0:0:
138,229,72047,2,0,L|144:327,1,81,0|2,1:0|0:0,0:0:0:0:
290,159,72347,2,0,L|294:78,1,81,8|2,0:0|0:0,0:0:0:0:
138,229,72647,6,0,B|129:50,1,162,0|8,1:0|0:0,0:0:0:0:
214,189,73097,1,2,0:0:0:0:
142,309,73247,2,0,P|105:308|46:315,1,81,0|2,1:0|0:0,0:0:0:0:
9,157,73547,2,0,P|53:160|94:160,1,81,8|2,0:0|0:0,0:0:0:0:
298,150,73847,6,0,P|341:174|273:221,1,162,0|8,1:0|0:0,0:0:0:0:
205,258,74297,1,2,0:0:0:0:
265,384,74447,2,0,B|277:358|277:358|268:295,1,81,0|2,1:0|0:0,0:0:0:0:
130,223,74747,2,0,B|118:249|118:249|127:312,1,81,8|2,0:0|0:0,0:0:0:0:
269,306,75047,6,0,B|298:338|298:338|425:346,1,162,0|8,1:0|0:0,0:0:0:0:
509,245,75497,2,0,B|480:213|480:213|353:205,1,162,2|2,0:0|0:0,0:0:0:0:
312,87,75947,2,0,L|403:92,1,81,8|2,0:0|0:0,0:0:0:0:
442,201,76247,6,0,L|361:205,1,81,0|2,1:0|0:0,0:0:0:0:
264,292,76547,2,0,P|231:245|82:218,2,194.399994067383,8|0|8,0:0|1:0|0:0,0:0:0:0:
226,365,77297,1,0,0:0:0:0:
343,285,77447,6,0,B|382:269|382:269|516:292,1,162,4|8,1:2|0:0,0:0:0:0:
398,356,77897,1,2,0:0:0:0:
307,358,78047,2,0,P|271:320|266:273,1,81,0|2,1:0|0:0,0:0:0:0:
385,220,78347,2,0,P|372:258|342:284,1,81,8|2,0:0|0:0,0:0:0:0:
187,291,78647,6,0,B|85:273|159:233|40:217,1,162,0|8,1:0|0:0,0:0:0:0:
0,282,79097,1,2,0:0:0:0:
0,146,79247,2,0,P|41:133|96:146,1,81,0|2,1:0|0:0,0:0:0:0:
215,195,79547,2,0,P|176:207|136:203,1,81,8|2,0:0|0:0,0:0:0:0:
188,42,79847,6,0,B|152:12|152:12|175:157,1,162,0|8,1:0|0:0,0:0:0:0:
118,286,80297,2,0,B|154:316|154:316|131:171,1,162,2|2,0:0|0:0,0:0:0:0:
219,191,80747,2,0,B|258:181|258:181|306:196,1,81,8|2,0:0|0:0,0:0:0:0:
276,341,81047,6,0,P|253:284|260:247,1,81,0|2,1:0|0:0,0:0:0:0:
356,136,81347,2,0,P|375:171|377:211,1,81,8|2,0:0|0:0,0:0:0:0:
219,191,81647,2,0,P|280:186|313:204,1,81,0|2,1:0|0:0,0:0:0:0:
412,286,81947,2,0,P|372:293|334:282,1,81,8|2,0:0|0:0,0:0:0:0:
512,145,82247,6,0,B|434:139|434:139|429:142|429:142|338:134,1,162,0|8,1:0|0:0,0:0:0:0:
297,193,82697,1,2,0:0:0:0:
217,113,82847,2,0,B|207:132|207:132|218:194,1,81,0|2,1:0|0:0,0:0:0:0:
351,135,83147,2,0,B|361:116|361:116|350:54,1,81,8|2,0:0|0:0,0:0:0:0:
158,65,83447,6,0,B|125:114|125:114|152:252,1,162,0|8,1:0|0:0,0:0:0:0:
92,333,83897,2,0,P|144:258|219:279,1,162,2|2,0:0|0:0,0:0:0:0:
234,338,84347,2,0,L|340:332,1,81,8|0,0:0|0:0,0:0:0:0:
420,284,84647,5,12,0:0:0:0:
318,138,85097,5,0,1:0:0:0:
346,257,85247,1,12,0:0:0:0:
232,201,85547,5,0,1:0:0:0:
232,201,85697,1,0,1:0:0:0:
258,90,85847,5,12,0:0:0:0:
181,123,85997,2,0,B|167:109|167:109|182:72,2,40.5,0|0|12,1:0|1:0|0:0,0:0:0:0:
318,138,86297,2,8,B|312:157|312:157|273:162,2,40.5,0|0|12,1:0|1:0|0:0,0:0:0:0:
259,11,86597,2,0,B|277:4|277:4|307:29,1,40.5,0|0,1:0|1:0,0:0:0:0:
387,33,86747,5,12,1:2:0:0:
392,61,86822,1,0,1:0:0:0:
396,89,86897,1,0,1:0:0:0:
400,117,86972,1,0,1:0:0:0:
403,145,87047,5,10,0:0:0:0:
382,142,87122,1,10,0:0:0:0:
362,138,87197,1,10,0:0:0:0:
342,134,87272,1,10,0:0:0:0:
322,133,87347,6,0,L|237:143,1,72.8999977752686,2|0,1:2|0:0,0:0:0:0:
195,194,87647,6,0,P|132:175|116:143,1,81,6|0,1:2|0:0,0:0:0:0:
61,105,87947,2,0,B|81:135|81:135|61:232,1,121.5,10|0,0:0|0:0,0:0:0:0:
48,231,88247,6,0,B|61:348|61:348|108:374,1,162,2|8,1:2|0:0,0:0:0:0:
218,325,88697,1,2,0:0:0:0:
285,376,88847,2,0,P|304:329|281:272,1,81,2|2,1:2|0:0,0:0:0:0:
239,241,89147,2,0,P|274:252|374:218,1,121.5,10|0,0:0|0:0,0:0:0:0:
370,221,89447,6,0,P|376:159|473:172,1,162,2|8,1:2|0:0,0:0:0:0:
447,262,89897,1,2,0:0:0:0:
374,306,90047,2,0,B|336:318|336:318|280:290,1,81,2|2,1:2|0:0,0:0:0:0:
128,260,90347,2,0,P|173:232|261:259,1,121.5,10|0,0:0|0:0,0:0:0:0:
225,326,90647,6,0,B|212:305|189:305|189:305|170:334|122:357|71:316,1,162,2|10,1:2|0:0,0:0:0:0:
22,202,91097,1,2,0:0:0:0:
40,211,91172,1,2,0:0:0:0:
54,226,91247,1,2,1:2:0:0:
172,208,91397,1,2,0:0:0:0:
37,122,91547,2,0,B|69:109|69:109|177:129,1,121.5,10|0,0:0|0:0,0:0:0:0:
174,129,91847,6,0,B|297:152|297:152|343:130,1,162,2|8,1:2|0:0,0:0:0:0:
285,68,92297,1,2,0:0:0:0:
412,130,92447,2,0,P|401:182|368:207,1,81,2|2,1:2|0:0,0:0:0:0:
394,280,92747,2,0,B|335:271|335:271|330:267|330:267|275:258,1,121.5,10|0,0:0|0:0,0:0:0:0:
257,268,93047,6,0,P|234:205|139:228,1,162,2|8,1:2|0:0,0:0:0:0:
34,305,93497,1,2,0:0:0:0:
22,229,93647,2,0,B|60:221|60:221|98:263,1,81,2|2,1:2|0:0,0:0:0:0:
93,363,93947,2,0,P|163:368|236:345,1,121.5,10|0,0:0|0:0,0:0:0:0:
231,363,94247,6,0,B|276:324|257:268|257:268|285:286|313:279,1,162,2|8,1:2|0:0,0:0:0:0:
392,295,94697,1,2,0:0:0:0:
301,199,94847,2,0,B|287:174|287:174|294:122,1,81,2|2,1:2|0:0,0:0:0:0:
356,66,95147,2,0,B|333:77|333:77|205:61,1,121.5,10|0,0:0|0:0,0:0:0:0:
200,2,95447,6,0,B|166:20|162:52|162:52|105:70|105:70|42:49,1,162,2|8,1:2|0:0,0:0:0:0:
131,140,95897,1,2,0:0:0:0:
137,121,95972,1,2,0:0:0:0:
140,101,96047,1,2,1:2:0:0:
0,98,96197,1,2,0:0:0:0:
1,227,96347,2,0,B|61:221|61:221|66:223|66:223|143:216,1,121.5,10|0,0:0|0:0,0:0:0:0:
194,187,96647,6,0,B|236:161|236:161|218:304,1,170.09999480896,0|0,1:0|0:0,0:0:0:0:
154,332,96947,6,0,B|175:299|224:303|224:303|229:335|269:359,1,133.650004078674,12|0,0:0|0:0,0:0:0:0:
297,285,97247,6,0,L|308:213,1,64.8,0|0,1:0|0:0,0:0:0:0:
372,287,97547,2,0,L|382:213,1,64.8,0|0,1:0|0:0,0:0:0:0:
512,284,97847,5,8,0:1:0:0:
485,211,97997,1,0,1:0:0:0:
470,208,98072,1,0,1:0:0:0:
455,205,98147,1,8,1:1:0:0:
507,140,98297,1,8,0:1:0:0:
381,223,98447,5,8,1:2:0:0:
403,102,98747,5,0,1:0:0:0:
407,90,98897,1,8,0:1:0:0:
283,120,99047,6,0,B|234:135|187:107|187:107|133:73|81:93|81:93|124:136|172:118,1,291.599991101075,4|0,1:2|0:0,0:0:0:0:
246,44,99647,2,0,B|253:30|248:11|248:11|238:28|241:44,1,64.8,8|8,0:0|1:1,0:0:0:0:
333,51,99947,2,0,B|347:46|357:29|357:29|338:34|329:47,1,64.8,0|0,1:0|0:0,1:1:0:0:
368,127,100247,5,8,0:1:0:0:
257,196,100397,1,8,0:1:0:0:
272,199,100472,1,8,0:1:0:0:
287,202,100547,1,8,0:1:0:0:
349,253,100697,1,0,1:0:0:0:
297,372,100847,6,0,P|265:374|215:381,1,64.8,8|8,0:0|0:1,0:0:0:0:
402,329,101147,6,0,B|430:327|442:306|442:306|459:325|506:319,1,97.1999970336915,12|0,1:2|0:0,0:0:0:0:
405,198,101447,5,4,1:2:0:0:
340,136,101597,1,0,1:0:0:0:
257,196,101747,2,0,L|265:99,1,97.1999970336915,8|0,1:2|1:0,0:0:0:0:
180,219,102047,5,8,0:1:0:0:
118,285,102197,1,8,0:1:0:0:
178,367,102347,2,0,L|81:358,1,97.1999970336915,8|8,0:2|0:1,0:0:0:0:
43,143,102647,5,4,1:2:0:0:
106,83,102797,1,0,1:0:0:0:
191,141,102947,2,0,L|182:44,1,97.1999970336915,8|0,1:2|1:0,0:0:0:0:
320,43,103247,5,8,0:1:0:0:
378,106,103397,1,8,0:1:0:0:
322,191,103547,2,0,L|418:182,1,97.1999970336915,8|8,0:2|0:1,0:0:0:0:
200,261,103847,5,12,0:0:0:0:
310,211,104297,5,0,1:0:0:0:
200,261,104447,1,12,0:0:0:0:
107,136,104747,5,0,1:0:0:0:
107,136,104897,1,0,1:0:0:0:
174,183,105047,5,12,0:0:0:0:
96,217,105197,2,0,P|113:245|135:258,2,48.5999985168458,0|0|12,1:0|1:0|0:0,0:0:0:0:
19,152,105497,2,0,P|11:183|17:208,2,48.5999985168458,0|0|12,1:0|1:0|0:0,0:0:0:0:
38,44,105797,2,0,B|9:56|-3:77,1,48.5999985168458,0|0,1:0|1:0,0:0:0:0:
125,103,105947,5,12,0:2:0:0:
153,108,106022,1,8,0:0:0:0:
181,112,106097,1,8,0:0:0:0:
209,116,106172,1,8,0:0:0:0:
237,119,106247,5,4,1:2:0:0:
197,209,115847,5,4,0:0:0:0:
224,283,123047,5,12,0:0:0:0:
410,318,123497,5,0,1:0:0:0:
320,350,123647,1,12,0:0:0:0:
316,221,123947,5,0,1:0:0:0:
284,131,124097,1,0,1:0:0:0:
411,135,124247,5,12,0:0:0:0:
302,115,124397,1,0,1:0:0:0:
305,90,124472,1,0,1:0:0:0:
308,66,124547,1,12,0:0:0:0:
293,219,124697,2,0,L|302:279,1,48.5999985168458,0|0,1:0|1:0,0:0:0:0:
320,350,124847,6,0,B|281:360|281:360|250:333,1,72.8999977752686,0|0,1:2|0:0,0:0:0:0:
186,368,125147,5,8,0:0:0:0:
154,371,125222,1,8,0:0:0:0:
124,374,125297,1,8,0:0:0:0:
94,377,125372,1,8,0:0:0:0:
63,356,125447,6,0,B|43:307|43:307|69:227,1,105.299995179749,4|2,1:2|0:0,0:0:0:0:
172,143,125747,1,8,0:0:0:0:
192,222,125897,2,0,P|150:224|96:174,1,105.299995179749,2|0,0:0|1:0,0:0:0:0:
97,107,126197,1,2,0:0:0:0:
208,53,126347,2,0,P|210:94|161:147,1,105.299995179749,8|0,0:0|0:0,0:0:0:0:
3,61,126647,6,0,B|90:50|90:50|113:65|113:65|238:48,1,210.599990359498,0|8,1:0|0:0,0:0:0:0:
278,0,127097,1,2,0:0:0:0:
451,101,127247,1,0,1:0:0:0:
425,97,127322,1,0,0:0:0:0:
399,94,127397,1,2,0:0:0:0:
373,91,127472,1,0,0:0:0:0:
346,88,127547,2,0,L|353:147,3,52.6499975898744,8|0|2|0,0:0|0:0|0:0|0:0,0:0:0:0:
318,212,127847,6,0,B|360:224|393:207|393:207|416:224,1,105.299995179749,0|2,1:0|0:0,0:0:0:0:
230,264,128147,1,8,0:0:0:0:
218,156,128297,2,0,L|207:52,1,105.299995179749,2|0,0:0|1:0,0:0:0:0:
278,0,128597,1,2,0:0:0:0:
115,15,128747,2,0,L|126:119,1,105.299995179749,8|0,0:0|0:0,0:0:0:0:
38,200,129047,6,0,B|68:182|68:182|147:206,1,105.299995179749,0|2,1:0|0:0,0:0:0:0:
148,209,129272,2,0,L|131:284,1,52.6499975898744,0|8,0:0|0:0,0:0:0:0:
279,324,129497,6,0,B|249:306|249:306|170:330,1,105.299995179749,2|0,0:0|1:0,0:0:0:0:
169,333,129722,2,0,L|185:408,1,52.6499975898744,0|2,0:0|0:0,0:0:0:0:
345,373,129947,6,0,P|360:345|358:306,1,52.6499975898744,8|0,0:0|0:0,0:0:0:0:
437,316,130097,2,0,P|427:285|398:259,1,52.6499975898744,2|0,0:0|0:0,0:0:0:0:
355,192,130247,6,0,L|366:88,1,105.299995179749,0|2,1:2|0:0,0:0:0:0:
222,47,130547,1,8,0:0:0:0:
287,96,130697,2,0,P|218:129|166:105,1,105.299995179749,2|0,0:0|1:0,0:0:0:0:
66,91,130997,1,2,0:0:0:0:
115,156,131147,2,0,P|148:87|124:35,1,105.299995179749,8|0,0:0|0:0,0:0:0:0:
12,25,131447,6,0,L|34:245,1,210.599990359498,0|8,1:0|0:0,0:0:0:0:
14,372,131897,1,2,0:0:0:0:
138,311,132047,1,0,1:0:0:0:
163,318,132122,1,0,0:0:0:0:
189,323,132197,1,2,0:0:0:0:
215,324,132272,1,0,0:0:0:0:
240,321,132347,2,0,P|279:319|304:308,3,52.6499975898744,8|0|2|0,0:0|0:0|0:0|0:0,0:0:0:0:
252,245,132647,6,0,B|246:205|246:205|256:181|256:181|251:141,1,105.299995179749,0|2,1:0|0:0,0:0:0:0:
321,78,132947,1,8,0:0:0:0:
459,178,133097,2,0,B|464:138|464:138|454:114|454:114|459:74,1,105.299995179749,2|0,0:0|1:0,0:0:0:0:
390,11,133397,1,2,0:0:0:0:
348,166,133547,2,0,P|299:169|240:125,1,105.299995179749,8|2,0:0|0:0,0:0:0:0:
203,22,133847,6,0,B|229:6|259:8|259:8|241:22|228:43,1,105.299995179749,0|2,1:0|0:0,0:0:0:0:
154,124,134147,6,0,B|132:78|170:37|170:37|225:44|269:95|246:164,2,243.000009269715,8|0|8,0:0|1:0|0:0,0:0:0:0:
190,205,134897,1,0,0:0:0:0:
23,169,135047,6,0,B|0:130|0:130|34:102|34:102|188:129,1,210.599990359498,4|8,1:2|0:0,0:0:0:0:
274,223,135497,1,2,0:0:0:0:
357,174,135647,2,0,B|369:208|369:208|354:275,1,105.299995179749,0|2,1:0|0:0,0:0:0:0:
187,306,135947,2,0,B|175:272|175:272|189:204,1,105.299995179749,8|0,0:0|0:0,0:0:0:0:
274,223,136247,6,0,B|367:231|367:231|374:242|374:242|484:252,1,210.599990359498,0|8,1:0|0:0,0:0:0:0:
512,152,136697,1,2,0:0:0:0:
478,30,136847,1,0,1:0:0:0:
456,45,136922,1,0,0:0:0:0:
431,54,136997,1,2,0:0:0:0:
405,57,137072,1,0,0:0:0:0:
379,53,137147,2,0,P|350:61|324:83,3,52.6499975898744,8|0|2|0,0:0|0:0|0:0|0:0,0:0:0:0:
297,5,137447,6,0,P|253:62|276:129,1,105.299995179749,0|2,1:0|0:0,0:0:0:0:
273,206,137747,1,8,0:0:0:0:
186,276,137897,2,0,P|138:295|87:286,1,105.299995179749,2|0,0:0|1:0,0:0:0:0:
273,206,138197,1,2,0:0:0:0:
377,245,138347,2,0,P|417:277|434:326,1,105.299995179749,8|0,0:0|0:0,0:0:0:0:
374,166,138647,6,0,B|403:166|424:182|424:182|430:155|480:112,1,105.299995179749,0|2,1:0|0:0,0:0:0:0:
236,91,138947,2,0,B|207:91|186:107|186:107|180:80|130:37,1,105.299995179749,8|2,0:0|0:0,0:0:0:0:
374,16,139247,5,0,1:0:0:0:
394,93,139397,1,2,0:0:0:0:
317,113,139547,1,8,0:0:0:0:
297,36,139697,1,2,0:0:0:0:
456,40,139847,6,0,B|490:62|490:62|473:259,1,210.599990359498,0|8,1:2|0:0,0:0:0:0:
374,166,140297,2,0,B|340:188|340:188|330:299,1,105.299995179749,2|0,0:0|1:0,0:0:0:0:
381,319,140597,1,2,0:0:0:0:
499,221,140747,2,0,B|494:286|494:286|460:308,1,105.299995179749,8|0,0:0|0:0,0:0:0:0:
278,315,141047,6,0,B|228:338|178:304|188:303|137:260|78:290,1,210.599990359498,0|8,1:0|0:0,0:0:0:0:
119,363,141497,1,2,0:0:0:0:
239,237,141647,2,0,P|235:173|230:130,1,105.299995179749,0|2,1:0|0:0,0:0:0:0:
136,63,141947,6,0,P|125:82|147:61,1,97.2,8|0,0:0|0:0,0:0:0:0:
218,18,142247,5,12,0:0:0:0:
230,132,142697,5,0,1:0:0:0:
320,164,142847,1,12,0:0:0:0:
413,101,143147,5,0,1:0:0:0:
413,101,143297,1,0,1:0:0:0:
432,210,143447,5,12,0:0:0:0:
359,282,143597,2,0,L|362:330,2,48.5999985168458,0|0|12,1:0|1:0|0:0,0:0:0:0:
268,251,143897,2,0,L|265:299,2,48.5999985168458,0|0|12,1:0|1:0|0:0,0:0:0:0:
171,288,144197,2,0,L|174:336,1,48.5999985168458,0|0,1:0|1:0,0:0:0:0:
94,384,144347,5,12,1:2:0:0:
91,347,144422,1,0,1:0:0:0:
89,311,144497,1,0,1:0:0:0:
87,273,144572,1,0,1:0:0:0:
85,237,144647,6,0,B|63:218|69:189|69:189|132:235|194:213|211:161|211:161|265:192|320:207|382:211|382:211|414:128|414:128|346:139|252:103|217:74|217:74|154:83|135:133|135:133|107:109|56:98|26:118|26:118|3:97|1:71|17:48|17:48|38:61|40:82,1,1036.8,2|0,0:2|0:0,0:0:0:0:
