osu file format v14

[General]
AudioFilename: audio.mp3
AudioLeadIn: 0
PreviewTime: 67772
Countdown: 0
SampleSet: Soft
StackLeniency: 0.4
Mode: 0
LetterboxInBreaks: 0
WidescreenStoryboard: 0

[Editor]
Bookmarks: 420,570,8970,10170,16095,24133,29370,48570,67770,87570,96570,106170,125370,144570,149370
DistanceSpacing: 0.9
BeatDivisor: 8
GridSize: 4
TimelineZoom: 3.199999

[Metadata]
Title:Cross Over
TitleUnicode:Cross†Over
Artist:HyuN feat. LyuU
ArtistUnicode:HyuN feat. LyuU
Creator:Kaguya_Sama
Version:Falling into the abyss.
Source:
Tags:cross+over featured artist fa video game videogame pop kpop korean electronic digital step core pump it up prime 2 2018 piu arcaea osu! Dailycare morinaga SharPlaw mappers' guild
BeatmapID:2227164
BeatmapSetID:1063700

[Difficulty]
HPDrainRate:6
CircleSize:4.5
OverallDifficulty:9
ApproachRate:9.5
SliderMultiplier:2.1
SliderTickRate:1

[Events]
//Background and Video events
0,0,"BG MISSILE228.jpg",0,0
//Break Periods
2,29647,38522
//Storyboard Layer 0 (Background)
//Storyboard Layer 1 (Fail)
//Storyboard Layer 2 (Pass)
//Storyboard Layer 3 (Foreground)
//Storyboard Layer 4 (Overlay)
//Storyboard Sound Samples

[TimingPoints]
647,300,4,2,2,70,1,0
9047,-100,4,2,2,60,0,0
9084,-100,4,2,2,5,0,0
9122,-100,4,2,2,60,0,0
9159,-100,4,2,2,5,0,0
9197,-100,4,2,2,60,0,0
9234,-100,4,2,2,5,0,0
9272,-100,4,2,2,60,0,0
9309,-100,4,2,2,5,0,0
9347,-71.4285714285714,4,2,2,60,0,0
9572,-71.4285714285714,4,2,2,5,0,0
9647,-250,4,2,2,60,0,0
9872,-250,4,2,2,5,0,0
9947,-250,4,2,2,60,0,0
10247,-71.4285714285714,4,2,2,80,0,0
20147,-250,4,2,2,80,0,0
20372,-250,4,2,2,5,0,0
20447,-71.4285714285714,4,2,2,80,0,0
24647,-62.5,4,2,2,80,0,0
24947,-71.4285714285714,4,2,2,80,0,0
25847,-62.5,4,2,2,80,0,0
26147,-71.4285714285714,4,2,2,80,0,0
27197,-166.666666666667,4,2,2,80,0,0
27647,-71.4285714285714,4,2,2,80,0,0
27947,-100,4,2,2,80,0,0
39047,-125,4,2,2,60,0,0
39347,-125,4,2,2,5,0,0
39497,-125,4,2,2,60,0,0
39797,-125,4,2,2,5,0,0
39947,-125,4,2,2,60,0,0
40247,-125,4,2,2,5,0,0
40397,-125,4,2,2,60,0,0
40772,-125,4,2,2,5,0,0
40847,-125,4,2,2,60,0,0
41747,-125,4,2,2,5,0,0
41897,-125,4,2,2,60,0,0
42197,-125,4,2,2,5,0,0
42347,-125,4,2,2,60,0,0
42647,-125,4,2,2,5,0,0
42797,-125,4,2,2,60,0,0
43097,-125,4,2,2,5,0,0
43247,-125,4,2,2,60,0,0
44147,-125,4,2,2,5,0,0
44297,-125,4,2,2,60,0,0
44597,-125,4,2,2,5,0,0
44747,-125,4,2,2,60,0,0
45047,-125,4,2,2,5,0,0
45197,-125,4,2,2,60,0,0
45572,-125,4,2,2,5,0,0
45647,-125,4,2,2,60,0,0
46547,-125,4,2,2,5,0,0
46697,-125,4,2,2,60,0,0
46997,-125,4,2,2,5,0,0
47147,-125,4,2,2,60,0,0
48647,-100,4,2,2,70,0,0
51272,-100,4,2,2,5,0,0
51347,-86.9565217391304,4,2,2,70,0,0
51572,-86.9565217391304,4,2,2,5,0,0
51647,-76.9230769230769,4,2,2,70,0,0
51872,-76.9230769230769,4,2,2,5,0,0
51947,-68.9655172413793,4,2,2,70,0,0
52172,-68.9655172413793,4,2,2,5,0,0
52247,-100,4,2,2,70,0,0
60872,-100,4,2,2,5,0,0
60947,-86.9565217391304,4,2,2,70,0,0
61172,-86.9565217391304,4,2,2,5,0,0
61247,-76.9230769230769,4,2,2,70,0,0
61472,-76.9230769230769,4,2,2,5,0,0
61547,-68.9655172413793,4,2,2,70,0,0
61772,-68.9655172413793,4,2,2,5,0,0
61847,-100,4,2,2,70,0,0
63047,-83.3333333333333,4,2,2,70,0,0
63272,-100,4,2,2,70,0,0
64247,-83.3333333333333,4,2,2,70,0,0
64547,-100,4,2,2,70,0,0
65447,-500,4,2,2,70,0,0
65897,-62.5,4,2,2,70,0,0
66347,-125,4,2,2,70,0,0
67847,-100,4,2,2,80,0,0
76547,-68.9655172413793,4,2,2,80,0,0
76772,-68.9655172413793,4,2,2,5,0,0
76847,-76.9230769230769,4,2,2,80,0,0
77072,-76.9230769230769,4,2,2,5,0,0
77147,-86.9565217391304,4,2,2,80,0,0
77372,-86.9565217391304,4,2,2,5,0,0
77447,-76.9230769230769,4,2,2,80,0,0
77747,-100,4,2,2,80,0,0
84571,-100,4,2,2,5,0,0
84647,-500,4,2,2,80,0,0
85097,-62.5,4,2,2,80,0,0
85547,-125,4,2,2,80,0,0
87047,-100,4,2,2,80,0,0
87084,-100,4,2,2,5,0,0
87122,-100,4,2,2,80,0,0
87159,-100,4,2,2,5,0,0
87197,-100,4,2,2,80,0,0
87234,-100,4,2,2,5,0,0
87272,-100,4,2,2,80,0,0
87309,-100,4,2,2,5,0,0
87347,-250,4,2,2,80,0,0
87572,-250,4,2,2,5,0,0
87647,-71.4285714285714,4,2,2,90,0,0
96647,-62.5,4,2,2,75,0,0
96872,-62.5,4,2,2,5,0,0
96947,-250,4,2,2,75,0,0
97172,-250,4,2,2,5,0,0
97247,-125,4,2,2,60,0,0
97772,-125,4,2,2,5,0,0
97847,-125,4,2,2,60,0,0
98972,-125,4,2,2,5,0,0
99047,-125,4,2,2,60,0,0
100172,-125,4,2,2,5,0,0
100247,-125,4,2,2,60,0,0
101147,-83.3333333333333,4,2,2,60,0,0
101372,-83.3333333333333,4,2,2,5,0,0
101447,-125,4,2,2,80,0,0
103847,-500,4,2,2,80,0,0
104297,-62.5,4,2,2,80,0,0
104747,-125,4,2,2,80,0,0
106247,-166.666666666667,4,2,2,60,0,0
114947,-100,4,2,2,60,0,0
115172,-100,4,2,2,5,0,0
115247,-117.647058823529,4,2,2,60,0,0
115472,-117.647058823529,4,2,2,5,0,0
115547,-142.857142857143,4,2,2,60,0,0
115772,-142.857142857143,4,2,2,5,0,0
115847,-166.666666666667,4,2,2,60,0,0
123047,-500,4,2,2,85,0,0
123497,-62.5,4,2,2,85,0,0
123947,-125,4,2,2,85,0,0
124847,-100,4,2,2,85,0,0
125147,-83.3333333333333,4,2,2,85,0,0
125184,-83.3333333333333,4,2,2,5,0,0
125222,-83.3333333333333,4,2,2,85,0,0
125259,-83.3333333333333,4,2,2,5,0,0
125297,-83.3333333333333,4,2,2,85,0,0
125334,-83.3333333333333,4,2,2,5,0,0
125372,-83.3333333333333,4,2,2,85,0,0
125409,-83.3333333333333,4,2,2,5,0,0
125447,-62.5,4,2,2,100,0,1
134147,-50,4,2,2,100,0,1
134372,-50,4,2,2,5,0,1
134447,-54.054054054054,4,2,2,100,0,1
134672,-54.054054054054,4,2,2,5,0,1
134747,-58.8235294117647,4,2,2,100,0,1
134972,-58.8235294117647,4,2,2,5,0,1
135047,-55.5555555555556,4,2,2,100,0,1
135347,-62.5,4,2,2,100,0,1
142247,-500,4,2,2,100,0,0
142697,-62.5,4,2,2,100,0,0
143147,-125,4,2,2,100,0,0
144647,-250,4,2,99,100,0,0
145022,-250,4,2,99,5,0,0
145847,-250,4,2,99,90,0,0
146222,-250,4,2,99,5,0,0
147047,-250,4,2,99,80,0,0
147422,-250,4,2,99,5,0,0
148247,-250,4,2,99,70,0,0
148622,-250,4,2,99,5,0,0

[Colours]
Combo1 : 123,136,210
Combo2 : 150,35,199
Combo3 : 195,195,195
Combo4 : 241,151,251
Combo5 : 158,139,139

[HitObjects]
92,287,9047,6,0,P|113:297|125:297,1,26.25,10|0,0:0|0:0,0:0:0:0:
135,341,9122,2,0,P|159:337|168:330,1,26.25,10|2,0:0|0:0,0:0:0:0:
201,361,9197,2,0,P|218:344|222:333,1,26.25,10|0,0:0|0:0,0:0:0:0:
267,339,9272,2,0,P|271:315|268:304,1,26.25,10|0,0:0|0:0,0:0:0:0:
293,234,9347,6,0,B|282:188|282:188|199:166|199:166|234:285,1,220.499993270874,8|0,1:2|0:0,0:0:0:0:
270,313,9647,6,0,L|344:299,1,63,12|0,1:2|0:0,0:0:0:0:
390,351,9947,5,8,0:0:0:0:
404,282,10022,1,8,0:0:0:0:
401,210,10097,1,8,0:0:0:0:
378,144,10172,1,8,0:0:0:0:
325,74,10247,6,0,B|281:47|281:47|105:81,1,220.499993270874,6|0,1:2|0:0,0:0:0:0:
44,148,10547,2,0,P|74:170|109:182,1,73.4999977569581,8|0,0:0|0:0,0:0:0:0:
262,146,10697,1,2,0:0:0:0:
255,139,10772,1,2,0:0:0:0:
249,133,10847,6,0,P|211:150|166:206,1,73.4999977569581,2|0,1:2|0:0,0:0:0:0:
391,104,10997,2,0,P|350:96|281:117,1,73.4999977569581,2|0,0:0|0:0,0:0:0:0:
115,79,11147,2,0,B|161:52|214:94|214:94|265:135|328:95,1,220.499993270874,10|0,0:0|0:0,0:0:0:0:
391,104,11447,6,0,P|459:99|411:207,1,220.499993270874,2|0,1:2|0:0,0:0:0:0:
319,308,11747,2,0,P|363:280|378:218,1,73.4999977569581,8|0,0:0|0:0,0:0:0:0:
221,208,11897,1,2,0:0:0:0:
222,217,11972,1,2,0:0:0:0:
223,226,12047,6,0,P|273:238|328:205,1,73.4999977569581,2|0,1:2|0:0,0:0:0:0:
99,213,12197,2,0,P|133:251|197:256,1,73.4999977569581,2|0,0:2|0:0,0:0:0:0:
64,109,12347,2,0,B|65:84|78:58|78:58|23:81|-1:133|30:236,1,220.499993270874,10|0,0:0|0:0,0:0:0:0:
0,306,12647,6,0,B|80:299|80:299|93:307|93:307|286:292,1,220.499993270874,2|0,1:2|0:0,0:0:0:0:
304,381,12947,2,0,L|230:376,1,73.4999977569581,8|0,0:0|0:0,0:0:0:0:
267,229,13097,1,2,0:0:0:0:
257,230,13172,1,2,0:0:0:0:
248,232,13247,6,0,P|235:274|166:321,1,73.4999977569581,2|0,1:2|0:0,0:0:0:0:
142,155,13397,2,0,P|163:194|148:276,1,73.4999977569581,2|0,0:0|0:0,0:0:0:0:
37,179,13547,2,0,P|82:59|177:98,1,220.499993270874,10|0,0:0|0:0,0:0:0:0:
225,113,13847,6,0,B|318:105|318:105|342:121|342:121|475:109,1,220.499993270874,2|0,1:2|0:0,0:0:0:0:
497,57,14147,2,0,P|469:37|400:54,1,73.4999977569581,8|0,0:0|0:0,0:0:0:0:
449,191,14297,1,2,0:0:0:0:
452,200,14372,1,2,0:0:0:0:
455,208,14447,6,0,L|353:201,1,73.4999977569581,2|0,1:2|0:0,0:0:0:0:
224,113,14597,2,0,L|298:107,1,73.4999977569581,2|0,0:2|0:0,0:0:0:0:
330,309,14747,2,0,B|372:280|384:226|359:173|322:156|264:200|283:237,1,220.499993270874,10|0,0:0|0:0,0:0:0:0:
184,284,15047,6,0,P|255:270|411:278,1,220.499993270874,2|0,1:2|0:0,0:0:0:0:
386,354,15347,2,0,P|353:339|331:310,1,73.4999977569581,8|0,0:0|0:0,0:0:0:0:
428,198,15497,1,2,0:0:0:0:
419,201,15572,1,2,0:0:0:0:
411,206,15647,6,0,P|415:242|403:276,1,73.4999977569581,2|0,1:2|0:0,0:0:0:0:
305,162,15797,2,0,P|326:190|333:226,1,73.4999977569581,2|0,0:0|0:0,0:0:0:0:
443,119,15947,2,0,B|350:133|350:133|330:146|330:146|195:163,1,220.499993270874,10|0,0:0|0:0,0:0:0:0:
171,228,16247,6,0,B|129:267|129:267|157:69,1,220.499993270874,2|0,1:2|0:0,0:0:0:0:
239,87,16547,2,0,L|223:195,1,73.4999977569581,8|0,0:0|0:0,0:0:0:0:
38,179,16697,1,2,0:0:0:0:
45,186,16772,1,2,0:0:0:0:
52,193,16847,6,0,L|68:85,1,73.4999977569581,2|0,1:2|0:0,0:0:0:0:
10,332,16997,2,0,L|-1:259,1,73.4999977569581,2|0,0:0|0:0,0:0:0:0:
129,267,17147,2,0,B|190:282|227:233|227:233|266:284|335:269,1,220.499993270874,10|0,0:0|0:0,0:0:0:0:
368,347,17447,6,0,B|333:292|374:241|374:241|416:188|389:142,1,220.499993270874,2|0,1:2|0:0,0:0:0:0:
291,169,17747,2,0,P|304:195|311:161,1,73.4999977569581,8|0,0:0|0:0,0:0:0:0:
442,284,17897,1,2,0:0:0:0:
437,292,17972,1,2,0:0:0:0:
433,301,18047,6,0,P|461:288|513:217,1,73.4999977569581,2|0,1:2|0:0,0:0:0:0:
298,327,18197,2,0,P|325:340|413:334,1,73.4999977569581,2|0,0:0|0:0,0:0:0:0:
389,143,18347,2,0,B|343:107|343:107|362:276,1,220.499993270874,10|0,0:0|0:0,0:0:0:0:
298,327,18647,6,0,P|213:299|109:371,1,220.499993270874,2|0,1:2|0:0,0:0:0:0:
36,338,18947,2,0,P|40:280|4:227,1,73.4999977569581,8|0,0:0|0:0,0:0:0:0:
178,247,19097,1,2,0:0:0:0:
172,255,19172,1,2,0:0:0:0:
167,263,19247,6,0,P|132:251|104:227,1,73.4999977569581,14|0,0:0|0:0,0:0:0:0:
179,175,19397,2,0,P|157:145|148:110,1,73.4999977569581,2|0,0:0|0:0,0:0:0:0:
376,37,19547,6,0,P|346:58|326:89,1,73.4999977569581,10|0,1:2|0:0,0:0:0:0:
250,38,19697,2,0,P|237:72|239:109,1,73.4999977569581,2|0,1:2|0:0,0:0:0:0:
282,268,19847,5,8,0:0:0:0:
351,265,19922,1,8,0:0:0:0:
393,207,19997,1,8,0:0:0:0:
385,136,20072,1,8,0:0:0:0:
326,88,20147,6,0,P|310:118|311:155,1,63,0|0,1:0|0:0,0:0:0:0:
356,211,20447,6,0,P|262:175|138:273,1,220.499993270874,6|0,1:2|0:0,0:0:0:0:
71,277,20747,2,0,P|165:241|289:339,1,220.499993270874,10|0,0:0|0:0,0:0:0:0:
233,165,21047,6,0,P|162:126|169:229,1,220.499993270874,2|0,1:2|0:0,0:0:0:0:
71,277,21347,2,0,L|81:349,1,73.4999977569581,8|0,0:0|0:0,0:0:0:0:
280,306,21497,1,2,0:0:0:0:
273,299,21572,1,2,0:0:0:0:
266,293,21647,6,0,L|279:219,1,73.4999977569581,2|0,1:2|0:0,0:0:0:0:
188,384,21797,2,0,L|177:311,1,73.4999977569581,2|0,0:0|0:0,0:0:0:0:
392,342,21947,2,0,P|449:290|390:166,1,220.499993270874,10|0,0:0|0:0,0:0:0:0:
278,220,22247,6,0,B|226:260|141:246|123:165|168:124|226:134|225:191,1,220.499993270874,2|0,1:2|0:0,0:0:0:0:
217,69,22547,2,0,P|275:102|291:151,1,73.4999977569581,8|0,0:0|0:0,0:0:0:0:
413,14,22697,1,2,0:0:0:0:
406,7,22772,1,2,0:0:0:0:
399,0,22847,6,0,P|341:33|325:82,1,73.4999977569581,2|0,1:2|0:0,0:0:0:0:
234,0,22997,2,0,P|216:64|239:110,1,73.4999977569581,2|0,0:0|0:0,0:0:0:0:
337,176,23147,2,0,B|376:138|376:138|154:160,1,220.499993270874,10|0,0:0|0:0,0:0:0:0:
100,236,23447,6,0,P|190:174|101:110,1,220.499993270874,2|0,1:2|0:0,0:0:0:0:
12,52,23747,2,0,B|121:39,1,73.4999977569581,8|0,0:0|0:0,0:0:0:0:
255,205,23897,1,2,0:0:0:0:
252,214,23972,1,2,0:0:0:0:
249,224,24047,6,0,P|182:224|143:189,1,73.4999977569581,2|0,1:2|0:0,0:0:0:0:
22,205,24197,2,0,P|42:174|73:155,1,73.4999977569581,2|0,0:0|0:0,0:0:0:0:
171,33,24347,2,0,B|219:64|219:64|165:267,1,220.499993270874,10|0,0:0|0:0,0:0:0:0:
205,319,24647,6,0,B|162:376|162:376|248:336|378:362,1,252,6|0,1:2|0:0,0:0:0:0:
431,384,24947,2,0,P|432:359|408:309,1,73.4999977569581,8|0,0:0|0:0,0:0:0:0:
429,128,25097,1,2,0:0:0:0:
436,136,25172,1,2,0:0:0:0:
443,142,25247,6,0,P|418:141|368:165,1,73.4999977569581,2|0,1:2|0:0,0:0:0:0:
489,265,25397,2,0,P|472:246|419:228,1,73.4999977569581,2|0,0:0|0:0,0:0:0:0:
255,228,25547,2,0,B|275:248|278:273|278:273|317:237|315:151|234:107,1,220.499993270874,10|0,0:0|0:0,0:0:0:0:
150,97,25847,6,0,B|259:87|259:87|290:67|290:67|421:59,1,252,6|0,1:2|0:0,0:0:0:0:
470,0,26147,2,0,L|480:72,1,73.4999977569581,10|0,0:0|0:0,0:0:0:0:
439,213,26297,1,2,0:0:0:0:
434,221,26372,1,2,0:0:0:0:
428,228,26447,6,0,L|422:154,1,73.4999977569581,2|0,1:2|0:0,0:0:0:0:
512,341,26597,2,0,L|505:260,1,73.4999977569581,2|0,0:0|0:0,0:0:0:0:
331,224,26747,2,0,P|251:233|116:165,1,220.499993270874,8|0,0:0|0:0,0:0:0:0:
138,103,27047,6,0,L|127:175,1,73.4999977569581,12|0,0:0|0:0,0:0:0:0:
0,237,27197,6,0,P|56:230|92:253,1,94.499997116089,2|0,0:0|0:0,0:0:0:0:
196,275,27497,6,0,P|157:273|141:267,1,31.4999990386963,0|0,1:0|0:0,0:0:0:0:
105,321,27647,6,0,L|140:92,1,220.499993270874,12|0,0:0|0:0,0:0:0:0:
109,34,27947,6,0,P|154:31|191:72,1,52.5,2|0,1:2|0:0,0:0:0:0:
206,136,28097,2,0,P|242:133|271:112,1,52.5,2|0,1:2|0:0,0:0:0:0:
318,12,28247,5,12,0:0:0:0:
452,167,28397,1,0,1:0:0:0:
478,167,28472,1,0,1:0:0:0:
501,161,28547,2,0,P|516:128|515:98,1,52.5,12|0,0:0|0:0,0:0:0:0:
378,206,28697,5,0,1:0:0:0:
398,232,28772,1,0,1:0:0:0:
428,244,28847,2,0,P|457:249|492:244,1,52.5,12|0,0:0|0:0,0:0:0:0:
446,75,28997,5,0,1:0:0:0:
412,55,29072,1,0,1:0:0:0:
375,70,29147,5,12,0:0:0:0:
314,115,29222,1,8,0:0:0:0:
242,126,29297,1,8,0:0:0:0:
173,105,29372,1,8,0:0:0:0:
119,56,29447,1,12,0:0:0:0:
165,113,39047,6,0,B|195:152|190:222|155:254|155:254|162:218|146:190,1,210,6|0,1:2|0:0,0:0:0:0:
245,144,39497,2,0,B|247:193|202:247|155:253|155:253|182:228|185:196,1,210,2|0,0:0|0:0,0:0:0:0:
291,214,39947,2,0,B|264:255|197:274|155:252|155:252|191:247|212:222,1,210,2|0,0:0|0:0,0:0:0:0:
289,299,40397,2,0,B|243:317|177:294|155:252|155:252|188:268|219:260,1,210,2|0,0:0|0:0,0:0:0:0:
290,214,40847,6,0,P|332:218|390:238,1,84,2|0,0:0|0:0,0:0:0:0:
397,143,41147,2,0,P|429:170|465:220,1,84,2|0,0:0|0:0,0:0:0:0:
398,354,41447,6,0,P|405:301|282:325,1,210,2|0,0:0|0:0,0:0:0:0:
286,296,41897,2,0,P|279:243|402:267,1,210,2|0,0:0|0:0,0:0:0:0:
397,238,42347,2,0,P|404:185|281:209,1,210,2|0,0:0|0:0,0:0:0:0:
285,180,42797,2,0,P|278:127|401:151,1,210,2|0,0:0|0:0,0:0:0:0:
477,155,43247,6,0,P|436:204|403:210,1,84,2|0,0:0|0:0,0:0:0:0:
379,273,43547,2,0,P|315:267|291:243,1,84,2|0,0:0|0:0,0:0:0:0:
206,220,43847,6,0,B|229:199|238:169|238:169|272:207|267:270|211:317,1,210,6|0,0:0|0:0,0:0:0:0:
162,247,44297,2,0,B|168:216|158:186|158:186|208:198|240:252|221:323,1,210,2|0,0:0|0:0,0:0:0:0:
141,292,44747,2,0,B|129:263|104:244|104:244|151:225|208:251|233:320,1,210,2|0,0:0|0:0,0:0:0:0:
151,344,45197,2,0,B|124:327|93:326|93:326|121:283|183:272|243:314,1,210,2|0,0:0|0:0,0:0:0:0:
281,383,45647,6,0,L|372:370,1,84,2|0,0:0|0:0,0:0:0:0:
512,324,45947,2,0,L|428:312,1,84,2|0,0:0|0:0,0:0:0:0:
334,282,46247,6,0,B|396:198|396:198|530:216,1,210,6|0,0:0|0:0,0:0:0:0:
501,212,46697,2,0,B|397:199|397:199|345:75,1,210,2|0,0:0|0:0,0:0:0:0:
356,101,47147,2,0,B|396:197|396:197|371:232,1,126,2|0,0:0|0:0,0:0:0:0:
309,194,47447,5,0,1:0:0:0:
383,215,47597,1,2,0:0:0:0:
420,281,47747,1,0,0:0:0:0:
309,194,47897,5,2,0:0:0:0:
309,194,47972,1,2,0:0:0:0:
309,194,48047,5,2,1:2:0:0:
280,207,48122,1,2,0:0:0:0:
249,211,48197,1,0,1:0:0:0:
218,206,48272,1,0,1:0:0:0:
190,192,48347,5,2,1:2:0:0:
153,155,48422,1,2,1:2:0:0:
102,156,48497,1,10,0:0:0:0:
67,192,48572,1,10,0:0:0:0:
65,265,48647,6,0,P|90:302|147:313,1,105,4|2,1:2|0:0,0:0:0:0:
241,382,48872,1,0,0:0:0:0:
227,370,48947,2,0,P|270:359|300:309,1,105,10|2,0:0|0:0,0:0:0:0:
236,187,49247,2,0,L|218:313,1,105,0|2,1:2|0:0,0:0:0:0:
315,384,49547,1,8,0:0:0:0:
409,214,49697,1,2,0:0:0:0:
462,318,49847,6,0,P|387:300|364:244,1,105,0|2,1:0|0:0,0:0:0:0:
344,163,50072,1,0,0:0:0:0:
359,153,50147,2,0,P|321:118|269:115,1,105,8|2,0:0|0:0,0:0:0:0:
146,224,50447,2,0,P|197:221|235:186,1,105,0|2,1:0|0:0,0:0:0:0:
145,9,50747,1,8,0:0:0:0:
169,149,50897,1,2,0:0:0:0:
300,13,51047,6,0,B|232:7|232:7|216:14|216:14|120:7,1,157.5,6|0,1:2|0:0,0:0:0:0:
131,37,51347,6,0,B|210:31|210:31|226:38|226:38|322:31,1,181.125003454685,10|0,0:0|0:0,0:0:0:0:
324,65,51647,6,0,B|232:59|232:59|216:66|216:66|120:59,1,204.749990627289,2|0,1:2|0:0,0:0:0:0:
110,92,51947,6,0,B|225:83|225:83|246:93|246:93|367:83,1,228.375006969452,10|0,0:0|0:0,0:0:0:0:
382,170,52247,5,6,1:2:0:0:
453,210,52347,2,0,L|441:303,1,70,2|2,0:0|0:0,0:0:0:0:
301,212,52547,5,10,0:0:0:0:
371,252,52647,2,0,L|359:345,1,70,2|2,0:0|0:0,0:0:0:0:
220,254,52847,5,2,1:2:0:0:
290,294,52947,2,0,L|278:387,1,70,2|2,0:0|0:0,0:0:0:0:
139,296,53147,5,10,0:0:0:0:
113,292,53222,1,2,0:0:0:0:
87,288,53297,1,2,0:0:0:0:
61,284,53372,1,2,0:0:0:0:
35,280,53447,6,0,P|21:211|78:164,1,105,4|2,1:2|0:0,0:0:0:0:
137,142,53672,1,0,0:0:0:0:
121,152,53747,2,0,L|229:168,1,105,8|2,0:0|0:0,0:0:0:0:
50,0,54047,2,0,P|30:47|48:95,1,105,0|2,1:0|0:0,0:0:0:0:
105,236,54347,1,8,0:0:0:0:
297,133,54497,1,2,0:0:0:0:
218,267,54647,6,0,B|205:216|205:216|229:155,1,105,0|2,1:0|0:0,0:0:0:0:
352,201,54872,1,0,0:0:0:0:
359,184,54947,2,0,B|372:235|372:235|348:296,1,105,8|2,0:0|0:0,0:0:0:0:
257,67,55247,2,0,P|314:56|356:84,1,105,0|2,1:0|0:0,0:0:0:0:
450,245,55547,1,8,0:0:0:0:
297,133,55697,1,2,0:0:0:0:
475,40,55847,6,0,L|457:166,1,105,0|2,1:0|0:0,0:0:0:0:
311,236,56147,2,0,L|297:133,1,105,8|2,0:0|0:0,0:0:0:0:
450,245,56447,6,0,L|398:252,1,52.5,6|0,1:2|0:0,0:0:0:0:
512,310,56597,2,0,L|461:317,1,52.5,2|0,0:0|0:0,0:0:0:0:
384,329,56747,5,14,1:2:0:0:
343,321,56822,1,2,0:0:0:0:
319,288,56897,2,0,P|311:258|317:210,1,52.5,2|0,0:0|0:0,0:0:0:0:
348,47,57047,5,6,1:2:0:0:
327,50,57122,1,2,0:0:0:0:
306,53,57197,1,2,0:0:0:0:
285,56,57272,1,2,0:0:0:0:
264,59,57347,1,10,0:0:0:0:
244,62,57422,1,2,0:0:0:0:
223,65,57497,1,2,0:0:0:0:
202,68,57572,1,2,0:0:0:0:
142,106,57647,5,0,1:0:0:0:
112,102,57722,1,0,1:0:0:0:
82,99,57797,1,2,1:2:0:0:
53,93,57872,1,0,1:0:0:0:
24,166,57947,5,10,0:0:0:0:
63,215,58022,1,10,0:0:0:0:
125,224,58097,1,10,0:0:0:0:
183,200,58172,1,10,0:0:0:0:
248,153,58247,6,0,B|284:140|284:140|389:155,1,105,4|2,1:2|0:0,0:0:0:0:
356,277,58472,1,0,0:0:0:0:
343,264,58547,2,0,B|307:277|307:277|202:262,1,105,8|2,0:0|0:0,0:0:0:0:
63,215,58847,2,0,P|129:184|190:208,1,105,0|2,1:0|0:0,0:0:0:0:
232,374,59147,1,8,0:0:0:0:
128,265,59297,1,2,0:0:0:0:
248,153,59447,6,0,P|303:160|371:141,1,105,0|2,1:0|0:0,0:0:0:0:
467,210,59672,1,0,0:0:0:0:
451,219,59747,2,0,L|465:115,1,105,8|2,0:0|0:0,0:0:0:0:
233,49,60047,2,0,L|247:152,1,105,0|2,1:0|0:0,0:0:0:0:
343,264,60347,1,8,0:0:0:0:
359,56,60497,1,2,0:0:0:0:
82,167,60647,6,0,B|108:155|108:155|149:169|149:169|158:181|158:181|198:194|198:194|231:179,1,157.5,6|0,1:2|0:0,0:0:0:0:
247,153,60947,6,0,B|208:140|208:140|165:155|165:155|155:167|155:167|113:181|113:181|78:165,1,181.125003454685,8|0,0:0|0:0,0:0:0:0:
63,140,61247,6,0,B|99:122|99:122|150:139|150:139|161:154|161:154|210:170|210:170|250:151,1,204.749990627289,2|0,1:2|0:0,0:0:0:0:
271,120,61547,6,0,B|226:105|226:105|171:124|171:124|158:140|158:140|104:158|104:158|59:138,1,228.375006969452,10|0,0:0|0:0,0:0:0:0:
105,71,61847,5,6,1:2:0:0:
173,23,61947,2,0,P|188:64|182:102,1,70,2|2,0:0|0:0,0:0:0:0:
135,155,62147,5,10,0:0:0:0:
217,169,62247,2,0,P|198:208|167:231,1,70,2|2,0:0|0:0,0:0:0:0:
95,229,62447,5,2,1:2:0:0:
143,296,62547,2,0,P|101:311|64:305,1,70,2|2,0:0|0:0,0:0:0:0:
230,287,62747,5,10,0:0:0:0:
259,277,62822,1,2,0:0:0:0:
290,273,62897,1,2,0:0:0:0:
319,277,62972,1,2,0:0:0:0:
349,287,63047,6,0,P|342:192|396:148,1,125.999996154785,4|2,1:2|0:0,0:0:0:0:
435,73,63272,1,0,0:0:0:0:
447,87,63347,2,0,B|395:101|395:101|336:81,1,105,8|2,0:0|0:0,0:0:0:0:
249,0,63647,2,0,P|260:50|244:99,1,105,0|2,1:0|0:0,0:0:0:0:
175,191,63947,1,8,0:0:0:0:
357,171,64097,1,2,0:0:0:0:
160,3,64247,6,0,B|124:29|124:29|145:123,1,125.999996154785,4|2,1:2|0:0,0:0:0:0:
93,226,64472,1,0,0:0:0:0:
77,217,64547,2,0,P|168:190|216:207,1,105,8|2,0:0|0:0,0:0:0:0:
339,289,64847,2,0,P|270:223|260:173,1,105,0|2,1:0|0:0,0:0:0:0:
277,27,65147,2,0,P|254:119|216:152,1,105,8|2,0:0|0:0,0:0:0:0:
84,269,65447,6,0,L|76:213,1,52.5,12|0,0:2|0:0,0:0:0:0:
42,131,65897,6,0,B|18:142|16:171|16:171|30:154|56:145,1,84,0|0,1:0|0:0,0:0:0:0:
119,155,66047,6,0,B|251:143|251:143|259:146|259:146|399:133,1,252,12|0,0:0|0:0,0:0:0:0:
434,182,66347,6,0,L|439:223,1,42,0|0,1:0|0:0,0:0:0:0:
497,125,66497,2,0,L|502:83,1,42,0|0,1:0|0:0,0:0:0:0:
338,108,66647,6,0,P|364:127|376:155,1,42,14|0,0:0|0:0,0:0:0:0:
226,240,66797,5,0,1:0:0:0:
231,200,66872,1,0,1:0:0:0:
260,172,66947,2,0,P|293:171|320:183,1,42,12|0,0:0|0:0,0:0:0:0:
411,253,67097,5,0,1:0:0:0:
439,223,67172,1,0,1:0:0:0:
434,182,67247,5,12,1:2:0:0:
475,212,67322,1,0,1:0:0:0:
493,260,67397,1,0,1:0:0:0:
481,310,67472,1,0,1:0:0:0:
443,345,67547,5,12,0:0:0:0:
377,313,67622,1,8,0:0:0:0:
305,301,67697,1,8,0:0:0:0:
233,311,67772,1,8,0:0:0:0:
166,342,67847,6,0,P|97:365|37:332,1,105,4|2,1:2|0:0,0:0:0:0:
62,240,68072,1,0,0:0:0:0:
52,256,68147,2,0,P|121:233|181:266,1,105,8|2,0:0|0:0,0:0:0:0:
279,124,68447,2,0,P|296:75|282:26,1,105,0|2,1:0|0:0,0:0:0:0:
180,24,68747,2,0,P|163:81|177:122,1,105,8|2,0:0|0:0,0:0:0:0:
371,191,69047,5,0,1:0:0:0:
436,6,69197,1,2,0:0:0:0:
417,6,69272,1,0,0:0:0:0:
399,0,69347,2,0,L|420:147,1,105,8|2,0:0|0:0,0:0:0:0:
498,275,69647,2,0,L|512:171,1,105,0|2,1:0|0:0,0:0:0:0:
267,183,69947,2,0,B|387:193,1,105,8|2,0:0|0:0,0:0:0:0:
512,82,70247,6,0,B|464:109|464:109|369:101,1,105,0|2,1:0|0:0,0:0:0:0:
309,94,70472,1,0,0:0:0:0:
296,107,70547,2,0,B|246:102|246:102|198:129,1,105,8|2,0:0|0:0,0:0:0:0:
274,283,70847,2,0,P|280:210|249:163,1,105,0|2,1:0|0:0,0:0:0:0:
120,76,71147,2,0,P|103:125|113:175,1,105,8|2,0:0|0:0,0:0:0:0:
158,301,71447,5,0,1:0:0:0:
344,178,71597,1,2,0:0:0:0:
116,245,71747,5,8,0:0:0:0:
338,250,71897,1,2,0:0:0:0:
113,175,72047,5,0,1:0:0:0:
292,306,72197,1,2,0:0:0:0:
155,117,72347,5,8,0:0:0:0:
226,326,72497,1,2,0:0:0:0:
481,245,72647,6,0,P|415:261|364:223,1,105,0|2,1:0|0:0,0:0:0:0:
285,177,72872,1,0,0:0:0:0:
274,192,72947,2,0,P|225:175|176:193,1,105,8|2,0:0|0:0,0:0:0:0:
141,359,73247,2,0,L|127:255,1,105,0|2,1:0|0:0,0:0:0:0:
0,190,73547,2,0,P|46:168|96:181,1,105,8|2,0:0|0:0,0:0:0:0:
127,255,73847,5,0,1:0:0:0:
5,48,73997,1,2,0:0:0:0:
5,67,74072,1,0,0:0:0:0:
14,83,74147,2,0,B|41:44|41:44|96:60,1,105,8|2,0:0|0:0,0:0:0:0:
258,170,74447,2,0,B|231:209|231:209|176:193,1,105,0|2,1:0|0:0,0:0:0:0:
328,16,74747,2,0,B|318:76|318:76|322:82|322:82|309:153,1,105,8|2,0:0|0:0,0:0:0:0:
143,123,75047,6,0,P|223:93|275:117,1,105,0|2,1:0|0:0,0:0:0:0:
340,216,75272,1,0,0:0:0:0:
335,199,75347,2,0,P|379:218|437:203,1,105,8|2,0:0|0:0,0:0:0:0:
428,52,75647,2,0,B|404:64|404:64|388:150,1,105,0|2,1:2|0:0,2:0:0:0:
504,300,75947,2,0,B|522:280|522:280|507:194,1,105,8|2,0:0|0:0,0:0:0:0:
292,271,76247,6,0,L|447:281,1,105,0|2,1:0|0:0,0:0:0:0:
212,333,76547,6,0,P|248:234|142:188,1,228.375006969452,8|0,0:0|0:0,0:0:0:0:
96,227,76847,6,0,P|39:276|69:180,1,204.749990627289,0|0,1:0|0:0,0:0:0:0:
83,153,77147,6,0,B|170:144|170:144|180:147|180:147|296:132,1,181.125003454685,8|0,0:0|0:0,0:0:0:0:
315,82,77447,6,0,P|297:154|322:223,1,136.499993751526,4|2,1:2|0:0,0:0:0:0:
456,278,77672,1,0,0:0:0:0:
470,266,77747,2,0,B|442:248|442:248|329:273,1,105,8|2,0:0|0:0,0:0:0:0:
243,337,78047,2,0,B|271:355|271:355|384:330,1,105,0|2,1:0|0:0,0:0:0:0:
411,198,78347,2,0,B|357:186|357:186|305:216,1,105,8|2,0:0|0:0,0:0:0:0:
89,189,78647,5,0,1:0:0:0:
235,37,78797,1,2,0:0:0:0:
236,55,78872,1,0,0:0:0:0:
233,73,78947,2,0,L|95:54,1,105,8|2,0:0|0:0,0:0:0:0:
158,231,79247,2,0,P|168:166|116:116,1,105,0|2,1:0|0:0,0:0:0:0:
19,146,79547,2,0,P|9:211|61:261,1,105,8|2,0:0|0:0,0:0:0:0:
218,277,79847,6,0,B|167:267|167:267|115:304,1,105,0|2,1:0|0:0,0:0:0:0:
311,281,80072,1,0,0:0:0:0:
308,263,80147,2,0,B|282:217|282:217|221:201,1,105,8|2,0:0|0:0,0:0:0:0:
267,359,80447,2,0,L|405:378,1,105,0|2,1:0|0:0,0:0:0:0:
512,257,80747,2,0,L|374:276,1,105,8|2,0:0|0:0,0:0:0:0:
506,344,81047,5,0,1:0:0:0:
421,176,81197,1,2,0:0:0:0:
377,384,81347,5,8,0:0:0:0:
403,197,81497,1,2,0:0:0:0:
247,341,81647,5,0,1:0:0:0:
376,204,81797,1,2,0:0:0:0:
166,233,81947,5,8,0:0:0:0:
350,193,82097,1,2,0:0:0:0:
109,291,82247,6,0,P|84:231|118:166,1,105,0|2,1:0|0:0,0:0:0:0:
227,187,82472,1,0,0:0:0:0:
216,172,82547,2,0,P|224:121|200:75,1,105,8|2,0:0|0:0,0:0:0:0:
49,128,82847,2,0,B|95:151|95:151|156:134,1,105,0|2,1:0|0:0,0:0:0:0:
258,14,83147,2,0,B|208:0|208:0|114:18,1,105,8|2,0:0|0:0,0:0:0:0:
0,0,83447,5,0,1:0:0:0:
26,232,83597,1,2,0:0:0:0:
44,236,83672,1,0,0:0:0:0:
62,232,83747,2,0,L|46:106,1,105,8|2,0:0|0:0,0:0:0:0:
258,14,84047,2,0,L|244:118,1,105,0|2,1:0|0:0,0:0:0:0:
161,233,84347,6,0,P|251:202|348:237,1,157.5,8|0,0:0|0:0,0:0:0:0:
380,187,84647,6,0,P|384:214|378:243,1,52.5,12|0,0:0|0:0,0:0:0:0:
374,314,85097,6,0,B|337:332|337:332|322:277,1,84,0|0,1:0|0:0,0:0:0:0:
310,213,85247,6,0,P|390:304|511:287,1,252,12|0,0:0|0:0,0:0:0:0:
512,207,85547,6,0,L|504:155,1,42,0|0,1:0|0:0,0:0:0:0:
440,139,85697,2,0,L|434:97,1,42,0|0,1:0|0:0,0:0:0:0:
506,22,85847,6,0,L|500:63,1,42,12|0,0:0|0:0,0:0:0:0:
373,55,85997,5,0,1:0:0:0:
348,49,86072,1,0,1:0:0:0:
324,44,86147,2,0,L|274:30,1,42,12|0,0:0|0:0,0:0:0:0:
137,134,86297,5,0,1:0:0:0:
165,128,86372,1,0,1:0:0:0:
193,120,86447,2,0,L|244:108,1,42,12|0,0:0|0:0,0:0:0:0:
389,221,86597,5,0,1:0:0:0:
349,213,86672,1,0,1:0:0:0:
310,213,86747,5,12,1:2:0:0:
308,229,86822,1,0,1:0:0:0:
307,247,86897,1,0,1:0:0:0:
307,264,86972,1,0,1:0:0:0:
304,283,87047,6,0,P|305:304|303:314,1,26.25,10|0,0:0|0:0,0:0:0:0:
275,337,87122,2,0,P|265:357|257:362,1,26.25,10|0,0:0|0:0,0:0:0:0:
222,364,87197,2,0,P|203:378|193:381,1,26.25,10|0,0:0|0:0,0:0:0:0:
162,355,87272,2,0,P|137:361|127:360,1,26.25,10|0,0:0|0:0,0:0:0:0:
124,293,87347,6,0,P|151:283|186:289,1,63,2|0,1:2|0:0,0:0:0:0:
207,296,87647,6,0,P|185:229|277:120,1,220.499993270874,6|0,1:2|0:0,0:0:0:0:
318,41,87947,2,0,P|298:130|387:215,1,220.499993270874,10|0,0:0|0:0,0:0:0:0:
480,201,88247,6,0,B|506:177|523:131|515:76|463:59|411:85|423:133,1,220.499993270874,2|0,1:2|0:0,0:0:0:0:
436,299,88547,2,0,L|519:309,1,73.4999977569581,8|0,0:0|0:0,0:0:0:0:
304,347,88697,1,2,0:0:0:0:
309,355,88772,1,2,0:0:0:0:
315,362,88847,6,0,P|337:332|330:252,1,73.4999977569581,2|0,1:2|0:0,0:0:0:0:
450,368,88997,2,0,P|450:330|399:269,1,73.4999977569581,2|0,0:0|0:0,0:0:0:0:
262,219,89147,2,0,B|363:206|363:206|383:214|383:214|520:195,1,220.499993270874,10|0,0:0|0:0,0:0:0:0:
510,121,89447,6,0,B|398:136|398:136|376:128|376:128|278:140,1,220.499993270874,2|0,1:2|0:0,0:0:0:0:
213,49,89747,2,0,P|211:100|242:134,1,73.4999977569581,8|0,0:0|0:0,0:0:0:0:
339,11,89897,1,2,0:0:0:0:
333,18,89972,1,2,0:0:0:0:
328,26,90047,6,0,P|284:-1|239:8,1,73.4999977569581,2|0,1:2|0:0,0:0:0:0:
292,138,90197,2,0,P|337:114|351:70,1,73.4999977569581,2|0,0:0|0:0,0:0:0:0:
221,118,90347,2,0,P|96:129|78:52,1,220.499993270874,10|0,0:0|0:0,0:0:0:0:
11,23,90647,6,0,B|77:59|77:59|26:262,1,220.499993270874,2|0,1:2|0:0,0:0:0:0:
164,266,90947,2,0,L|153:182,1,73.4999977569581,10|0,0:0|0:0,0:0:0:0:
28,290,91097,1,2,0:0:0:0:
21,283,91172,1,2,0:0:0:0:
15,276,91247,6,0,P|67:277|93:264,1,73.4999977569581,2|0,1:2|0:0,0:0:0:0:
311,295,91397,2,0,P|259:296|233:283,1,73.4999977569581,2|0,0:0|0:0,0:0:0:0:
154,193,91547,2,0,B|192:187|221:216|221:216|255:172|251:107|182:56,1,220.499993270874,10|0,0:0|0:0,0:0:0:0:
152,35,91847,6,0,B|206:69|257:28|257:28|310:-13|356:13,1,220.499993270874,2|0,1:2|0:0,0:0:0:0:
432,9,92147,2,0,L|414:97,1,73.4999977569581,8|0,0:0|0:0,0:0:0:0:
512,111,92297,1,2,0:0:0:0:
512,120,92372,1,2,0:0:0:0:
512,129,92447,6,0,P|475:133|442:149,1,73.4999977569581,2|0,1:2|0:0,0:0:0:0:
309,89,92597,2,0,P|341:105|367:131,1,73.4999977569581,2|0,0:0|0:0,0:0:0:0:
470,248,92747,2,0,B|397:166|397:166|295:207,1,220.499993270874,10|0,0:0|0:0,0:0:0:0:
455,321,93047,6,0,B|353:362|353:362|260:258,1,220.499993270874,2|0,1:2|0:0,0:0:0:0:
274,136,93347,2,0,P|291:187|296:216,1,73.4999977569581,8|0,0:0|0:0,0:0:0:0:
182,285,93497,1,2,0:0:0:0:
188,292,93572,1,2,0:0:0:0:
194,299,93647,6,0,P|196:262|213:230,1,73.4999977569581,2|0,1:2|0:0,0:0:0:0:
303,347,93797,2,0,P|284:315|279:279,1,73.4999977569581,2|0,0:0|0:0,0:0:0:0:
200,102,93947,2,0,B|194:63|194:63|260:30|260:30|274:137,1,220.499993270874,10|0,0:0|0:0,0:0:0:0:
432,184,94247,6,0,B|286:208|286:208|271:116,1,220.499993270874,2|0,1:2|0:0,0:0:0:0:
368,49,94547,2,0,P|368:77|346:127,1,73.4999977569581,8|0,0:0|0:0,0:0:0:0:
191,85,94697,1,2,0:0:0:0:
195,94,94772,1,2,0:0:0:0:
200,102,94847,6,0,P|177:118|123:128,1,73.4999977569581,2|0,1:2|0:0,0:0:0:0:
76,194,94997,2,0,P|48:194|-2:172,1,73.4999977569581,2|0,0:0|0:0,0:0:0:0:
120,30,95147,2,0,B|112:6|137:-22|137:-22|175:11|172:102|108:155,1,220.499993270874,10|0,0:0|0:0,0:0:0:0:
169,210,95447,6,0,P|118:280|88:182,1,220.499993270874,2|0,1:2|0:0,0:0:0:0:
42,41,95747,2,0,L|51:113,1,73.4999977569581,8|0,0:0|0:0,0:0:0:0:
216,124,95897,1,2,0:0:0:0:
218,133,95972,1,2,0:0:0:0:
221,142,96047,6,0,P|288:152|346:140,1,73.4999977569581,2|0,1:2|0:0,0:0:0:0:
410,211,96197,2,0,P|464:170|496:121,1,73.4999977569581,2|0,0:0|0:0,0:0:0:0:
344,75,96347,2,0,B|307:48|307:48|336:263,1,220.499993270874,10|0,0:0|0:0,0:0:0:0:
324,337,96647,6,0,B|353:344|376:323|375:293|375:293|379:293|379:293|375:293|375:293|367:232|265:232|225:314,1,252,0|0,1:0|0:0,0:0:0:0:
191,334,96947,6,0,B|187:367|187:367|221:345,1,63,12|0,0:0|0:0,0:0:0:0:
243,286,97247,6,0,B|210:255|210:255|164:266,1,84,0|0,1:0|0:0,0:0:0:0:
116,313,97547,2,0,P|63:328|1:284,1,126,0|0,1:0|0:0,0:0:0:0:
0,213,97847,5,8,0:1:0:0:
130,210,97997,1,0,1:0:0:0:
130,210,98072,1,0,1:0:0:0:
130,210,98147,1,8,1:1:0:0:
69,256,98297,1,8,0:1:0:0:
176,142,98447,5,8,1:2:0:0:
168,64,98597,1,8,0:1:0:0:
246,55,98747,1,0,1:0:0:0:
255,133,98897,1,8,0:1:0:0:
252,256,99047,6,0,B|208:214|208:214|419:238,1,252,4|0,1:2|0:0,0:0:0:0:
492,376,99647,1,8,0:0:0:0:
422,322,99797,1,8,1:1:0:0:
334,331,99947,2,0,P|347:271|397:235,1,126,0|0,1:0|0:0,0:0:0:0:
363,160,100247,5,8,0:1:0:0:
480,221,100397,1,8,0:1:0:0:
480,221,100472,1,8,0:1:0:0:
480,221,100547,1,8,0:1:0:0:
397,235,100697,1,0,1:0:0:0:
412,99,100847,5,8,0:0:0:0:
483,139,100997,1,8,0:1:0:0:
273,142,101147,2,0,B|228:162|183:128|183:128|137:91|86:113,1,188.999994232178,12|0,1:2|0:0,0:0:0:0:
22,130,101447,5,4,1:2:0:0:
97,110,101597,1,0,1:0:0:0:
169,136,101747,1,8,1:2:0:0:
213,198,101897,1,0,1:0:0:0:
363,182,102047,5,8,0:1:0:0:
291,208,102197,1,8,0:1:0:0:
247,269,102347,1,8,0:2:0:0:
247,346,102497,1,8,0:1:0:0:
247,346,102572,1,8,0:1:0:0:
247,346,102647,5,4,1:2:0:0:
213,198,102797,1,0,1:0:0:0:
322,274,102947,1,8,1:2:0:0:
356,126,103097,1,0,1:0:0:0:
229,272,103247,5,8,0:1:0:0:
340,200,103397,1,8,0:1:0:0:
196,121,103547,1,8,0:2:0:0:
367,45,103697,1,8,0:1:0:0:
399,254,103847,6,0,L|390:309,1,52.5,12|0,0:0|0:0,0:0:0:0:
291,368,104297,6,0,B|313:382|313:382|344:363|344:363|319:366|318:366,1,84,0|0,1:0|0:0,0:0:0:0:
288,298,104447,6,0,P|153:347|81:242,1,252,12|0,0:0|0:0,0:0:0:0:
100,204,104747,6,0,P|125:209|163:239,1,42,0|0,1:0|0:0,0:0:0:0:
51,301,104897,2,0,P|72:286|120:281,1,42,0|0,1:0|0:0,0:0:0:0:
214,182,105047,6,0,P|228:203|233:251,1,42,12|0,0:0|0:0,0:0:0:0:
313,218,105197,5,0,1:0:0:0:
316,240,105272,1,0,1:0:0:0:
310,263,105347,2,0,P|279:303|250:310,1,42,12|0,0:0|0:0,0:0:0:0:
343,362,105497,5,0,1:0:0:0:
316,381,105572,1,0,1:0:0:0:
285,382,105647,2,0,P|238:361|221:341,1,42,12|0,0:0|0:0,0:0:0:0:
194,154,105797,5,0,1:0:0:0:
224,178,105872,1,0,1:0:0:0:
233,218,105947,5,12,0:2:0:0:
165,242,106022,1,8,0:0:0:0:
100,212,106097,1,8,0:0:0:0:
76,145,106172,1,8,0:0:0:0:
93,65,106247,6,0,P|140:65|165:78,1,62.9999980773926,4|2,1:2|0:3,0:0:0:0:
222,3,106547,2,0,P|245:42|247:79,1,62.9999980773926,0|2,0:0|0:3,0:0:0:0:
339,81,106847,2,0,P|316:121|285:141,1,62.9999980773926,0|2,0:0|0:3,0:0:0:0:
329,221,107147,2,0,P|282:221|249:205,1,62.9999980773926,0|2,0:0|0:3,0:0:0:0:
132,192,107447,6,0,L|216:203,1,62.9999980773926,0|2,0:0|0:3,0:0:0:0:
7,258,107747,2,0,L|70:250,1,62.9999980773926,0|2,0:0|0:3,0:0:0:0:
125,318,108047,2,0,L|188:327,1,62.9999980773926,0|2,0:0|0:3,0:0:0:0:
0,384,108347,2,0,L|63:376,1,62.9999980773926,0|2,0:0|0:3,0:0:0:0:
281,325,108647,6,0,P|298:277|290:240,1,62.9999980773926,0|2,0:0|0:3,0:0:0:0:
206,164,108947,2,0,P|239:202|275:214,1,62.9999980773926,0|2,0:0|0:3,0:0:0:0:
385,178,109247,2,0,P|334:187|306:212,1,62.9999980773926,0|2,0:0|0:3,0:0:0:0:
366,300,109547,2,0,P|416:290|444:265,1,62.9999980773926,0|2,0:0|0:3,0:0:0:0:
459,203,109847,6,0,P|459:156|443:123,3,62.9999980773926,0|2|0|2,0:0|0:3|0:0|0:3,0:0:0:0:
346,226,110447,2,0,P|379:192|391:158,3,62.9999980773926,0|2|0|2,0:0|0:3|0:0|0:3,0:0:0:0:
359,99,111047,6,0,P|294:96|270:100,1,62.9999980773926,0|2,0:0|0:3,0:0:0:0:
279,0,111347,2,0,P|230:43|216:63,1,62.9999980773926,0|2,0:0|0:3,0:0:0:0:
346,226,111647,2,0,P|302:177|282:163,1,62.9999980773926,0|2,0:0|0:3,0:0:0:0:
359,99,111947,2,0,P|294:96|270:100,1,62.9999980773926,0|2,0:0|0:3,0:0:0:0:
129,128,112247,6,0,L|215:137,1,62.9999980773926,0|2,0:0|0:3,0:0:0:0:
4,196,112547,2,0,L|90:187,1,62.9999980773926,0|2,0:0|0:3,0:0:0:0:
139,238,112847,2,0,L|202:244,1,62.9999980773926,0|2,0:0|0:3,0:0:0:0:
18,310,113147,2,0,L|81:303,1,62.9999980773926,0|2,0:0|0:3,0:0:0:0:
260,166,113447,6,0,B|266:135|266:135|260:101,1,62.9999980773926,0|2,0:0|0:3,0:0:0:0:
258,313,113747,2,0,B|289:319|289:319|323:313,1,62.9999980773926,0|2,0:0|0:3,0:0:0:0:
289,241,114047,2,0,B|315:223|315:223|334:195,1,62.9999980773926,0|2,0:0|0:3,0:0:0:0:
184,340,114347,2,0,B|201:366|201:366|229:385,1,62.9999980773926,0|2,0:0|0:3,0:0:0:0:
198,263,114647,6,0,P|159:253|109:262,1,62.9999980773926,0|2,0:0|0:3,0:0:0:0:
85,328,114947,6,0,P|106:263|70:182,1,157.5,0|0,0:0|0:0,0:0:0:0:
56,172,115247,6,0,L|211:186,1,133.875002553463,0|0,0:0|0:0,0:0:0:0:
204,191,115547,6,0,P|259:167|241:127,1,110.249996635437
142,50,115847,6,0,L|153:123,1,62.9999980773926,4|2,0:0|0:3,0:0:0:0:
179,246,116147,2,0,L|188:183,1,62.9999980773926,0|2,0:0|0:3,0:0:0:0:
236,68,116447,2,0,L|247:141,1,62.9999980773926,0|2,0:0|0:3,0:0:0:0:
272,263,116747,2,0,L|281:200,1,62.9999980773926,0|2,0:0|0:3,0:0:0:0:
409,177,117047,6,0,B|377:168|377:168|332:172,1,62.9999980773926,0|2,0:0|0:3,0:0:0:0:
448,247,117347,2,0,B|471:223|471:223|490:182,1,62.9999980773926,0|2,0:0|0:3,0:0:0:0:
371,243,117647,2,0,B|379:275|379:275|405:312,1,62.9999980773926,0|2,0:0|0:3,0:0:0:0:
494,374,117947,2,0,B|485:341|485:341|459:304,1,62.9999980773926,0|2,0:0|0:3,0:0:0:0:
332,340,118247,6,0,P|288:349|250:332,1,62.9999980773926,0|2,0:0|0:3,0:0:0:0:
413,240,118547,2,0,P|406:284|377:314,1,62.9999980773926,0|2,0:0|0:3,0:0:0:0:
345,130,118847,2,0,P|384:151|402:188,1,62.9999980773926,0|2,0:0|0:3,0:0:0:0:
218,155,119147,2,0,P|251:125|293:120,1,62.9999980773926,0|2,0:0|0:3,0:0:0:0:
260,231,119447,6,0,L|197:240,3,62.9999980773926,0|2|0|2,0:0|0:3|0:0|0:3,0:0:0:0:
142,185,120047,2,0,L|79:194,3,62.9999980773926,0|2|0|2,0:0|0:3|0:0|0:3,0:0:0:0:
70,279,120647,6,0,P|117:289|140:285,1,62.9999980773926,0|2,0:0|0:3,0:0:0:0:
287,309,120947,2,0,P|280:278|263:251,1,62.9999980773926,0|2,0:0|0:3,0:0:0:0:
169,358,121247,2,0,P|193:336|208:309,1,62.9999980773926,0|2,0:0|0:3,0:0:0:0:
307,188,121547,2,0,P|260:177|237:181,1,62.9999980773926,0|2,0:0|0:3,0:0:0:0:
122,224,121847,6,0,L|131:286,1,62.9999980773926,0|2,0:0|0:3,0:0:0:0:
246,178,122147,2,0,L|237:116,1,62.9999980773926,0|2,0:0|0:3,0:0:0:0:
201,260,122447,2,0,L|263:251,1,62.9999980773926,0|2,0:0|0:3,0:0:0:0:
155,137,122748,2,0,L|93:146,1,62.9999980773926,0|2,0:0|0:3,0:0:0:0:
378,172,123047,6,0,L|326:164,1,52.5,12|0,0:0|0:0,0:0:0:0:
228,81,123497,6,0,B|256:50|256:50|306:138,1,84,0|0,1:0|0:0,0:0:0:0:
391,102,123647,6,0,B|277:86|277:86|259:96|259:96|110:76,1,252,12|0,0:0|0:0,0:0:0:0:
38,40,123947,6,0,P|59:36|80:35,1,42,0|0,1:0|0:0,0:0:0:0:
78,123,124097,2,0,P|57:121|37:118,1,42,0|0,1:0|0:0,0:0:0:0:
150,160,124247,6,0,P|153:180|155:201,1,42,12|0,0:0|0:0,0:0:0:0:
87,295,124397,5,0,1:0:0:0:
113,321,124472,1,0,1:0:0:0:
154,327,124547,2,0,L|211:318,1,42,12|0,0:0|0:0,0:0:0:0:
308,246,124697,5,0,1:0:0:0:
266,258,124772,1,0,1:0:0:0:
225,242,124847,6,0,B|214:191|252:164|252:164|250:161|250:161|252:164|252:164|293:136|347:167,1,157.5,0|0,1:2|0:0,0:0:0:0:
374,206,125147,6,0,B|376:227|392:251,1,31.4999990386963,8|0,0:0|0:0,0:0:0:0:
450,198,125222,2,0,B|464:215|504:217,1,31.4999990386963,8|0,0:0|0:0,0:0:0:0:
497,138,125297,2,0,B|515:137|536:121,1,31.4999990386963,8|0,0:0|0:0,0:0:0:0:
487,62,125372,2,0,B|498:47|501:19,1,31.4999990386963,8|0,0:0|0:0,0:0:0:0:
424,18,125447,6,0,P|331:61|235:30,1,168,4|2,1:2|0:0,0:0:0:0:
143,4,125672,1,0,0:0:0:0:
162,13,125747,2,0,B|180:48|180:48|153:121,1,84,8|0,0:0|0:0,0:0:0:0:
75,199,125897,2,0,B|59:157|59:157|77:122,1,84,2|0,0:0|0:0,0:0:0:0:
9,74,126047,6,0,B|44:53|84:85|84:85|123:116|171:86,1,168,0|2,1:0|0:0,0:0:0:0:
255,34,126272,1,0,0:0:0:0:
269,50,126347,2,0,P|253:112|412:96,1,252,8|0,0:0|0:0,0:0:0:0:
439,90,126647,6,0,B|463:117|463:117|306:95,1,168,0|2,1:0|0:0,0:0:0:0:
182,99,126872,1,0,0:0:0:0:
165,89,126947,2,0,B|148:130|148:130|163:181,1,84,8|0,0:0|0:0,0:0:0:0:
301,264,127097,2,0,B|318:223|318:223|302:172,1,84,2|0,0:0|0:0,0:0:0:0:
55,227,127247,5,0,1:0:0:0:
119,269,127322,1,0,0:0:0:0:
188,262,127397,1,2,0:0:0:0:
233,229,127472,1,0,0:0:0:0:
266,196,127547,1,8,0:0:0:0:
307,186,127622,1,0,0:0:0:0:
340,193,127697,1,2,0:0:0:0:
360,208,127772,1,0,0:0:0:0:
372,225,127847,6,0,P|439:197|376:151,1,168,0|2,1:0|0:0,0:0:0:0:
264,100,128072,1,0,0:0:0:0:
249,115,128147,2,0,P|250:158|288:222,1,84,8|0,0:0|0:0,0:0:0:0:
190,267,128297,2,0,P|215:301|283:332,1,84,2|0,0:0|0:0,0:0:0:0:
408,324,128447,6,0,P|363:245|291:330,1,168,0|2,1:0|0:0,0:0:0:0:
249,323,128672,1,0,0:0:0:0:
236,340,128747,2,0,B|164:333|164:333|156:338|156:338|30:327|30:327|74:301,1,252,8|0,0:0|0:0,0:0:0:0:
65,176,129047,6,0,P|102:176|168:213,1,84,0|0,1:0|0:0,0:0:0:0:
261,103,129197,2,0,P|224:103|158:140,1,84,2|0,0:0|0:0,0:0:0:0:
25,75,129347,6,0,P|62:75|128:112,1,84,8|0,0:0|0:0,0:0:0:0:
221,2,129497,2,0,P|184:2|118:39,1,84,2|0,0:0|0:0,0:0:0:0:
234,190,129647,5,0,1:0:0:0:
272,195,129722,1,0,0:0:0:0:
311,187,129797,1,2,0:0:0:0:
345,168,129872,1,0,0:0:0:0:
371,138,129947,1,8,0:0:0:0:
395,119,130022,1,0,0:0:0:0:
425,113,130097,1,2,0:0:0:0:
455,118,130172,1,0,0:0:0:0:
504,171,130247,6,0,B|491:197|482:216|482:216|509:342,1,168,0|2,1:2|0:0,0:0:0:0:
343,355,130472,1,0,0:0:0:0:
357,371,130547,2,0,P|399:380|465:336,1,84,8|0,0:0|0:0,0:0:0:0:
289,293,130697,2,0,P|247:284|181:328,1,84,2|0,0:0|0:0,0:0:0:0:
150,383,130847,6,0,B|171:356|171:356|154:206,1,168,0|2,1:0|0:0,0:0:0:0:
74,137,131072,1,0,0:0:0:0:
89,152,131147,2,0,B|70:196|70:196|174:183|174:183|182:175|182:175|297:160,1,252,8|0,0:0|0:0,0:0:0:0:
330,109,131447,6,0,B|305:152|312:201|352:223|352:223|343:205|352:170,1,168,0|2,1:0|0:0,0:0:0:0:
498,215,131672,1,0,0:0:0:0:
500,194,131747,2,0,P|464:182|414:199,1,84,8|0,0:0|0:0,0:0:0:0:
314,289,131897,2,0,P|353:300|393:288,1,84,2|0,0:0|0:0,0:0:0:0:
269,163,132047,5,0,1:0:0:0:
231,144,132122,1,0,0:0:0:0:
190,143,132197,1,2,0:0:0:0:
151,159,132272,1,0,0:0:0:0:
118,186,132347,1,8,0:0:0:0:
79,202,132422,1,0,0:0:0:0:
38,201,132497,1,2,0:0:0:0:
0,182,132572,1,0,0:0:0:0:
39,121,132647,6,0,B|17:105|-12:108|-12:108|11:55|69:48|108:75,1,168,0|2,1:0|0:0,0:0:0:0:
166,51,132872,1,0,0:0:0:0:
184,62,132947,2,0,P|196:90|179:159,1,84,8|0,0:0|0:0,0:0:0:0:
142,240,133097,2,0,P|117:274|79:291,1,84,2|0,0:0|0:0,0:0:0:0:
0,380,133247,6,0,B|85:372|85:372|93:374|93:374|212:361,1,168,0|2,1:0|0:0,0:0:0:0:
306,299,133472,1,0,0:0:0:0:
285,303,133547,2,0,B|309:268|304:228|304:228|259:209|241:153|266:103|316:93,1,252,8|0,0:0|0:0,0:0:0:0:
189,142,133847,6,0,P|289:186|358:111,1,168,0|2,1:0|0:0,0:0:0:0:
410,74,134147,6,0,B|471:25|471:25|487:185|487:185|418:154,1,315,8|0,0:0|0:0,0:0:0:0:
327,83,134447,6,0,B|197:73|197:73|178:87|178:87|6:74,1,291.374998888493,0|0,1:0|0:0,0:0:0:0:
6,0,134747,6,0,P|104:17|22:159,1,267.750005106926,8|0,0:0|0:0,0:0:0:0:
12,243,135047,6,0,B|-20:215|-20:215|168:230,1,188.999994232178,4|2,1:2|0:0,0:0:0:0:
252,324,135272,1,0,0:0:0:0:
232,319,135347,2,0,L|213:181,1,84,8|0,0:0|0:0,0:0:0:0:
182,71,135497,2,0,L|170:154,1,84,2|0,0:0|0:0,0:0:0:0:
368,167,135647,6,0,B|381:210|381:210|321:219|280:203|268:133,1,168,0|2,1:0|0:0,0:0:0:0:
182,71,135872,1,0,0:0:0:0:
167,56,135947,2,0,B|200:33|200:33|280:56|280:56|286:54|286:54|364:77|364:77|427:23,1,252,8|0,0:0|0:0,0:0:0:0:
497,22,136247,6,0,B|468:0|468:0|480:82|480:82|483:86|483:86|494:172,1,168,0|2,1:0|0:0,0:0:0:0:
504,246,136472,1,0,0:0:0:0:
502,267,136547,2,0,P|463:253|434:182,1,84,8|0,0:0|0:0,0:0:0:0:
361,274,136697,2,0,P|343:237|372:166,1,84,2|0,0:0|0:0,0:0:0:0:
395,50,136847,5,0,1:0:0:0:
331,8,136922,1,0,0:0:0:0:
262,15,136997,1,2,0:0:0:0:
217,48,137072,1,0,0:0:0:0:
184,81,137147,1,8,0:0:0:0:
143,91,137222,1,0,0:0:0:0:
110,84,137297,1,2,0:0:0:0:
90,69,137372,1,0,0:0:0:0:
78,49,137447,6,0,P|152:9|227:72,1,168,0|2,1:0|0:0,0:0:0:0:
331,8,137672,1,0,0:0:0:0:
346,23,137747,2,0,L|334:106,1,84,8|0,0:0|0:0,0:0:0:0:
226,164,137897,2,0,L|238:247,1,84,2|0,0:0|0:0,0:0:0:0:
426,253,138047,6,0,B|424:212|370:196|370:196|339:242|361:274|361:274,1,168,0|2,1:0|0:0,0:0:0:0:
296,341,138272,1,0,0:0:0:0:
284,324,138347,2,0,B|288:285|340:276|378:312|378:312|410:345|485:334|496:279,1,252,8|0,0:0|0:0,0:0:0:0:
474,162,138647,6,0,B|446:155|446:155|368:186,1,84,0|0,1:0|0:0,0:0:0:0:
254,92,138797,2,0,B|282:85|282:85|360:116,1,84,2|0,0:0|0:0,0:0:0:0:
500,73,138947,6,0,B|472:66|472:66|394:97,1,84,8|0,0:0|0:0,0:0:0:0:
273,2,139097,2,0,B|301:-5|301:-5|379:26,1,84,2|0,0:0|0:0,0:0:0:0:
308,189,139247,5,0,1:0:0:0:
270,184,139322,1,0,0:0:0:0:
231,192,139397,1,2,0:0:0:0:
197,211,139472,1,0,0:0:0:0:
171,241,139547,1,8,0:0:0:0:
147,260,139622,1,0,0:0:0:0:
117,266,139697,1,2,0:0:0:0:
87,261,139772,1,0,0:0:0:0:
28,217,139847,6,0,B|-1:191|7:147|7:147|26:34,1,168,0|2,1:2|0:0,0:0:0:0:
113,12,140072,1,0,0:0:0:0:
124,30,140147,2,0,L|207:42,1,84,8|0,0:0|0:0,0:0:0:0:
169,151,140297,2,0,L|86:163,1,84,2|0,0:0|0:0,0:0:0:0:
18,293,140447,6,0,B|10:338|10:338|181:316,1,168,0|2,1:0|0:0,0:0:0:0:
257,361,140672,1,0,0:0:0:0:
242,376,140747,2,0,P|227:280|326:129,1,252,8|0,0:0|0:0,0:0:0:0:
381,186,141047,6,0,P|304:243|227:208,1,168,0|2,1:0|0:0,0:0:0:0:
270,77,141272,1,0,0:0:0:0:
251,67,141347,2,0,P|218:93|205:133,1,84,8|0,0:0|0:0,0:0:0:0:
149,213,141497,2,0,P|151:254|175:288,1,84,2|0,0:0|0:0,0:0:0:0:
369,341,141647,6,0,B|398:310|398:310|377:159,1,168,0|2,1:0|0:0,0:0:0:0:
453,87,141872,1,0,0:0:0:0:
463,105,141947,2,0,L|380:93,1,84,8|0,0:0|0:0,0:0:0:0:
426,274,142097,2,0,L|509:262,1,84
297,148,142247,6,0,P|290:173|292:206,1,52.5,12|0,0:0|0:0,0:0:0:0:
384,213,142697,6,0,B|422:196|422:196|332:174,1,84,0|0,1:0|0:0,0:0:0:0:
211,168,142847,6,0,B|148:142|148:142|156:188|156:188|152:190|152:190|156:189|156:189|185:348,1,252,12|0,0:0|0:0,0:0:0:0:
260,290,143147,6,0,L|259:350,1,42,0|0,1:0|0:0,0:0:0:0:
344,313,143297,2,0,L|332:367,1,42,0|0,1:0|0:0,0:0:0:0:
186,356,143447,6,0,L|178:314,1,42,12|0,0:0|0:0,0:0:0:0:
96,288,143597,5,0,1:0:0:0:
112,255,143672,1,0,1:0:0:0:
142,234,143747,2,0,P|164:229|216:235,1,42,12|0,0:0|0:0,0:0:0:0:
32,148,143897,5,0,1:0:0:0:
68,128,143972,1,0,1:0:0:0:
109,127,144047,2,0,P|130:133|172:164,1,42,12|0,0:0|0:0,0:0:0:0:
215,71,144197,5,0,1:0:0:0:
245,105,144272,1,0,1:0:0:0:
257,149,144347,5,12,1:2:0:0:
302,205,144422,1,0,1:0:0:0:
372,219,144497,1,0,1:0:0:0:
436,185,144572,1,0,1:0:0:0:
465,118,144647,6,0,B|498:73|481:13|481:13|408:11|382:79|382:79|361:145|228:134|207:122|198:54|228:6|252:2|322:14|322:14|282:71|314:122|314:122|346:169|363:239|276:319|199:276|199:276|204:215|292:164|406:209|423:304|421:331|421:331|405:298|375:283,1,1344,2|0,0:2|0:0,0:0:0:0:
