osu file format v14

[General]
AudioFilename: audio.mp3
AudioLeadIn: 0
PreviewTime: 67772
Countdown: 0
SampleSet: Soft
StackLeniency: 0.4
Mode: 0
LetterboxInBreaks: 0
WidescreenStoryboard: 0

[Editor]
Bookmarks: 420,570,8970,10170,16095,19333,24133,27047,29370,48570,67770,87570,96570,103183,106170,125370,144570,149370
DistanceSpacing: 0.9
BeatDivisor: 8
GridSize: 8
TimelineZoom: 3.199999

[Metadata]
Title:Cross Over
TitleUnicode:Cross†Over
Artist:HyuN feat. LyuU
ArtistUnicode:HyuN feat. LyuU
Creator:Kaguya_Sama
Version:Extra
Source:
Tags:cross+over featured artist fa video game videogame pop kpop korean electronic digital step core pump it up prime 2 2018 piu arcaea osu! Dailycare morinaga SharPlaw mappers' guild
BeatmapID:2337439
BeatmapSetID:1063700

[Difficulty]
HPDrainRate:5.5
CircleSize:4
OverallDifficulty:8.5
ApproachRate:9.2
SliderMultiplier:1.9
SliderTickRate:1

[Events]
//Background and Video events
0,0,"BG MISSILE228.jpg",0,0
//Break Periods
2,29647,38463
//Storyboard Layer 0 (Background)
//Storyboard Layer 1 (Fail)
//Storyboard Layer 2 (Pass)
//Storyboard Layer 3 (Foreground)
//Storyboard Layer 4 (Overlay)
//Storyboard Sound Samples

[TimingPoints]
647,300,4,2,2,70,1,0
9047,-100,4,2,2,60,0,0
9084,-100,4,2,2,5,0,0
9122,-100,4,2,2,60,0,0
9159,-100,4,2,2,5,0,0
9197,-100,4,2,2,60,0,0
9234,-100,4,2,2,5,0,0
9272,-100,4,2,2,60,0,0
9309,-100,4,2,2,5,0,0
9347,-71.4285714285714,4,2,2,60,0,0
9572,-71.4285714285714,4,2,2,5,0,0
9647,-250,4,2,2,60,0,0
9872,-250,4,2,2,5,0,0
9947,-250,4,2,2,60,0,0
10247,-83.3333333333333,4,2,2,80,0,0
20147,-250,4,2,2,80,0,0
20372,-250,4,2,2,5,0,0
20447,-83.3333333333333,4,2,2,80,0,0
20596,-83.3333333333333,4,2,2,90,0,0
20747,-83.3333333333333,4,2,2,80,0,0
24647,-71.4285714285714,4,2,2,80,0,0
25097,-83.3333333333333,4,2,2,80,0,0
25847,-71.4285714285714,4,2,2,80,0,0
26147,-83.3333333333333,4,2,2,80,0,0
27047,-500,4,2,2,80,0,0
27497,-62.5,4,2,2,80,0,0
27947,-125,4,2,2,80,0,0
28847,-100,4,2,2,80,0,0
39047,-125,4,2,2,60,0,0
39347,-125,4,2,2,5,0,0
39497,-125,4,2,2,60,0,0
39797,-125,4,2,2,5,0,0
39947,-125,4,2,2,60,0,0
40247,-125,4,2,2,5,0,0
40397,-125,4,2,2,60,0,0
40772,-125,4,2,2,5,0,0
40847,-125,4,2,2,60,0,0
41747,-125,4,2,2,5,0,0
41897,-125,4,2,2,60,0,0
42197,-125,4,2,2,5,0,0
42347,-125,4,2,2,60,0,0
42647,-125,4,2,2,5,0,0
42797,-125,4,2,2,60,0,0
43097,-125,4,2,2,5,0,0
43247,-125,4,2,2,60,0,0
44147,-125,4,2,2,5,0,0
44297,-125,4,2,2,60,0,0
44597,-125,4,2,2,5,0,0
44747,-125,4,2,2,60,0,0
45047,-125,4,2,2,5,0,0
45197,-125,4,2,2,60,0,0
45572,-125,4,2,2,5,0,0
45647,-125,4,2,2,60,0,0
46547,-125,4,2,2,5,0,0
46697,-125,4,2,2,60,0,0
46997,-125,4,2,2,5,0,0
47147,-125,4,2,2,60,0,0
47297,-125,4,2,2,65,0,0
47447,-125,4,2,2,60,0,0
48647,-100,4,2,2,70,0,0
51272,-100,4,2,2,5,0,0
51347,-86.9565217391304,4,2,2,70,0,0
51572,-86.9565217391304,4,2,2,5,0,0
51647,-76.9230769230769,4,2,2,70,0,0
51872,-76.9230769230769,4,2,2,5,0,0
51947,-68.9655172413793,4,2,2,70,0,0
52172,-68.9655172413793,4,2,2,5,0,0
52247,-100,4,2,2,70,0,0
60872,-100,4,2,2,5,0,0
60947,-86.9565217391304,4,2,2,70,0,0
61172,-86.9565217391304,4,2,2,5,0,0
61247,-76.9230769230769,4,2,2,70,0,0
61472,-76.9230769230769,4,2,2,5,0,0
61547,-68.9655172413793,4,2,2,70,0,0
61772,-68.9655172413793,4,2,2,5,0,0
61847,-100,4,2,2,70,0,0
63047,-83.3333333333333,4,2,2,70,0,0
63647,-100,4,2,2,70,0,0
64247,-83.3333333333333,4,2,2,70,0,0
64847,-100,4,2,2,70,0,0
65372,-100,4,2,2,5,0,0
65447,-500,4,2,2,70,0,0
65897,-62.5,4,2,2,70,0,0
66347,-125,4,2,2,70,0,0
67847,-90.9090909090909,4,2,2,80,0,0
76547,-68.9655172413793,4,2,2,80,0,0
76772,-68.9655172413793,4,2,2,5,0,0
76847,-76.9230769230769,4,2,2,80,0,0
77072,-76.9230769230769,4,2,2,5,0,0
77147,-86.9565217391304,4,2,2,80,0,0
77372,-86.9565217391304,4,2,2,5,0,0
77447,-76.9230769230769,4,2,2,80,0,0
77747,-90.9090909090909,4,2,2,80,0,0
84571,-100,4,2,2,5,0,0
84647,-500,4,2,2,80,0,0
85022,-500,4,2,2,80,0,0
85097,-62.5,4,2,2,80,0,0
85547,-125,4,2,2,80,0,0
87047,-100,4,2,2,80,0,0
87084,-100,4,2,2,5,0,0
87122,-100,4,2,2,80,0,0
87159,-100,4,2,2,5,0,0
87197,-100,4,2,2,80,0,0
87234,-100,4,2,2,5,0,0
87272,-100,4,2,2,80,0,0
87309,-100,4,2,2,5,0,0
87347,-250,4,2,2,80,0,0
87572,-250,4,2,2,5,0,0
87647,-83.3333333333333,4,2,2,90,0,0
96647,-62.5,4,2,2,75,0,0
96872,-62.5,4,2,2,5,0,0
96947,-250,4,2,2,75,0,0
97172,-250,4,2,2,5,0,0
97247,-125,4,2,2,60,0,0
97772,-125,4,2,2,5,0,0
97847,-125,4,2,2,60,0,0
98897,-125,4,2,2,60,0,0
98972,-125,4,2,2,5,0,0
99047,-125,4,2,2,60,0,0
100172,-125,4,2,2,5,0,0
100247,-125,4,2,2,60,0,0
101147,-83.3333333333333,4,2,2,60,0,0
101372,-83.3333333333333,4,2,2,5,0,0
101447,-125,4,2,2,80,0,0
103847,-500,4,2,2,80,0,0
104297,-62.5,4,2,2,80,0,0
104747,-125,4,2,2,80,0,0
106247,-166.666666666667,4,2,2,60,0,0
123047,-500,4,2,2,85,0,0
123497,-62.5,4,2,2,85,0,0
123947,-125,4,2,2,85,0,0
124847,-100,4,2,2,85,0,0
125447,-62.5,4,2,2,100,0,1
134147,-55.5555555555556,4,2,2,100,0,1
134371,-55.5555555555556,4,2,2,5,0,1
134447,-57.1428571428571,4,2,2,100,0,1
134672,-57.1428571428571,4,2,2,5,0,1
134747,-62.5,4,2,2,100,0,1
134972,-62.5,4,2,2,5,0,1
135047,-55.5555555555556,4,2,2,100,0,1
135347,-62.5,4,2,2,100,0,1
142247,-500,4,2,2,100,0,0
142697,-62.5,4,2,2,100,0,0
143147,-125,4,2,2,100,0,0
144647,-250,4,2,99,100,0,0
145022,-250,4,2,99,5,0,0
145847,-250,4,2,99,90,0,0
146222,-250,4,2,99,5,0,0
147047,-250,4,2,99,80,0,0
147422,-250,4,2,99,5,0,0
148247,-250,4,2,99,70,0,0
148622,-250,4,2,99,5,0,0

[Colours]
Combo1 : 123,136,210
Combo2 : 150,35,199
Combo3 : 195,195,195
Combo4 : 241,151,251
Combo5 : 158,139,139

[HitObjects]
75,180,9047,6,0,L|70:222,1,23.75,10|0,0:0|0:0,0:0:0:0:
105,179,9122,2,0,L|118:219,1,23.75,10|2,0:0|0:0,0:0:0:0:
131,165,9197,2,0,L|159:195,1,23.75,10|0,0:0|0:0,0:0:0:0:
149,141,9272,2,0,L|188:156,1,23.75,10|0,0:0|0:0,0:0:0:0:
155,112,9347,6,0,B|230:103|230:103|243:96|243:96|256:100|256:100|375:86,1,199.499993911743,8|0,1:2|0:0,0:0:0:0:
411,139,9647,6,0,P|369:163|351:164,1,57,12|0,1:2|0:0,0:0:0:0:
286,172,9947,5,8,0:0:0:0:
246,198,10022,1,8,0:0:0:0:
225,239,10097,1,8,0:0:0:0:
228,286,10172,1,8,0:0:0:0:
253,325,10247,6,0,B|297:369|380:370|424:335|424:335|392:263,1,227.999993041992,6|8,1:2|0:0,0:0:0:0:
361,163,10697,1,2,0:0:0:0:
499,53,10847,2,0,L|482:194,1,113.999996520996,2|2,1:2|0:0,0:0:0:0:
361,82,11147,2,0,B|268:82|315:154|188:135,1,170.999994781494,10|0,0:0|0:0,0:0:0:0:
186,140,11447,6,0,P|109:102|113:235,1,227.999993041992,2|8,1:2|0:0,0:0:0:0:
165,336,11897,1,2,0:0:0:0:
62,227,12047,2,0,P|129:226|186:245,1,113.999996520996,2|2,1:2|0:2,0:0:0:0:
297,107,12347,2,0,B|337:84|337:84|310:255,1,170.999994781494,10|0,0:0|0:0,0:0:0:0:
314,232,12647,6,0,B|301:311|301:311|235:351|235:351|166:337,1,227.999993041992,2|8,1:2|0:0,0:0:0:0:
239,170,13097,1,2,0:0:0:0:
376,329,13247,2,0,L|396:178,1,113.999996520996,2|2,1:2|0:0,0:0:0:0:
174,239,13547,2,0,P|113:199|35:257,1,170.999994781494,10|0,0:0|0:0,0:0:0:0:
0,341,13847,6,0,B|27:393|100:378|100:378|153:306|89:251|89:251,1,227.999993041992,2|8,1:2|0:0,0:0:0:0:
281,249,14297,1,2,0:0:0:0:
281,249,14372,1,2,0:0:0:0:
281,249,14447,2,0,P|240:261|160:226,1,113.999996520996,2|2,1:2|0:2,0:0:0:0:
335,183,14747,2,0,B|378:223|378:223|351:379,1,170.999994781494,10|0,0:0|0:0,0:0:0:0:
351,364,15047,6,0,B|223:358|223:358|217:354|217:354|71:346,1,227.999993041992,2|8,1:2|0:0,0:0:0:0:
174,240,15497,1,2,0:0:0:0:
24,377,15647,2,0,P|19:326|90:266,1,113.999996520996,2|2,1:2|0:0,0:0:0:0:
216,172,15947,2,0,B|239:204|239:204|88:189,1,170.999994781494,10|0,0:0|0:0,0:0:0:0:
87,188,16247,6,0,B|22:180|22:180|15:115|76:51|151:100,1,227.999993041992,2|8,1:2|0:0,0:0:0:0:
318,40,16697,1,2,0:0:0:0:
203,91,16847,2,0,B|280:79|248:134|353:118,1,113.999996520996,2|2,1:2|0:0,0:0:0:0:
342,249,17147,2,0,P|343:188|398:72,1,170.999994781494,10|0,0:0|0:0,0:0:0:0:
399,77,17447,6,0,B|464:111|464:111|299:121,1,227.999993041992,2|8,1:2|0:0,0:0:0:0:
223,109,17897,1,2,0:0:0:0:
375,167,18047,2,0,P|329:200|274:192,1,113.999996520996,2|2,1:2|0:0,0:0:0:0:
160,38,18347,2,0,B|117:7|117:7|146:177,1,170.999994781494,10|0,0:0|0:0,0:0:0:0:
104,225,18647,6,0,B|59:257|-2:211|3:142|3:142|61:120|72:178,1,227.999993041992,2|8,1:2|0:0,0:0:0:0:
211,236,19097,1,2,0:0:0:0:
211,236,19172,1,2,0:0:0:0:
211,236,19247,2,0,L|316:223,1,56.9999982604981,14|0,0:0|0:0,0:0:0:0:
330,118,19397,2,0,L|225:105,1,56.9999982604981,2|0,0:0|0:0,0:0:0:0:
363,236,19547,2,0,L|468:223,1,56.9999982604981,10|0,1:2|0:0,0:0:0:0:
473,103,19697,2,0,L|368:90,1,56.9999982604981,2|0,1:2|0:0,0:0:0:0:
245,18,19847,5,8,0:0:0:0:
276,59,19922,1,8,0:0:0:0:
274,111,19997,1,8,0:0:0:0:
238,150,20072,1,8,0:0:0:0:
186,155,20147,6,0,L|123:145,1,57,0|0,1:0|0:0,0:0:0:0:
48,154,20447,6,0,P|21:202|35:257,1,113.999996520996,6|0,1:2|0:0,0:0:0:0:
168,53,20747,2,0,B|213:35|213:35|177:194,1,170.999994781494,10|0,0:0|0:0,0:0:0:0:
184,175,21047,6,0,B|171:239|171:239|249:229|249:229|258:232|258:232|365:213,1,227.999993041992,2|8,1:2|0:0,0:0:0:0:
506,226,21497,1,2,0:0:0:0:
333,140,21647,2,0,P|362:143|402:179,1,56.9999982604981,2|0,1:2|0:0,0:0:0:0:
446,104,21797,2,0,P|464:126|467:180,1,56.9999982604981,2|0,0:0|0:0,0:0:0:0:
512,4,21947,2,0,B|424:17|424:17|412:33|412:33|306:49,1,170.999994781494,10|0,0:0|0:0,0:0:0:0:
302,35,22247,6,0,P|251:93|126:-1,1,227.999993041992,2|8,1:2|0:0,0:0:0:0:
217,5,22697,1,2,0:0:0:0:
64,0,22847,2,8,B|42:35|42:35|65:121,1,113.999996520996,2|2,1:2|0:0,0:0:0:0:
27,259,23147,2,0,B|94:280|151:234|151:234|129:202,1,170.999994781494,10|0,0:0|0:0,0:0:0:0:
215,169,23447,6,0,B|164:136|114:171|114:171|63:207|-15:169,1,227.999993041992,2|8,1:2|0:0,0:0:0:0:
291,291,23897,1,2,0:0:0:0:
291,291,23972,1,2,0:0:0:0:
291,291,24047,2,0,B|339:293|339:293|394:196,1,113.999996520996,2|2,1:2|0:0,0:0:0:0:
255,43,24347,2,0,B|210:39|193:75|193:75|221:195,1,170.999994781494,10|0,0:0|0:0,0:0:0:0:
297,207,24647,6,0,P|246:86|132:128,1,265.999991882324,6|8,1:2|0:0,0:0:0:0:
110,279,25097,1,2,0:0:0:0:
49,215,25247,2,0,B|99:189|99:189|185:215,1,113.999996520996,2|2,1:2|0:0,0:0:0:0:
299,369,25547,2,0,B|388:351|388:351|399:342|399:342|518:322,1,170.999994781494,10|0,0:0|0:0,0:0:0:0:
505,249,25847,6,0,B|362:270|362:270|348:281|348:281|304:289|304:289|299:259|277:233|248:233,1,265.999991882324,6|10,1:2|0:0,0:0:0:0:
89,322,26297,1,2,0:0:0:0:
155,206,26447,2,0,P|162:234|141:284,1,56.9999982604981,2|0,1:2|0:0,0:0:0:0:
227,299,26597,2,0,P|212:324|162:345,1,56.9999982604981,2|0,0:0|0:0,0:0:0:0:
74,233,26747,2,0,B|62:191|77:145|119:127|119:127|55:141,1,170.999994781494,8|0,0:0|0:0,0:0:0:0:
37,69,27047,6,0,L|91:57,1,47.5,12|0,0:0|0:0,0:0:0:0:
197,32,27497,1,0,1:0:0:0:
116,161,27647,6,0,B|75:136|75:136|279:97,1,228,12|0,0:0|0:0,0:0:0:0:
320,44,27947,5,2,1:2:0:0:
320,44,28097,1,2,1:2:0:0:
332,198,28247,1,12,0:0:0:0:
252,102,28397,5,0,1:0:0:0:
256,128,28472,1,0,1:0:0:0:
260,155,28547,1,12,0:0:0:0:
395,89,28697,5,0,1:0:0:0:
393,115,28772,1,0,1:0:0:0:
392,142,28847,1,12,0:0:0:0:
407,304,28997,5,0,1:0:0:0:
412,288,29072,1,0,1:0:0:0:
440,252,29147,5,12,0:0:0:0:
383,272,29222,1,8,0:0:0:0:
324,278,29297,1,8,0:0:0:0:
265,268,29372,1,8,0:0:0:0:
210,245,29447,1,12,0:0:0:0:
68,145,39047,6,0,P|128:110|136:201,1,190,6|0,1:2|0:0,0:0:0:0:
58,236,39497,2,0,P|57:166|140:205,1,190,2|0,0:0|0:0,0:0:0:0:
131,287,39947,2,0,P|70:252|145:200,1,190,2|0,0:0|0:0,0:0:0:0:
213,250,40397,2,0,P|153:285|144:194,1,190,2|0,0:0|0:0,0:0:0:0:
373,336,40847,6,0,L|387:262,1,76,2|0,0:0|0:0,0:0:0:0:
286,331,41147,2,0,L|300:257,1,76,2|0,0:0|0:0,0:0:0:0:
440,180,41447,6,0,B|310:148|310:148|353:201,1,190,2|0,0:0|0:0,0:0:0:0:
216,136,41897,2,0,B|346:104|346:104|303:157,1,190,2|0,0:0|0:0,0:0:0:0:
441,92,42347,2,0,B|311:60|311:60|354:113,1,190,2|0,0:0|0:0,0:0:0:0:
217,48,42797,2,0,B|347:16|347:16|304:69,1,190,2|0,0:0|0:0,0:0:0:0:
216,136,43247,6,0,P|158:116|138:83,1,76,2|0,0:0|0:0,0:0:0:0:
93,170,43547,2,0,P|66:114|75:77,1,76,2|0,0:0|0:0,0:0:0:0:
300,77,43847,6,0,B|311:123|345:139|345:139|415:106|381:15,1,190,6|0,0:0|0:0,0:0:0:0:
346,139,44297,2,0,B|391:156|428:138|428:138|446:70|367:37,1,190,2|0,0:0|0:0,0:0:0:0:
428,138,44747,2,0,B|470:115|481:75|481:75|450:17|372:58,1,190,2|0,0:0|0:0,0:0:0:0:
482,76,45197,2,0,B|493:31|470:-7|470:-7|401:-7|385:71,1,190,2|0,0:0|0:0,0:0:0:0:
237,108,45647,6,0,L|243:184,1,76,2|0,0:0|0:0,0:0:0:0:
317,82,45947,2,0,L|323:158,1,76,2|0,0:0|0:0,0:0:0:0:
0,53,46247,6,0,B|49:10|125:22|125:22|109:98,1,190,6|0,0:0|0:0,0:0:0:0:
238,109,46697,2,0,B|189:66|113:78|113:78|129:154,1,190,2|0,0:0|0:0,0:0:0:0:
0,205,47147,2,0,B|31:176|103:186,1,76,2|0,0:0|0:0,0:0:0:0:
154,272,47447,5,0,1:0:0:0:
137,281,47597,2,0,L|149:199,1,76,2|0,0:0|0:0,0:0:0:0:
250,200,47897,5,2,0:0:0:0:
256,185,47972,1,2,0:0:0:0:
251,156,48047,5,2,1:2:0:0:
274,178,48122,1,2,0:0:0:0:
303,195,48197,1,0,1:0:0:0:
335,205,48272,1,0,1:0:0:0:
368,208,48347,5,2,1:2:0:0:
415,178,48422,1,2,1:2:0:0:
470,186,48497,1,10,0:0:0:0:
506,229,48572,1,10,0:0:0:0:
485,304,48647,6,0,B|392:348|400:253|298:301|298:301,1,190,4|10,1:2|0:0,0:0:0:0:
167,364,49097,1,2,0:0:0:0:
105,296,49247,2,0,L|114:182,1,95,0|2,1:2|0:0,0:0:0:0:
242,105,49547,2,0,L|249:199,1,95,8|2,0:0|0:0,0:0:0:0:
1,109,49847,6,0,P|102:160|177:147,1,190,0|8,1:0|0:0,0:0:0:0:
299,48,50297,1,2,0:0:0:0:
373,114,50447,2,0,B|368:159|368:159|371:166|371:166|367:209,1,95,0|2,1:0|0:0,0:0:0:0:
481,10,50747,2,0,P|431:10|376:39,1,95,8|2,0:0|0:0,0:0:0:0:
175,149,51047,6,0,P|246:173|298:94,1,142.5,6|0,1:2|0:0,0:0:0:0:
288,212,51347,6,0,P|210:218|175:150,1,163.875003125668,10|0,0:0|0:0,0:0:0:0:
175,150,51647,6,0,P|157:235|230:285,1,185.249991519928,2|0,1:2|0:0,0:0:0:0:
140,309,51947,6,0,P|105:217|176:149,1,206.625006305695,10|0,0:0|0:0,0:0:0:0:
190,72,52247,5,6,1:2:0:0:
190,72,52347,2,0,L|263:63,1,63.3333333333333,2|2,0:0|0:0,0:0:0:0:
293,135,52547,5,10,0:0:0:0:
293,135,52647,2,0,L|366:126,1,63.3333333333333,2|2,0:0|0:0,0:0:0:0:
396,198,52847,5,2,1:2:0:0:
396,198,52947,2,0,L|469:189,1,63.3333333333333,2|2,0:0|0:0,0:0:0:0:
500,263,53147,5,10,0:0:0:0:
498,273,53222,1,2,0:0:0:0:
496,284,53297,1,2,0:0:0:0:
495,295,53372,1,2,0:0:0:0:
492,305,53447,6,0,B|384:320|384:320|338:304|345:241,1,190,4|8,1:2|0:0,0:0:0:0:
458,190,53897,1,2,0:0:0:0:
371,91,54047,2,0,L|382:187,1,95,0|2,1:0|0:0,0:0:0:0:
433,34,54347,2,0,P|382:8|317:20,1,95,8|2,0:0|0:0,0:0:0:0:
101,60,54647,6,0,B|185:66|185:66|198:61|198:61|321:69,1,190,0|8,1:0|0:0,0:0:0:0:
454,112,55097,1,2,0:0:0:0:
381,185,55247,2,0,B|337:205|337:205|266:177,1,95,0|2,1:0|0:0,0:0:0:0:
137,160,55547,2,0,B|181:140|181:140|252:168,1,95,8|2,0:0|0:0,0:0:0:0:
298,336,55847,6,0,B|244:355|244:355|209:331|202:266|233:223,1,190,0|8,1:0|0:0,0:0:0:0:
288,110,56297,1,2,0:0:0:0:
430,146,56447,6,0,L|436:99,1,47.5,6|0,1:2|0:0,0:0:0:0:
507,185,56597,2,0,L|512:138,1,47.5,2|0,0:0|0:0,0:0:0:0:
382,35,56747,5,14,1:2:0:0:
424,14,56822,1,2,0:0:0:0:
470,17,56897,2,0,P|500:39|511:71,1,47.5,2|0,0:0|0:0,0:0:0:0:
288,110,57047,5,6,1:2:0:0:
266,119,57122,1,2,0:0:0:0:
242,122,57197,1,2,0:0:0:0:
219,118,57272,1,2,0:0:0:0:
197,109,57347,6,0,L|191:50,1,47.5,10|2,0:0|0:0,0:0:0:0:
91,21,57497,2,0,L|85:68,1,47.5,2|2,0:0|0:0,0:0:0:0:
130,184,57647,6,0,L|123:124,1,47.5,0|0,1:0|1:0,0:0:0:0:
15,117,57797,2,0,L|9:164,1,47.5,2|0,1:2|1:0,0:0:0:0:
0,280,57947,5,10,0:0:0:0:
44,263,58022,1,10,0:0:0:0:
91,256,58097,1,10,0:0:0:0:
138,258,58172,1,10,0:0:0:0:
184,269,58247,6,0,B|273:283|273:283|285:276|285:276|391:292,1,190,4|8,1:2|0:0,0:0:0:0:
512,372,58697,1,2,0:0:0:0:
460,203,58847,2,0,L|451:297,1,95,0|2,1:0|0:0,0:0:0:0:
296,372,59147,2,0,L|287:277,1,95,8|2,0:0|0:0,0:0:0:0:
502,139,59447,6,0,B|461:174|461:174|316:152,1,190,0|8,1:0|0:0,0:0:0:0:
271,26,59897,1,2,0:0:0:0:
164,120,60047,2,0,L|274:105,1,95,0|2,1:0|0:0,0:0:0:0:
447,25,60347,2,0,L|337:10,1,95,8|2,0:0|0:0,0:0:0:0:
128,52,60647,6,0,B|64:17|64:17|107:113,1,142.5,6|0,1:2|0:0,0:0:0:0:
33,135,60947,6,0,B|93:80|93:80|77:161,1,163.875003125668,8|0,0:0|0:0,0:0:0:0:
147,224,61247,6,0,B|77:161|77:161|95:254,1,185.249991519928,2|0,1:2|0:0,0:0:0:0:
16,322,61547,6,0,B|94:251|94:251|74:356,1,206.625006305695,10|0,0:0|0:0,0:0:0:0:
164,384,61847,5,6,1:2:0:0:
164,384,61947,2,0,P|193:342|198:313,1,63.3333333333333,2|2,0:0|0:0,0:0:0:0:
281,342,62147,5,10,0:0:0:0:
285,347,62247,2,0,P|275:296|258:272,1,63.3333333333333,2|2,0:0|0:0,0:0:0:0:
347,237,62447,5,2,1:2:0:0:
347,237,62547,2,0,P|304:208|275:203,1,63.3333333333333,2|2,0:0|0:0,0:0:0:0:
422,284,62747,5,10,0:0:0:0:
432,286,62822,1,2,0:0:0:0:
443,288,62897,1,2,0:0:0:0:
454,289,62972,1,2,0:0:0:0:
466,291,63047,6,0,P|486:219|382:107,1,227.999993041992,4|8,1:2|0:0,0:0:0:0:
236,145,63497,1,2,0:0:0:0:
318,35,63647,2,0,B|314:82|314:82|319:89|319:89|313:170,1,95,0|2,1:0|0:0,0:0:0:0:
152,157,63947,2,0,P|173:87|226:68,1,95,8|2,0:0|0:0,0:0:0:0:
249,223,64247,6,0,B|86:197|86:197|124:216|123:279,1,227.999993041992,4|8,1:2|0:0,0:0:0:0:
169,384,64697,1,2,0:0:0:0:
0,349,64847,2,0,P|20:294|71:245,1,95,0|2,1:0|0:0,0:0:0:0:
273,324,65147,2,0,B|213:310|213:310|207:295|207:295|110:275,1,142.5,8|0,0:0|0:0,0:0:0:0:
126,293,65447,6,0,L|119:242,1,47.5,12|0,0:2|0:0,0:0:0:0:
143,173,65897,1,0,1:0:0:0:
0,193,66047,6,0,B|147:210|57:108|243:133,1,228,12|0,0:0|0:0,0:0:0:0:
297,138,66347,6,0,P|294:161|286:178,1,38,0|0,1:0|0:0,0:0:0:0:
350,228,66497,2,0,P|334:245|318:254,1,38,0|0,1:0|0:0,0:0:0:0:
234,234,66647,5,14,0:0:0:0:
152,370,66797,1,0,1:0:0:0:
182,374,66872,1,0,1:0:0:0:
212,379,66947,1,12,0:0:0:0:
381,243,67097,5,0,1:0:0:0:
351,247,67172,1,0,1:0:0:0:
321,252,67247,1,12,1:2:0:0:
461,374,67397,5,0,1:0:0:0:
475,370,67472,1,0,1:0:0:0:
512,384,67547,5,12,0:0:0:0:
485,344,67622,1,8,0:0:0:0:
469,300,67697,1,8,0:0:0:0:
465,252,67772,1,8,0:0:0:0:
474,206,67847,6,0,B|501:169|501:169|435:104|352:167,1,209.000006378174,4|8,1:2|0:0,0:0:0:0:
232,237,68297,1,2,0:0:0:0:
258,58,68447,2,0,P|265:108|268:161,1,104.500003189087,0|2,1:0|0:0,0:0:0:0:
89,172,68747,2,0,P|92:119|101:67,1,104.500003189087,8|2,0:0|0:0,0:0:0:0:
110,249,69047,6,0,B|58:263|58:263|19:217,1,104.500003189087,0|2,1:0|0:0,0:0:0:0:
25,224,69272,1,0,0:0:0:0:
25,224,69347,1,8,0:0:0:0:
181,95,69497,1,2,0:0:0:0:
2,0,69647,2,0,L|12:103,1,104.500003189087,0|2,1:0|0:0,0:0:0:0:
172,200,69947,2,0,L|185:57,1,104.500003189087,8|2,0:0|0:0,0:0:0:0:
30,270,70247,6,0,B|105:263|105:263|150:288|150:288|253:276,1,209.000006378174,0|8,1:0|0:0,0:0:0:0:
400,330,70697,1,2,0:0:0:0:
320,383,70847,2,0,L|309:276,1,104.500003189087,0|2,1:0|0:0,0:0:0:0:
476,296,71147,2,0,L|465:185,1,104.500003189087,8|2,0:0|0:0,0:0:0:0:
272,209,71447,5,0,1:0:0:0:
405,116,71597,1,2,0:0:0:0:
388,230,71747,5,8,0:0:0:0:
295,97,71897,1,2,0:0:0:0:
255,219,72047,5,0,1:0:0:0:
420,104,72197,1,2,0:0:0:0:
399,245,72347,5,8,0:0:0:0:
284,81,72497,1,2,0:0:0:0:
145,185,72647,6,0,B|142:218|111:237|111:237|289:214,1,209.000006378174,0|8,1:0|0:0,0:0:0:0:
67,165,73097,1,2,0:0:0:0:
3,282,73247,2,0,P|0:333|12:385,1,104.500003189087,0|2,1:0|0:0,0:0:0:0:
171,362,73547,2,0,P|172:308|161:257,1,104.500003189087,8|2,0:0|0:0,0:0:0:0:
67,165,73847,6,0,B|115:111|115:111|138:105|169:126,1,104.500003189087,0|2,1:0|0:0,0:0:0:0:
146,113,74072,1,0,0:0:0:0:
146,113,74147,1,8,0:0:0:0:
324,159,74297,1,2,0:0:0:0:
512,11,74447,2,0,L|500:131,1,104.500003189087,0|2,1:0|0:0,0:0:0:0:
421,41,74747,2,0,L|410:153,1,104.500003189087,8|2,0:0|0:0,0:0:0:0:
500,256,75047,6,0,B|369:231|462:176|297:154,1,209.000006378174,0|8,1:0|0:0,0:0:0:0:
149,204,75497,1,2,0:0:0:0:
198,272,75647,2,0,B|235:240|235:240|230:160,1,104.500003189087,0|2,1:2|0:0,0:0:0:0:
99,136,75947,2,0,B|59:169|59:169|61:225,1,104.500003189087,8|2,0:0|0:0,0:0:0:0:
8,324,76247,6,0,P|65:322|136:313,1,104.500003189087,0|2,1:0|0:0,0:0:0:0:
364,312,76547,6,0,B|363:260|315:249|315:249|156:280,1,206.625006305695,8|0,0:0|0:0,0:0:0:0:
120,304,76847,6,0,B|173:328|173:328|147:160,1,185.249991519928,0|0,1:0|0:0,0:0:0:0:
186,132,77147,6,0,P|138:163|56:90,1,163.875003125668,8|0,0:0|0:0,0:0:0:0:
0,30,77447,6,0,B|105:44|105:44|125:34|125:34|258:51,1,246.999988693238,4|8,1:2|0:0,0:0:0:0:
315,158,77897,1,2,0:0:0:0:
444,73,78047,2,0,L|330:83,1,104.500003189087,0|2,1:0|0:0,0:0:0:0:
288,243,78347,2,0,L|421:230,1,104.500003189087,8|2,0:0|0:0,0:0:0:0:
222,363,78647,6,0,B|194:227,1,104.500003189087,0|2,1:0|0:0,0:0:0:0:
200,260,78872,1,0,0:0:0:0:
200,260,78947,1,8,0:0:0:0:
392,233,79097,1,2,0:0:0:0:
310,345,79247,2,0,L|282:219,1,104.500003189087,0|2,1:0|0:0,0:0:0:0:
466,275,79547,2,0,L|440:385,1,104.500003189087,8|2,0:0|0:0,0:0:0:0:
222,363,79847,6,0,B|120:315|141:414|2:349,1,209.000006378174,0|8,1:0|0:0,0:0:0:0:
152,233,80297,1,2,0:0:0:0:
81,190,80447,2,0,B|63:220|63:220|86:303,1,104.500003189087,0|2,1:0|0:0,0:0:0:0:
230,203,80747,2,0,B|248:173|248:173|225:90,1,104.500003189087,8|2,0:0|0:0,0:0:0:0:
19,140,81047,5,0,1:0:0:0:
152,233,81197,1,2,0:0:0:0:
135,119,81347,5,8,0:0:0:0:
42,252,81497,1,2,0:0:0:0:
2,130,81647,5,0,1:0:0:0:
167,245,81797,1,2,0:0:0:0:
146,104,81947,5,8,0:0:0:0:
31,268,82097,1,2,0:0:0:0:
294,339,82247,6,0,P|217:351|81:321,1,209.000006378174,0|8,1:0|0:0,0:0:0:0:
277,258,82697,1,2,0:0:0:0:
365,384,82847,2,0,P|376:322|349:277,1,104.500003189087,0|2,1:0|0:0,0:0:0:0:
198,227,83147,2,0,P|191:278|220:321,1,104.500003189087,8|2,0:0|0:0,0:0:0:0:
437,155,83447,6,0,B|384:177|292:179,1,104.500003189087,0|2,1:0|0:0,0:0:0:0:
335,176,83672,1,0,0:0:0:0:
335,176,83747,1,8,0:0:0:0:
442,74,83897,1,2,0:0:0:0:
495,213,84047,2,0,P|519:166|509:115,1,104.500003189087,0|2,1:0|0:0,0:0:0:0:
323,54,84347,2,0,P|334:143|344:231,1,156.750004783631,8|0,0:0|0:0,0:0:0:0:
373,280,84647,6,0,P|349:286|322:284,1,47.5,12|0,0:0|0:0,0:0:0:0:
301,139,85097,1,0,1:0:0:0:
342,210,85247,6,0,B|385:179|385:179|329:174|329:174|332:170|332:170|329:174|329:174|187:158,1,228,12|0,0:0|0:0,0:0:0:0:
121,224,85547,6,0,L|185:216,1,38,0|0,1:0|0:0,0:0:0:0:
23,159,85697,2,0,L|87:167,1,38,0|0,1:0|0:0,0:0:0:0:
211,84,85847,5,12,0:0:0:0:
292,52,85997,5,0,1:0:0:0:
297,84,86072,1,0,1:0:0:0:
292,116,86147,1,12,0:0:0:0:
130,120,86297,5,0,1:0:0:0:
124,86,86372,1,0,1:0:0:0:
130,53,86447,1,12,0:0:0:0:
270,215,86597,5,0,1:0:0:0:
280,233,86672,1,0,1:0:0:0:
302,250,86747,5,12,1:2:0:0:
253,257,86822,1,0,1:0:0:0:
203,255,86897,1,0,1:0:0:0:
154,243,86972,1,0,1:0:0:0:
121,224,87047,6,0,P|103:225|91:232,1,23.75,10|0,0:0|0:0,0:0:0:0:
89,216,87122,2,0,P|74:227|69:239,1,23.75,10|0,0:0|0:0,0:0:0:0:
58,227,87197,2,0,P|52:244|55:257,1,23.75,10|0,0:0|0:0,0:0:0:0:
39,254,87272,2,0,P|44:271|54:280,1,23.75,10|0,0:0|0:0,0:0:0:0:
102,328,87347,6,0,L|89:385,1,57,2|0,1:2|0:0,0:0:0:0:
90,384,87647,6,0,B|151:376|151:376|154:369|154:369|250:356,1,113.999996520996,6|0,1:2|0:0,0:0:0:0:
396,270,87947,2,0,B|426:241|426:241|289:258,1,170.999994781494,10|0,0:0|0:0,0:0:0:0:
279,259,88247,6,0,P|203:264|111:111,1,227.999993041992,2|8,1:2|0:0,0:0:0:0:
97,28,88697,1,2,0:0:0:0:
273,182,88847,2,0,P|209:188|190:107,1,113.999996520996,2|2,1:2|0:0,0:0:0:0:
52,113,89147,2,0,B|134:102|134:102|146:105|146:105|255:88,1,170.999994781494,10|0,0:0|0:0,0:0:0:0:
237,80,89447,6,0,B|293:127|365:88|333:58|420:36|482:104,1,227.999993041992,2|8,1:2|0:0,0:0:0:0:
287,18,89897,1,2,0:0:0:0:
399,147,90047,2,0,P|423:190|370:281,1,113.999996520996,2|2,1:2|0:0,0:0:0:0:
259,254,90347,2,0,B|222:224|222:224|394:198,1,170.999994781494,10|0,0:0|0:0,0:0:0:0:
410,250,90647,6,0,P|476:227|385:158,1,227.999993041992,2|10,1:2|0:0,0:0:0:0:
259,361,91097,1,2,0:0:0:0:
255,354,91172,1,2,0:0:0:0:
252,348,91247,2,0,P|322:327|395:353,1,113.999996520996,2|2,1:2|0:0,0:0:0:0:
171,357,91547,2,0,P|101:372|41:254,1,170.999994781494,10|0,0:0|0:0,0:0:0:0:
36,285,91847,6,0,B|36:239|65:207|104:189|139:201|161:226|171:265|132:307|70:297,1,227.999993041992,2|8,1:2|0:0,0:0:0:0:
13,157,92297,1,2,0:0:0:0:
135,88,92447,2,0,B|162:123|162:123|140:227,1,113.999996520996,2|2,1:2|0:0,0:0:0:0:
201,48,92747,2,0,B|245:104|245:104|215:254,1,170.999994781494,10|0,0:0|0:0,0:0:0:0:
238,220,93047,6,0,B|361:205|361:205|433:200|452:268,1,227.999993041992,2|8,1:2|0:0,0:0:0:0:
405,366,93497,1,2,0:0:0:0:
260,299,93647,2,0,L|396:284,1,113.999996520996,2|2,1:2|0:0,0:0:0:0:
507,197,93947,2,0,P|449:144|325:139,1,170.999994781494,10|0,0:0|0:0,0:0:0:0:
339,135,94247,6,0,B|310:195|310:195|289:-7,1,227.999993041992,2|8,1:2|0:0,0:0:0:0:
393,56,94697,1,2,0:0:0:0:
232,193,94847,2,0,L|219:54,1,113.999996520996,2|2,1:2|0:0,0:0:0:0:
56,146,95147,2,0,B|56:198|96:216|96:216|150:195|141:142,1,170.999994781494,10|0,0:0|0:0,0:0:0:0:
105,84,95447,6,0,B|81:66|53:68|53:68|103:49|172:49|265:101,1,227.999993041992,2|8,1:2|0:0,0:0:0:0:
393,56,95897,1,2,0:0:0:0:
401,61,95972,1,2,0:0:0:0:
409,65,96047,2,0,B|432:103|432:103|409:201,1,113.999996520996,2|2,1:2|0:0,0:0:0:0:
309,211,96347,2,0,P|397:208|497:284,1,170.999994781494,10|0,0:0|0:0,0:0:0:0:
489,334,96647,6,0,B|492:383|492:383|374:333|374:333|433:289,1,228,0|0,1:0|0:0,0:0:0:0:
468,247,96947,6,0,B|490:226|490:226|485:262,1,57,12|0,0:0|0:0,0:0:0:0:
415,303,97247,6,0,P|379:337|342:334,1,76,0|0,1:0|0:0,0:0:0:0:
297,288,97547,2,0,P|244:267|190:281,1,114,0|0,1:0|0:0,0:0:0:0:
241,353,97847,5,8,0:1:0:0:
369,238,97997,1,0,1:0:0:0:
369,238,98072,1,0,1:0:0:0:
369,238,98147,1,8,1:1:0:0:
205,184,98297,1,8,0:1:0:0:
308,296,98447,5,8,1:2:0:0:
153,360,98747,5,0,1:0:0:0:
190,281,98897,1,8,0:1:0:0:
15,308,99047,6,0,B|93:260|190:281|190:281|181:265|149:244,1,228,4|0,1:2|0:0,0:0:0:0:
91,204,99647,2,0,P|76:246|87:284,1,76,8|8,0:0|1:1,0:0:0:0:
153,360,99947,1,0,1:0:0:0:
91,204,100247,5,8,0:1:0:0:
177,131,100397,1,8,0:1:0:0:
173,122,100472,1,8,0:1:0:0:
169,114,100547,1,8,0:1:0:0:
272,191,100697,1,0,1:0:0:0:
153,360,100847,5,8,0:0:0:0:
237,333,100997,1,8,0:1:0:0:
380,345,101147,6,0,B|340:382|340:382|359:241,1,170.999994781494,12|0,1:2|0:0,0:0:0:0:
455,213,101447,5,4,1:2:0:0:
370,159,101597,1,0,1:0:0:0:
424,74,101747,1,8,1:2:0:0:
508,128,101897,1,0,1:0:0:0:
285,213,102047,5,8,0:1:0:0:
370,159,102197,1,8,0:1:0:0:
316,74,102347,1,8,0:2:0:0:
232,128,102497,1,8,0:1:0:0:
242,358,102647,5,4,1:2:0:0:
97,312,102797,1,0,1:0:0:0:
142,168,102947,1,8,1:2:0:0:
285,213,103097,1,0,1:0:0:0:
473,312,103247,5,8,0:1:0:0:
430,167,103397,1,8,0:1:0:0:
285,213,103547,1,8,0:2:0:0:
330,357,103697,1,8,0:1:0:0:
438,129,103847,6,0,B|448:150|448:150|427:169,1,47.5,12|0,0:0|0:0,0:0:0:0:
372,259,104297,1,0,1:0:0:0:
285,213,104447,6,0,B|229:218|229:218|179:209|179:209|176:211|176:211|120:196|120:196|36:201,1,228,12|0,0:0|0:0,0:0:0:0:
5,267,104747,6,0,P|53:288|68:286,1,38,0|0,1:0|0:0,0:0:0:0:
55,367,104897,2,0,P|99:339|106:326,1,38,0|0,1:0|0:0,0:0:0:0:
289,308,105047,5,12,0:0:0:0:
185,380,105197,1,0,1:0:0:0:
190,342,105272,1,0,1:0:0:0:
195,304,105347,1,12,0:0:0:0:
289,172,105497,6,0,L|282:244,2,38,0|0|12,1:0|1:0|0:0,0:0:0:0:
135,32,105797,5,0,1:0:0:0:
142,46,105872,1,0,1:0:0:0:
132,87,105947,5,12,0:2:0:0:
171,60,106022,1,8,0:0:0:0:
216,45,106097,1,8,0:0:0:0:
263,41,106172,1,8,0:0:0:0:
307,56,106247,6,0,P|364:68|450:5,2,170.999994781494,4|2|0,1:2|0:3|0:0,0:0:0:0:
275,137,107447,2,0,P|218:149|132:86,2,170.999994781494,0|2|0,0:0|0:3|0:0,0:0:0:0:
455,162,108647,6,0,B|392:146|341:194,1,113.999996520996
476,243,109097,2,0,B|432:284|369:268,1,113.999996520996,2|2,0:3|0:3,0:0:0:0:
291,245,109547,2,0,L|225:254,1,56.9999982604981,0|2,0:0|0:3,0:0:0:0:
311,322,109847,1,0,0:0:0:0:
326,41,111047,6,0,B|249:74|262:7|155:51,2,170.999994781494,0|2|0,0:0|0:3|0:0,0:0:0:0:
353,133,112247,2,0,P|351:74|444:-3,2,170.999994781494,0|2|0,0:0|0:3|0:0,0:0:0:0:
512,21,113447,6,0,P|504:103|469:132,1,113.999996520996
423,179,113897,2,0,P|419:262|454:295,1,113.999996520996,2|2,0:3|0:3,0:0:0:0:
502,364,114347,2,0,L|445:359,1,56.9999982604981,0|2,0:0|0:3,0:0:0:0:
368,375,114647,2,0,L|303:370,1,56.9999982604981,0|2,0:0|0:3,0:0:0:0:
178,298,114947,6,0,P|227:274|295:310,2,113.999996520996
114,222,115847,6,0,B|139:355|139:355|118:384,2,170.999994781494,4|2|0,0:0|0:3|0:0,0:0:0:0:
0,140,117047,2,0,B|86:189|78:108|175:164,2,170.999994781494,0|2|0,0:0|0:3|0:0,0:0:0:0:
351,162,118247,6,0,B|307:120|244:136,1,113.999996520996
330,243,118697,2,0,B|267:259|223:217,1,113.999996520996,2|2,0:3|0:3,0:0:0:0:
411,222,119147,2,0,L|467:229,1,56.9999982604981,0|2,0:0|0:3,0:0:0:0:
393,302,119447,1,0,0:0:0:0:
395,45,120347,5,0,0:0:0:0:
376,46,120647,6,0,B|251:55|251:55|304:16,2,170.999994781494,0|2|0,0:0|0:3|0:0,0:0:0:0:
401,125,121847,2,0,L|226:138,2,170.999994781494,0|2|0,0:0|0:3|0:0,0:0:0:0:
484,243,123047,6,0,L|431:237,1,47.5,12|0,0:0|0:0,0:0:0:0:
286,228,123497,1,0,1:0:0:0:
417,310,123647,6,0,B|325:299|325:299|302:312|302:312|190:299,1,228,12|0,0:0|0:0,0:0:0:0:
109,261,123947,6,0,P|103:292|103:319,1,38,0|0,1:0|0:0,0:0:0:0:
171,169,124097,2,0,P|177:200|177:227,1,38,0|0,1:0|0:0,0:0:0:0:
0,129,124247,5,12,0:0:0:0:
120,11,124397,1,0,1:0:0:0:
157,17,124472,1,0,1:0:0:0:
194,24,124547,1,12,0:0:0:0:
331,118,124697,6,0,L|265:132,1,38,0|0,1:0|1:0,0:0:0:0:
274,134,124847,6,0,B|255:163|255:163|386:135,1,142.5,0|0,1:2|0:0,0:0:0:0:
411,114,125147,5,8,0:0:0:0:
463,135,125222,1,8,0:0:0:0:
495,181,125297,1,8,0:0:0:0:
496,237,125372,1,8,0:0:0:0:
460,279,125447,6,0,B|399:315|399:315|241:277|241:277,1,228,4|0,1:2|0:0,0:0:0:0:
225,267,125747,1,8,0:0:0:0:
60,379,125897,2,0,L|35:226,1,152,2|0,0:0|1:0,0:0:0:0:
11,107,126197,1,2,0:0:0:0:
223,165,126347,2,0,P|143:184|70:157,1,152,8|0,0:0|0:0,0:0:0:0:
253,31,126647,6,0,B|221:-13|221:-13|234:72|234:72|228:90|228:90|246:225,1,228,0|0,1:0|0:0,0:0:0:0:
251,166,126947,1,8,0:0:0:0:
371,73,127097,2,0,P|443:53|474:66,1,76,2|0,0:0|0:0,0:0:0:0:
497,222,127247,5,0,1:0:0:0:
465,187,127322,1,0,0:0:0:0:
434,176,127397,1,2,0:0:0:0:
407,178,127472,1,0,0:0:0:0:
362,244,127547,6,0,B|337:223|327:196|327:196|307:246|335:282,1,152,8|2,0:0|0:0,0:0:0:0:
477,339,127847,6,0,L|201:308,1,228,0|0,1:0|0:0,0:0:0:0:
231,326,128147,1,8,0:0:0:0:
58,384,128297,2,0,P|124:359|103:271,1,152,2|0,0:0|1:0,0:0:0:0:
0,169,128597,1,2,0:0:0:0:
39,250,128747,2,0,L|232:229,1,152,8|0,0:0|0:0,0:0:0:0:
257,86,129047,6,0,B|221:62|221:62|248:228,1,152,0|2,1:0|0:0,0:0:0:0:
238,169,129272,1,0,0:0:0:0:
237,168,129347,2,0,L|335:156,1,76,8|0,0:0|0:0,0:0:0:0:
432,24,129497,6,0,B|468:0|468:0|441:166,1,152,2|0,0:0|1:0,0:0:0:0:
450,107,129722,1,0,0:0:0:0:
450,107,129797,2,0,L|352:94,1,76,2|0,0:0|0:0,0:0:0:0:
354,238,129947,6,0,P|384:215|397:156,1,76,8|0,0:0|0:0,0:0:0:0:
481,202,130097,2,0,P|485:164|453:113,1,76,2|0,0:0|0:0,0:0:0:0:
301,330,130247,6,0,P|351:278|505:300,1,228,0|0,1:2|0:0,0:0:0:0:
474,299,130547,1,8,0:0:0:0:
263,242,130697,2,0,P|346:190|428:181,1,152,2|0,0:0|1:0,0:0:0:0:
206,314,130997,1,2,0:0:0:0:
50,232,131147,2,0,B|89:221|105:184|105:184|107:232|61:317,1,152,8|0,0:0|0:0,0:0:0:0:
22,147,131447,6,0,B|-13:114|-13:114|182:141,1,228,0|0,1:0|0:0,0:0:0:0:
180,155,131747,1,8,0:0:0:0:
285,0,131897,2,0,L|271:85,1,76,2|0,0:0|0:0,0:0:0:0:
341,259,132047,5,0,1:0:0:0:
388,261,132122,1,0,0:0:0:0:
418,246,132197,1,2,0:0:0:0:
435,226,132272,1,0,0:0:0:0:
493,170,132347,6,0,P|463:152|400:158,1,76,8|0,0:0|0:0,0:0:0:0:
442,35,132497,2,0,P|472:53|535:47,1,76,2|0,0:0|0:0,0:0:0:0:
505,154,132647,6,0,B|538:109|538:109|482:66|400:57|323:111,1,228,0|0,1:0|0:0,0:0:0:0:
360,96,132947,1,8,0:0:0:0:
174,112,133097,2,0,B|204:184|204:184|315:122,1,152,2|0,0:0|1:0,0:0:0:0:
286,0,133397,1,2,0:0:0:0:
150,26,133547,2,0,L|-10:5,1,152,8|2,0:0|0:0,0:0:0:0:
268,147,133847,6,0,B|238:75|238:75|127:137,1,152,0|2,1:0|0:0,0:0:0:0:
47,173,134147,6,0,B|6:212|6:212|83:208|83:208|105:191|105:191|255:182,1,256.499992172241,8|0,0:0|0:0,0:0:0:0:
219,256,134447,6,0,P|307:156|434:227,1,249.375002378225,0|0,1:0|0:0,0:0:0:0:
490,237,134747,6,0,B|460:244|439:275|439:275|415:220|443:156|518:123,1,228,8|0,0:0|0:0,0:0:0:0:
512,322,135047,6,0,B|335:293|335:293|375:317|385:387,1,256.499992172241,4|0,1:2|0:0,0:0:0:0:
362,369,135347,1,8,0:0:0:0:
130,339,135497,2,0,B|200:350|200:350|210:346|210:346|322:360,1,152,2|0,0:0|1:0,0:0:0:0:
34,382,135797,1,2,0:0:0:0:
143,234,135947,2,0,P|140:160|120:73,1,152,8|0,0:0|0:0,0:0:0:0:
270,15,136247,6,0,B|311:9|331:51|331:51|319:94|265:110|212:96|163:27,1,228,0|0,1:0|0:0,0:0:0:0:
192,50,136547,1,8,0:0:0:0:
54,37,136697,2,0,B|32:71|32:71|45:110,1,76,2|0,0:0|0:0,0:0:0:0:
55,237,136847,5,0,1:0:0:0:
100,251,136922,1,0,0:0:0:0:
132,245,136997,1,2,0:0:0:0:
154,230,137072,1,0,0:0:0:0:
218,188,137147,6,0,B|291:207|291:207|230:251,1,152,8|2,0:0|0:0,0:0:0:0:
351,143,137447,6,0,B|397:206|356:263|356:263|316:313|359:376,1,228,0|0,1:0|0:0,0:0:0:0:
365,368,137747,1,8,0:0:0:0:
449,147,137897,2,0,P|459:235|429:304,1,152,2|0,0:0|1:0,0:0:0:0:
292,207,138197,1,2,0:0:0:0:
324,35,138347,2,0,B|299:74|299:74|367:36|431:72|439:129,1,152,8|0,0:0|0:0,0:0:0:0:
175,128,138647,5,0,1:0:0:0:
48,56,138797,1,2,0:0:0:0:
48,200,138947,5,8,0:0:0:0:
175,128,139097,1,2,0:0:0:0:
175,272,139247,5,0,1:0:0:0:
48,200,139397,1,2,0:0:0:0:
48,344,139547,5,8,0:0:0:0:
175,272,139697,1,2,0:0:0:0:
357,307,139847,6,0,P|202:364|204:224,1,304,0|8,1:2|0:0,0:0:0:0:
284,146,140297,2,0,L|258:308,1,152,2|0,0:0|1:0,0:0:0:0:
373,384,140597,1,2,0:0:0:0:
504,225,140747,2,0,B|492:257|499:295|499:295|454:278|441:192,1,152,8|0,0:0|0:0,0:0:0:0:
489,111,141047,6,0,B|455:140|455:140|316:115|316:115|272:157,1,228,0|0,1:0|0:0,0:0:0:0:
275,164,141347,1,8,0:0:0:0:
402,53,141497,2,0,B|298:34|298:34|258:61,1,152,2|0,0:0|1:0,0:0:0:0:
195,215,141797,1,2,0:0:0:0:
49,114,141947,2,0,B|153:95|153:95|193:122,1,152,8|0,0:0|0:0,0:0:0:0:
5,238,142247,6,0,L|12:186,1,47.5,12|0,0:0|0:0,0:0:0:0:
107,56,142697,1,0,1:0:0:0:
191,120,142847,6,0,B|232:90|274:99|274:99|332:166|429:131,1,228,12|0,0:0|0:0,0:0:0:0:
339,54,143147,6,0,P|364:65|398:61,1,38,0|0,1:0|0:0,0:0:0:0:
476,168,143297,2,0,P|501:158|522:131,1,38,0|0,1:0|0:0,0:0:0:0:
509,24,143447,5,12,0:0:0:0:
400,139,143597,1,0,1:0:0:0:
396,194,143672,1,0,1:0:0:0:
430,239,143747,1,12,0:0:0:0:
347,294,143897,6,0,P|380:320|409:328,2,38,0|0|12,1:0|1:0|0:0,0:0:0:0:
260,232,144197,5,0,1:0:0:0:
245,239,144272,1,0,1:0:0:0:
212,270,144347,5,12,1:2:0:0:
227,215,144422,1,0,1:0:0:0:
215,160,144497,1,0,1:0:0:0:
179,117,144572,1,0,1:0:0:0:
127,96,144647,6,0,B|83:70|14:83|14:83|51:16|122:0|164:14|191:42|191:42|236:-5|310:8|310:8|303:75|256:99|256:99|330:93|360:159|350:213|283:242|283:242|246:187|261:137|316:117|316:117|341:137|381:141|405:133|405:133|421:177|414:224|386:272|345:291,1,1216,2|0,0:2|0:0,0:0:0:0:
