osu file format v14

[General]
AudioFilename: audio.mp3
AudioLeadIn: 0
PreviewTime: 67772
Countdown: 0
SampleSet: Soft
StackLeniency: 0.7
Mode: 0
LetterboxInBreaks: 0
WidescreenStoryboard: 0

[Editor]
Bookmarks: 420,570,8970,10170,16095,19333,24133,29370,48570,67770,87570,96570,106170,125370,144570,149370
DistanceSpacing: 1.2
BeatDivisor: 8
GridSize: 8
TimelineZoom: 3.199999

[Metadata]
Title:Cross Over
TitleUnicode:Cross†Over
Artist:HyuN feat. LyuU
ArtistUnicode:HyuN feat. LyuU
Creator:Kaguya_Sama
Version:Dailycare's Hard
Source:
Tags:cross+over featured artist fa video game videogame pop kpop korean electronic digital step core pump it up prime 2 2018 piu arcaea osu! Dailycare morinaga SharPlaw mappers' guild
BeatmapID:2873978
BeatmapSetID:1063700

[Difficulty]
HPDrainRate:4.4
CircleSize:3.7
OverallDifficulty:6
ApproachRate:7.9
SliderMultiplier:1.45
SliderTickRate:1

[Events]
//Background and Video events
0,0,"BG MISSILE228.jpg",0,0
//Break Periods
2,29647,38283
2,106447,122283
//Storyboard Layer 0 (Background)
//Storyboard Layer 1 (Fail)
//Storyboard Layer 2 (Pass)
//Storyboard Layer 3 (Foreground)
//Storyboard Layer 4 (Overlay)
//Storyboard Sound Samples

[TimingPoints]
647,300,4,2,2,70,1,0
9047,-100,4,2,2,60,0,0
10247,-100,4,2,2,80,0,0
11297,-100,4,2,2,90,0,0
11447,-100,4,2,2,80,0,0
12497,-100,4,2,2,90,0,0
12647,-100,4,2,2,80,0,0
13697,-100,4,2,2,90,0,0
13847,-100,4,2,2,80,0,0
14897,-100,4,2,2,90,0,0
15047,-100,4,2,2,80,0,0
16097,-100,4,2,2,90,0,0
16247,-100,4,2,2,80,0,0
17297,-100,4,2,2,90,0,0
17447,-100,4,2,2,80,0,0
18497,-100,4,2,2,90,0,0
18647,-100,4,2,2,80,0,0
20372,-100,4,2,2,5,0,0
20447,-100,4,2,2,80,0,0
20597,-100,4,2,2,90,0,0
20747,-100,4,2,2,80,0,0
20897,-100,4,2,2,90,0,0
21047,-100,4,2,2,80,0,0
22097,-100,4,2,2,90,0,0
22247,-100,4,2,2,80,0,0
23297,-100,4,2,2,90,0,0
23447,-100,4,2,2,80,0,0
24497,-100,4,2,2,90,0,0
24647,-100,4,2,2,80,0,0
25697,-100,4,2,2,90,0,0
25847,-100,4,2,2,80,0,0
26897,-100,4,2,2,90,0,0
27047,-100,4,2,2,80,0,0
27347,-100,4,2,2,90,0,0
27497,-100,4,2,2,80,0,0
27797,-100,4,2,2,90,0,0
27947,-100,4,2,2,80,0,0
39047,-125,4,2,2,60,0,0
48047,-100,4,2,2,60,0,0
48647,-100,4,2,2,70,0,0
51797,-100,4,2,2,80,0,0
51947,-100,4,2,2,70,0,0
52097,-100,4,2,2,80,0,0
52247,-100,4,2,2,70,0,0
52397,-100,4,2,2,80,0,0
52547,-100,4,2,2,70,0,0
52997,-100,4,2,2,80,0,0
53147,-100,4,2,2,70,0,0
61397,-100,4,2,2,80,0,0
61547,-100,4,2,2,70,0,0
61697,-100,4,2,2,80,0,0
61847,-100,4,2,2,70,0,0
61997,-100,4,2,2,80,0,0
62147,-100,4,2,2,70,0,0
62597,-100,4,2,2,80,0,0
62747,-100,4,2,2,70,0,0
65747,-100,4,2,2,80,0,0
65897,-100,4,2,2,70,0,0
66197,-100,4,2,2,80,0,0
66347,-100,4,2,2,70,0,0
67847,-100,4,2,2,80,0,0
87572,-100,4,2,2,5,0,0
87647,-100,4,2,2,90,0,0
96647,-100,4,2,2,75,0,0
96872,-100,4,2,2,5,0,0
96947,-100,4,2,2,75,0,0
97247,-100,4,2,2,60,0,0
98897,-100,4,2,2,60,0,0
99047,-100,4,2,2,60,0,0
99347,-100,4,2,2,75,0,0
99647,-100,4,2,2,60,0,0
100772,-100,4,2,2,75,0,0
100847,-100,4,2,2,60,0,0
101297,-100,4,2,2,75,0,0
101447,-100,4,2,2,80,0,0
106247,-100,4,2,2,60,0,0
123047,-100,4,2,2,85,0,0
125447,-100,4,2,2,100,0,1
142247,-100,4,2,2,100,0,0
144647,-100,4,2,99,100,0,0
145022,-100,4,2,99,5,0,0
145847,-100,4,2,99,90,0,0
146222,-100,4,2,99,5,0,0
147047,-100,4,2,99,80,0,0
147422,-100,4,2,99,5,0,0
148247,-100,4,2,99,70,0,0
148622,-100,4,2,99,5,0,0

[Colours]
Combo1 : 123,136,210
Combo2 : 150,35,199
Combo3 : 195,195,195
Combo4 : 241,151,251
Combo5 : 158,139,139

[HitObjects]
453,263,9047,6,0,L|398:281,3,36.25,10|10|10|10,0:0|0:0|0:0|0:0,0:0:0:0:
405,289,9347,2,0,P|325:271|238:255,1,145,8|12,1:2|1:2,0:0:0:0:
45,174,9947,6,0,L|100:192,3,36.25,8|8|8|8,0:0|0:0|0:0|0:0,0:0:0:0:
93,200,10247,2,0,P|172:182|260:166,2,145,6|8|2,1:2|0:0|1:2,0:0:0:0:
28,257,10997,1,2,0:0:0:0:
112,280,11147,2,0,P|106:315|101:351,1,72.5,10|0,0:0|0:0,0:0:0:0:
183,376,11447,6,0,P|221:337|333:358,2,145,2|8|2,1:2|0:0|1:2,0:0:0:0:
101,351,12197,1,2,0:2:0:0:
101,351,12347,2,0,P|96:315|90:279,1,72.5,10|0,0:0|0:0,0:0:0:0:
125,197,12647,6,0,P|104:129|160:66,2,145,2|8|2,1:2|0:0|1:2,0:0:0:0:
177,265,13397,1,2,0:0:0:0:
252,225,13547,2,0,P|300:220|349:212,1,72.5,10|0,0:0|0:0,0:0:0:0:
396,266,13847,6,0,P|413:198|370:142,1,145,2|8,1:2|0:0,0:0:0:0:
412,67,14297,1,2,0:0:0:0:
412,67,14372,1,2,0:0:0:0:
412,67,14447,2,0,L|329:56,1,72.5,2|2,1:2|0:2,0:0:0:0:
250,23,14747,2,0,L|260:95,1,72.5,10|0,0:0|0:0,0:0:0:0:
293,181,15047,6,0,P|229:172|145:164,2,145,2|8|2,1:2|0:0|1:2,0:0:0:0:
370,142,15797,1,2,0:0:0:0:
365,229,15947,2,0,P|357:263|350:322,1,72.5,10|0,0:0|0:0,0:0:0:0:
420,353,16247,6,0,P|345:338|299:392,2,145,2|8|2,1:2|0:0|1:2,0:0:0:0:
504,319,16997,1,2,0:0:0:0:
504,319,17147,2,0,P|496:284|489:226,1,72.5,10|0,0:0|0:0,0:0:0:0:
437,181,17447,6,0,L|463:20,2,145,2|8|2,1:2|0:0|1:2,0:0:0:0:
360,220,18197,1,2,0:0:0:0:
311,151,18347,2,0,P|276:158|218:166,1,72.5,10|0,0:0|0:0,0:0:0:0:
160,201,18647,6,0,P|157:154|62:95,1,145,2|8,1:2|0:0,0:0:0:0:
9,131,19097,1,2,0:0:0:0:
9,131,19172,1,2,0:0:0:0:
9,131,19247,2,0,L|25:218,1,72.5,14|2,0:0|0:0,0:0:0:0:
92,258,19547,1,10,1:2:0:0:
42,335,19697,1,2,1:2:0:0:
120,372,19847,6,0,L|182:379,3,36.25,8|8|8|8,0:0|0:0|0:0|0:0,0:0:0:0:
170,384,20147,2,0,P|209:343|273:350,1,108.75,0|0,1:0|0:0,0:0:0:0:
270,351,20447,6,0,L|286:264,1,72.5,6|0,1:2|0:0,0:0:0:0:
357,233,20747,1,10,0:0:0:0:
265,85,21047,6,0,P|224:133|125:111,2,145,2|8|2,1:2|0:0|1:2,0:0:0:0:
346,61,21797,1,2,0:0:0:0:
346,61,21947,2,0,P|386:72|433:77,1,72.5,10|0,0:0|0:0,0:0:0:0:
470,147,22247,6,0,P|463:90|535:25,2,145,2|8|2,1:2|0:0|1:2,0:0:0:0:
425,221,22997,1,2,0:0:0:0:
449,306,23147,2,0,P|410:297|346:290,1,72.5,10|0,0:0|0:0,0:0:0:0:
301,330,23447,6,0,L|274:166,1,145,2|8,1:2|0:0,0:0:0:0:
199,149,23897,1,2,0:0:0:0:
199,149,23972,1,2,0:0:0:0:
199,149,24047,2,0,L|186:226,1,72.5,2|2,1:2|0:0,0:0:0:0:
108,255,24347,2,0,L|95:183,1,72.5,10|0,0:0|0:0,0:0:0:0:
124,99,24647,6,0,P|70:92|4:168,2,145,6|8|2,1:2|0:0|1:2,0:0:0:0:
203,59,25397,1,2,0:0:0:0:
277,103,25547,2,0,P|283:67|290:31,1,72.5,10|0,0:0|0:0,0:0:0:0:
371,0,25847,6,0,P|423:46|421:116,2,145,6|10|2,1:2|0:0|1:2,0:0:0:0:
290,31,26597,1,2,0:0:0:0:
290,31,26747,2,0,P|296:66|303:102,1,72.5,8|0,0:0|0:0,0:0:0:0:
351,178,27047,6,0,P|294:202|269:285,1,145,12|0,0:0|0:0,0:0:0:0:
208,354,27497,1,0,1:0:0:0:
208,354,27647,2,0,P|250:357|299:370,1,72.5,12|0,0:0|0:0,0:0:0:0:
347,308,27947,1,2,1:2:0:0:
428,335,28097,1,2,1:2:0:0:
489,274,28247,6,0,P|497:196|508:109,2,145,12|12|12,0:0|0:0|0:0,0:0:0:0:
428,335,28997,2,0,L|435:382,2,36.25,0|0|12,1:0|1:0|0:0,0:0:0:0:
347,308,29297,1,8,0:0:0:0:
279,363,29447,1,12,0:0:0:0:
279,363,39047,6,0,P|259:314|322:211,2,174,6|2|2,1:2|0:0|0:0,0:0:0:0:
354,141,40397,6,0,P|321:182|200:179,1,174,2|2,0:0|0:0,0:0:0:0:
132,228,41147,1,2,0:0:0:0:
136,140,41447,6,0,P|105:61|24:36,2,174,2|2|2,0:0|0:0|0:0,0:0:0:0:
97,376,42797,6,0,P|77:327|140:224,1,174,2|2,0:0|0:0,0:0:0:0:
208,184,43547,2,0,L|199:118,1,58,2|0,0:0|0:0,0:0:0:0:
195,83,43847,6,0,P|257:139|340:127,2,174,6|2|2,0:0|0:0|0:0,0:0:0:0:
427,115,45197,6,0,P|346:140|315:218,1,174,2|2,0:0|0:0,0:0:0:0:
252,157,45947,1,2,0:0:0:0:
166,162,46247,6,0,P|218:97|200:14,2,174,6|2|2,0:0|0:0|0:0,0:0:0:0:
215,239,47447,1,0,1:0:0:0:
215,239,47597,2,0,P|256:204|331:222,1,116,2|2,0:0|0:0,0:0:0:0:
367,220,48047,6,0,P|361:179|350:117,2,72.5,2|0|2,1:2|1:0|1:2,0:0:0:0:
459,198,48497,5,10,0:0:0:0:
459,198,48572,1,10,0:0:0:0:
459,198,48647,2,0,P|445:265|431:345,1,145,4|10,1:2|0:0,0:0:0:0:
352,371,49097,1,2,0:0:0:0:
352,371,49247,2,0,P|345:335|336:291,1,72.5,0|2,1:2|0:0,0:0:0:0:
279,236,49547,1,8,0:0:0:0:
200,272,49697,1,2,0:0:0:0:
145,208,49847,6,0,P|73:220|2:235,1,145,0|8,1:0|0:0,0:0:0:0:
14,148,50297,2,0,P|0:98|76:24,1,145,2|2,0:0|0:0,0:0:0:0:
136,3,50747,1,8,0:0:0:0:
208,138,51047,6,0,P|279:150|350:165,2,145,6|10|2,1:2|0:0|1:2,0:0:0:0:
126,154,51797,1,0,0:0:0:0:
181,219,51947,2,0,P|173:254|167:290,1,72.5,10|0,0:0|0:0,0:0:0:0:
143,380,52247,6,0,P|178:372|214:366,1,72.5,6|0,1:2|0:0,0:0:0:0:
283,314,52547,2,0,P|325:360|411:356,1,145,10|2,0:0|1:2,0:0:0:0:
486,328,52997,1,0,0:0:0:0:
486,328,53147,2,0,P|478:292|472:256,1,72.5,10|2,0:0|0:0,0:0:0:0:
504,176,53447,6,0,P|462:222|376:218,1,145,4|8,1:2|0:0,0:0:0:0:
298,232,53897,1,2,0:0:0:0:
298,232,54047,2,0,L|308:140,1,72.5,0|2,1:0|0:0,0:0:0:0:
370,102,54347,1,8,0:0:0:0:
291,63,54497,1,2,0:0:0:0:
230,125,54647,6,0,P|159:110|87:97,1,145,0|8,1:0|0:0,0:0:0:0:
15,48,55097,2,0,P|29:118|42:190,1,145,2|2,0:0|0:0,0:0:0:0:
128,182,55547,1,8,0:0:0:0:
56,340,55847,6,0,P|114:360|188:293,1,145,0|8,1:0|0:0,0:0:0:0:
264,342,56297,1,2,0:0:0:0:
319,278,56447,2,0,P|310:244|301:200,1,72.5,6|2,1:2|0:0,0:0:0:0:
226,163,56747,1,14,1:2:0:0:
392,213,57047,6,0,P|443:200|515:282,2,145,6|10|0,1:2|0:0|1:0,0:0:0:0:
302,207,57797,1,2,1:2:0:0:
350,133,57947,2,0,P|347:99|339:46,1,72.5,10|10,0:0|0:0,0:0:0:0:
266,14,58247,6,0,P|202:26|107:46,1,145,4|8,1:2|0:0,0:0:0:0:
36,35,58697,1,2,0:0:0:0:
36,35,58847,2,0,P|44:68|54:113,1,72.5,0|2,1:0|0:0,0:0:0:0:
128,150,59147,1,8,0:0:0:0:
90,229,59297,1,2,0:0:0:0:
137,304,59447,6,0,P|205:323|262:250,1,145,0|8,1:0|0:0,0:0:0:0:
332,319,59897,2,0,P|313:251|386:194,1,145,2|2,0:0|0:0,0:0:0:0:
320,120,60347,1,8,0:0:0:0:
488,166,60647,6,0,P|499:94|512:23,2,145,6|8|2,1:2|0:0|1:2,0:0:0:0:
436,237,61397,1,0,0:0:0:0:
473,318,61547,2,0,P|437:323|401:330,1,72.5,10|0,0:0|0:0,0:0:0:0:
323,373,61847,6,0,P|317:337|310:301,1,72.5,6|0,1:2|0:0,0:0:0:0:
353,224,62147,2,0,P|299:240|222:162,1,145,10|2,0:0|1:2,0:0:0:0:
151,155,62597,1,0,0:0:0:0:
151,155,62747,2,0,P|145:190|138:226,1,72.5,10|2,0:0|0:0,0:0:0:0:
63,276,63047,6,0,P|52:204|39:132,1,145,4|8,1:2|0:0,0:0:0:0:
13,46,63497,1,2,0:0:0:0:
13,46,63647,2,0,P|48:52|84:59,1,72.5,0|2,1:0|0:0,0:0:0:0:
158,106,63947,1,8,0:0:0:0:
205,31,64097,1,2,0:0:0:0:
287,62,64247,6,0,P|322:55|442:32,1,145,4|8,1:2|0:0,0:0:0:0:
506,80,64697,2,0,P|460:133|480:199,1,145,2|2,0:0|0:0,0:0:0:0:
512,288,65147,1,8,0:0:0:0:
326,323,65447,6,0,P|301:287|190:298,1,145,12|0,0:2|0:0,0:0:0:0:
127,332,65897,1,0,1:0:0:0:
127,332,66047,2,0,P|123:292|113:228,1,72.5,12|0,0:0|0:0,0:0:0:0:
50,205,66347,1,0,1:0:0:0:
118,153,66497,1,0,1:0:0:0:
94,69,66647,6,0,P|136:62|180:55,1,72.5,14|0,0:0|1:0,0:0:0:0:
185,47,66872,1,0,1:0:0:0:
202,34,66947,2,0,P|195:77|191:119,1,72.5,12|0,0:0|1:0,0:0:0:0:
118,153,67247,1,12,1:2:0:0:
174,218,67397,1,0,1:0:0:0:
270,215,67547,2,0,L|280:269,3,36.25,12|8|8|8,0:0|0:0|0:0|0:0,0:0:0:0:
259,205,67847,6,0,P|264:154|348:100,1,145,4|8,1:2|0:0,0:0:0:0:
405,35,68297,1,2,0:0:0:0:
405,35,68447,2,0,P|414:73|424:110,1,72.5,0|2,1:0|0:0,0:0:0:0:
373,178,68747,2,0,P|408:186|443:195,1,72.5,8|2,0:0|0:0,0:0:0:0:
504,263,69047,6,0,P|436:279|336:305,1,145,0|8,1:0|0:0,0:0:0:0:
260,362,69497,2,0,P|269:326|277:291,1,72.5,2|0,0:0|1:0,0:0:0:0:
222,223,69797,1,2,0:0:0:0:
222,223,69947,2,0,P|231:187|239:152,1,72.5,8|2,0:0|0:0,0:0:0:0:
244,62,70247,6,0,P|205:112|116:119,1,145,0|8,1:0|0:0,0:0:0:0:
49,172,70697,2,0,P|41:136|28:103,2,72.5,2|0|2,0:0|1:0|0:0,0:0:0:0:
135,210,71147,2,0,P|122:274|121:298,1,72.5,8|2,0:0|0:0,0:0:0:0:
147,356,71447,6,0,P|87:318|-8:334,2,145,0|8|0,1:0|0:0|1:0,0:0:0:0:
222,312,72197,1,2,0:0:0:0:
305,335,72347,2,0,P|300:296|296:238,1,72.5,8|2,0:0|0:0,0:0:0:0:
221,226,72647,6,0,P|277:220|322:120,1,145,0|8,1:0|0:0,0:0:0:0:
265,53,73097,1,2,0:0:0:0:
265,53,73247,2,0,P|300:61|336:66,1,72.5,0|2,1:0|0:0,0:0:0:0:
407,123,73547,2,0,P|412:87|420:51,1,72.5,8|2,0:0|0:0,0:0:0:0:
499,11,73847,6,0,P|508:86|524:177,1,145,0|8,1:0|0:0,0:0:0:0:
469,227,74297,2,0,P|433:218|397:213,1,72.5,2|0,0:0|1:0,0:0:0:0:
327,263,74597,1,2,0:0:0:0:
327,263,74747,2,0,P|291:254|255:249,1,72.5,8|2,0:0|0:0,0:0:0:0:
180,284,75047,6,0,P|204:233|141:152,1,145,0|8,1:0|0:0,0:0:0:0:
131,82,75497,1,2,0:0:0:0:
131,82,75647,2,0,P|74:86|36:181,1,145,0|8,1:2|0:0,0:0:0:0:
67,235,76097,1,2,0:0:0:0:
4,296,76247,2,0,P|13:347|15:374,1,72.5,0|2,1:0|0:0,0:0:0:0:
105,343,76547,6,0,P|171:328|228:391,2,145,8|0|8,0:0|1:0|0:0,0:0:0:0:
276,300,77447,6,0,P|343:303|388:231,1,145,4|8,1:2|0:0,0:0:0:0:
483,281,77897,1,2,0:0:0:0:
483,281,78047,2,0,P|477:248|472:209,1,72.5,0|2,1:0|0:0,0:0:0:0:
395,159,78347,2,0,P|359:165|323:169,1,72.5,8|2,0:0|0:0,0:0:0:0:
241,195,78647,6,0,P|251:126|261:22,1,145,0|8,1:0|0:0,0:0:0:0:
181,11,79097,2,0,P|144:7|109:0,1,72.5,2|0,0:0|1:0,0:0:0:0:
23,25,79397,1,2,0:0:0:0:
23,25,79547,2,0,P|29:60|33:96,1,72.5,8|2,0:0|0:0,0:0:0:0:
14,181,79847,6,0,P|43:125|147:133,1,145,0|8,1:0|0:0,0:0:0:0:
206,133,80297,2,0,P|202:97|196:62,2,72.5,2|0|2,0:0|1:0|0:0,0:0:0:0:
150,201,80747,2,0,P|143:236|139:272,1,72.5,8|2,0:0|0:0,0:0:0:0:
127,348,81047,6,0,P|98:288|22:266,2,145,0|8|0,1:0|0:0|1:0,0:0:0:0:
207,315,81797,1,2,0:0:0:0:
287,351,81947,2,0,P|290:314|297:279,1,72.5,8|2,0:0|0:0,0:0:0:0:
350,208,82247,6,0,P|336:139|320:47,1,145,0|8,1:0|0:0,0:0:0:0:
391,11,82697,2,0,P|444:4|499:88,1,145,2|2,0:0|0:0,0:0:0:0:
511,154,83147,1,8,0:0:0:0:
350,208,83447,6,0,P|281:194|189:178,1,145,0|8,1:0|0:0,0:0:0:0:
139,126,83897,2,0,P|86:119|31:203,1,145,2|2,0:0|0:0,0:0:0:0:
33,270,84347,1,8,0:0:0:0:
168,378,84647,6,0,P|182:270|193:204,1,145,12|0,0:0|0:0,0:0:0:0:
265,191,85097,1,0,1:0:0:0:
265,191,85247,2,0,L|251:108,1,72.5,12|0,0:0|0:0,0:0:0:0:
278,37,85547,1,0,1:0:0:0:
357,61,85697,1,0,1:0:0:0:
446,21,85847,6,0,L|433:92,1,72.5,12|0,0:0|1:0,0:0:0:0:
446,110,86072,1,0,1:0:0:0:
460,126,86147,2,0,P|429:145|369:149,1,72.5,12|0,0:0|1:0,0:0:0:0:
311,204,86447,5,12,0:0:0:0:
311,204,86522,1,0,0:0:0:0:
311,204,86597,2,0,P|280:185|220:181,1,72.5,0|12,1:0|1:2,0:0:0:0:
182,120,86897,1,0,1:0:0:0:
82,169,87047,6,0,L|67:110,3,36.25,10|10|10|10,0:0|0:0|0:0|0:0,0:0:0:0:
61,201,87347,2,0,P|102:240|95:304,1,108.75,2|0,1:2|0:0,0:0:0:0:
111,318,87647,6,0,L|182:330,1,72.5,6|0,1:2|0:0,0:0:0:0:
244,266,87947,2,0,L|231:194,1,72.5,10|0,0:0|0:0,0:0:0:0:
307,146,88247,6,0,P|250:104|182:121,2,145,2|8|2,1:2|0:0|1:2,0:0:0:0:
397,134,88997,1,2,0:0:0:0:
397,134,89147,2,0,P|390:165|382:223,1,72.5,10|0,0:0|0:0,0:0:0:0:
354,291,89447,6,0,P|431:281|497:273,2,145,2|8|2,1:2|0:0|1:2,0:0:0:0:
279,334,90197,1,2,0:0:0:0:
199,303,90347,2,0,P|192:338|186:374,1,72.5,10|0,0:0|0:0,0:0:0:0:
103,357,90647,6,0,P|96:317|7:261,1,145,2|10,1:2|0:0,0:0:0:0:
41,182,91097,1,2,0:0:0:0:
41,182,91172,1,2,0:0:0:0:
41,182,91247,2,0,P|35:146|28:110,1,72.5,2|2,1:2|0:0,0:0:0:0:
9,26,91547,2,0,P|44:32|80:38,1,72.5,10|0,0:0|0:0,0:0:0:0:
152,92,91847,6,0,P|175:45|276:35,2,145,2|8|2,1:2|0:0|1:2,0:0:0:0:
103,163,92597,1,2,0:0:0:0:
176,209,92747,2,0,P|170:252|168:315,1,72.5,10|0,0:0|0:0,0:0:0:0:
243,329,93047,6,0,P|205:365|106:340,2,145,2|8|2,1:2|0:0|1:2,0:0:0:0:
331,360,93797,1,2,0:0:0:0:
331,360,93947,2,0,P|325:316|323:254,1,72.5,10|0,0:0|0:0,0:0:0:0:
389,228,94247,6,0,P|426:264|525:239,2,145,2|8|2,1:2|0:0|1:2,0:0:0:0:
306,200,94997,1,2,0:0:0:0:
360,131,95147,2,0,P|351:85|332:41,1,72.5,10|0,0:0|0:0,0:0:0:0:
266,9,95447,6,0,P|256:71|229:169,1,145,2|8,1:2|0:0,0:0:0:0:
226,242,95897,1,2,0:0:0:0:
226,242,95972,1,2,0:0:0:0:
226,242,96047,2,0,P|180:227|130:218,1,72.5,2|2,1:2|0:0,0:0:0:0:
78,153,96347,2,0,P|124:138|174:129,1,72.5,10|0,0:0|0:0,0:0:0:0:
235,150,96647,6,0,P|290:157|375:164,1,108.75,0|0,1:0|0:0,0:0:0:0:
357,169,96947,2,0,P|350:95|419:42,2,145,12|0|0,0:0|1:0|1:0,0:0:0:0:
503,329,97847,6,0,P|482:261|417:234,1,145,8|8,0:1|1:1,0:0:0:0:
334,255,98297,1,8,0:1:0:0:
334,255,98447,2,0,P|303:275|236:267,2,72.5,8|8|0,1:2|0:1|1:0,0:0:0:0:
357,169,98897,1,8,0:1:0:0:
417,234,99047,6,0,P|425:151|437:65,2,145,4|0|8,1:2|0:0|0:0,0:0:0:0:
256,176,99947,1,0,1:0:0:0:
94,234,100247,6,0,P|88:161|78:89,1,145,8|8,0:1|0:1,0:0:0:0:
166,63,100697,1,0,1:0:0:0:
166,63,100847,2,0,P|171:100|176:140,1,72.5,8|8,0:0|0:1,0:0:0:0:
256,176,101147,2,0,P|250:213|246:253,1,72.5,12|0,1:2|0:0,0:0:0:0:
176,301,101447,6,0,P|128:292|50:364,2,145,4|8|8,1:2|1:2|0:1,0:0:0:0:
256,334,102197,1,8,0:1:0:0:
326,282,102347,1,8,0:2:0:0:
326,282,102497,1,8,0:1:0:0:
314,192,102647,6,0,P|384:188|430:241,2,145,4|8|8,1:2|1:2|0:1,0:0:0:0:
234,155,103397,1,8,0:1:0:0:
168,211,103547,1,8,0:2:0:0:
168,211,103697,1,8,0:1:0:0:
84,194,103847,6,0,P|38:160|47:69,1,145,12|0,0:0|0:0,0:0:0:0:
97,12,104297,1,0,1:0:0:0:
97,12,104447,2,0,P|133:19|190:26,1,72.5,12|0,0:0|0:0,0:0:0:0:
233,85,104747,1,0,1:0:0:0:
233,85,104897,1,0,1:0:0:0:
315,56,105047,6,0,P|394:39|462:29,2,145,12|12|12,0:0|0:0|0:0,0:0:0:0:
227,71,105797,1,0,1:0:0:0:
230,78,105872,1,0,1:0:0:0:
233,85,105947,2,0,L|224:138,3,36.25,12|8|8|8,0:2|0:0|0:0|0:0,0:0:0:0:
247,146,106247,1,4,1:2:0:0:
238,133,123047,5,12,0:0:0:0:
149,300,123647,5,12,0:0:0:0:
310,384,123947,5,0,1:0:0:0:
366,322,124097,1,0,1:0:0:0:
449,336,124247,2,0,P|452:303|434:235,1,72.5,12|0,0:0|1:0,0:0:0:0:
436,241,124472,1,0,1:0:0:0:
423,219,124547,2,0,L|342:238,1,72.5,12|0,0:0|1:0,0:0:0:0:
270,316,124847,6,0,P|277:256|235:219,1,108.75,0|0,1:2|0:0,0:0:0:0:
233,193,125147,6,0,L|183:184,3,36.25,8|8|8|8,0:0|0:0|0:0|0:0,0:0:0:0:
259,178,125447,6,0,P|312:124|282:41,1,145,4|8,1:2|0:0,0:0:0:0:
233,8,125897,2,0,P|198:17|147:27,1,72.5,2|0,0:0|1:0,0:0:0:0:
102,88,126197,1,2,0:0:0:0:
15,78,126347,2,0,P|24:112|31:148,1,72.5,8|0,0:0|0:0,0:0:0:0:
114,175,126647,6,0,P|106:210|97:245,1,72.5,0|2,1:0|0:0,0:0:0:0:
59,325,126947,1,8,0:0:0:0:
13,250,127097,2,0,B|95:259|53:302|140:309,1,145,2|2,0:0|0:0,0:0:0:0:
202,369,127547,2,0,P|240:360|285:357,1,72.5,8|2,0:0|0:0,0:0:0:0:
364,380,127847,6,0,P|380:323|328:255,1,145,0|8,1:0|0:0,0:0:0:0:
354,171,128297,2,0,P|320:176|282:183,1,72.5,2|0,0:0|1:0,0:0:0:0:
196,208,128597,1,2,0:0:0:0:
196,208,128747,2,0,L|211:121,1,72.5,8|0,0:0|0:0,0:0:0:0:
281,67,129047,6,0,P|218:56|120:41,2,145,0|8|0,1:0|0:0|1:0,0:0:0:0:
345,127,129797,1,2,0:0:0:0:
432,114,129947,2,0,P|427:153|423:211,1,72.5,8|2,0:0|0:0,0:0:0:0:
420,316,130247,6,0,P|390:262|299:260,1,145,0|8,1:2|0:0,0:0:0:0:
237,286,130697,2,0,P|203:281|164:278,1,72.5,2|0,0:0|1:0,0:0:0:0:
131,200,130997,1,2,0:0:0:0:
46,208,131147,2,0,P|43:171|39:135,1,72.5,8|0,0:0|0:0,0:0:0:0:
71,55,131447,6,0,P|105:64|140:74,1,72.5,0|2,1:0|0:0,2:0:0:0:
200,144,131747,1,8,0:0:0:0:
272,97,131897,2,0,P|341:87|430:70,1,145,2|2,0:0|0:0,0:0:0:0:
438,161,132347,1,8,0:0:0:0:
410,249,132497,5,2,0:0:0:0:
410,249,132572,1,0,0:0:0:0:
410,249,132647,2,0,P|350:201|360:119,1,145,0|8,1:0|0:0,0:0:0:0:
276,228,133097,1,2,0:0:0:0:
276,228,133247,2,0,P|252:300|172:319,1,145,0|8,1:0|0:0,0:0:0:0:
117,370,133697,1,2,0:0:0:0:
117,370,133847,2,0,P|108:314|97:267,1,72.5,0|2,1:0|0:0,0:0:0:0:
27,244,134147,6,0,P|93:259|157:187,2,145,8|0|8,0:0|1:0|0:0,0:0:0:0:
77,171,134897,1,0,0:0:0:0:
1,127,135047,6,0,P|55:82|123:97,1,145,4|8,1:2|0:0,0:0:0:0:
203,141,135497,2,0,P|208:100|217:56,1,72.5,2|0,0:0|1:0,0:0:0:0:
281,9,135797,1,2,0:0:0:0:
354,59,135947,2,0,P|389:52|425:48,1,72.5,8|0,0:0|0:0,0:0:0:0:
512,18,136247,6,0,P|505:53|501:89,1,72.5,0|2,1:0|0:0,0:0:0:0:
453,163,136547,1,8,0:0:0:0:
366,133,136697,2,0,P|380:206|393:287,1,145,2|2,0:0|0:0,0:0:0:0:
429,370,137147,2,0,P|393:363|357:359,1,72.5,8|2,0:0|0:0,0:0:0:0:
294,296,137447,6,0,P|254:336|155:312,1,145,0|8,1:0|0:0,0:0:0:0:
92,367,137897,2,0,P|87:331|81:295,1,72.5,2|0,0:0|1:0,0:0:0:0:
44,206,138197,1,2,0:0:0:0:
44,206,138347,2,0,P|79:212|115:216,1,72.5,8|0,0:0|0:0,0:0:0:0:
195,247,138647,6,0,P|207:168|221:90,2,145,0|8|0,1:0|0:0|1:0,0:0:0:0:
208,336,139397,1,2,0:0:0:0:
126,304,139547,2,0,P|90:308|54:314,1,72.5,8|2,0:0|0:0,0:0:0:0:
1,242,139847,6,0,P|49:219|59:112,1,145,0|8,1:2|0:0,0:0:0:0:
51,45,140297,2,0,P|86:51|122:55,2,72.5,2|0|2,0:0|1:0|0:0,0:0:0:0:
211,30,140747,2,0,P|204:65|200:101,1,72.5,8|0,0:0|0:0,0:0:0:0:
153,168,141047,6,0,B|235:147|203:223|312:191,1,145,0|8,1:0|0:0,0:0:0:0:
365,149,141497,2,0,P|369:185|376:221,2,72.5,2|0|2,0:0|1:0|0:0,0:0:0:0:
311,283,141947,2,0,P|275:287|239:293,1,72.5,8|0,0:0|0:0,0:0:0:0:
172,350,142247,6,0,P|259:360|342:372,1,145,12|0,0:0|0:0,0:0:0:0:
400,339,142697,1,0,1:0:0:0:
400,339,142847,2,0,P|404:303|410:267,1,72.5,12|0,0:0|0:0,0:0:0:0:
367,193,143147,1,0,1:0:0:0:
436,140,143297,1,0,1:0:0:0:
424,53,143447,6,0,P|373:45|322:27,1,72.5,12|0,0:0|1:0,0:0:0:0:
333,32,143672,1,0,1:0:0:0:
313,26,143747,2,0,P|319:63|330:113,1,72.5,12|0,0:0|1:0,0:0:0:0:
367,193,144047,1,12,0:0:0:0:
269,183,144197,5,0,1:0:0:0:
262,188,144272,1,0,1:0:0:0:
256,192,144347,2,0,L|210:186,3,36.25,12|0|0|0,1:2|1:0|1:0|1:0,0:0:0:0:
197,165,144647,1,2,0:2:0:0:
256,192,144722,12,0,149447,0:0:0:0:
