osu file format v14

[General]
AudioFilename: audio.mp3
AudioLeadIn: 0
PreviewTime: 67731
Countdown: 0
SampleSet: Soft
StackLeniency: 0.7
Mode: 3
LetterboxInBreaks: 0
SpecialStyle: 0
WidescreenStoryboard: 1

[Editor]
DistanceSpacing: 1.1
BeatDivisor: 8
GridSize: 32
TimelineZoom: 2.3

[Metadata]
Title:Cross Over
TitleUnicode:Cross†Over
Artist:HyuN feat. LyuU
ArtistUnicode:HyuN feat. LyuU
Creator:Arzenvald
Version:7K White Another
Source:PUMP IT UP 2018 PRIME 2
Tags:mappers' guild featured artist digital step core
BeatmapID:2348569
BeatmapSetID:905208

[Difficulty]
HPDrainRate:8
CircleSize:7
OverallDifficulty:8
ApproachRate:5
SliderMultiplier:1.4
SliderTickRate:1

[Events]
//Background and Video events
0,0,"BG.jpg",0,0
//Break Periods
//Storyboard Layer 0 (Background)
//Storyboard Layer 1 (Fail)
//Storyboard Layer 2 (Pass)
//Storyboard Layer 3 (Foreground)
//Storyboard Layer 4 (Overlay)
//Storyboard Sound Samples

[TimingPoints]
581,300,4,2,1,85,1,0
67781,-100,4,2,1,85,0,1
86981,-100,4,2,1,85,0,0
125381,-100,4,2,1,85,0,1
144618,-100,4,2,1,85,0,0

[HitObjects]
182,192,581,5,0,0:0:0:0:
109,192,731,1,0,0:0:0:0:
329,192,881,1,0,0:0:0:0:
402,192,1031,1,0,0:0:0:0:
256,192,1181,1,0,0:0:0:0:
36,192,1331,1,0,0:0:0:0:
182,192,1406,1,0,0:0:0:0:
329,192,1481,1,0,0:0:0:0:
475,192,1556,1,0,0:0:0:0:
329,192,1631,1,0,0:0:0:0:
182,192,1706,1,0,0:0:0:0:
36,192,1781,1,0,0:0:0:0:
329,192,1931,1,0,0:0:0:0:
36,192,2081,1,0,0:0:0:0:
329,192,2231,1,0,0:0:0:0:
256,192,2381,1,0,0:0:0:0:
36,192,2531,1,0,0:0:0:0:
475,192,2606,1,0,0:0:0:0:
329,192,2681,1,0,0:0:0:0:
182,192,2756,1,0,0:0:0:0:
36,192,2831,1,0,0:0:0:0:
182,192,2906,1,0,0:0:0:0:
329,192,2981,1,0,0:0:0:0:
402,192,3131,1,0,0:0:0:0:
182,192,3281,1,0,0:0:0:0:
109,192,3431,1,0,0:0:0:0:
256,192,3581,1,0,0:0:0:0:
475,192,3731,1,0,0:0:0:0:
36,192,3806,1,0,0:0:0:0:
182,192,3881,1,0,0:0:0:0:
329,192,3956,1,0,0:0:0:0:
475,192,4031,1,0,0:0:0:0:
329,192,4106,1,0,0:0:0:0:
182,192,4181,1,0,0:0:0:0:
109,192,4331,1,0,0:0:0:0:
329,192,4481,1,0,0:0:0:0:
402,192,4631,1,0,0:0:0:0:
402,192,4931,1,0,0:0:0:0:
256,192,5081,1,0,0:0:0:0:
109,192,5231,1,0,0:0:0:0:
36,192,5381,1,0,0:0:0:0:
256,192,5381,1,0,0:0:0:0:
475,192,5381,1,0,0:0:0:0:
329,192,5531,1,0,0:0:0:0:
475,192,5681,1,0,0:0:0:0:
36,192,5681,1,0,0:0:0:0:
182,192,5831,1,0,0:0:0:0:
256,192,5981,1,0,0:0:0:0:
402,192,5981,1,0,0:0:0:0:
36,192,6131,1,0,0:0:0:0:
182,192,6206,1,0,0:0:0:0:
329,192,6281,1,0,0:0:0:0:
36,192,6356,1,0,0:0:0:0:
182,192,6431,1,0,0:0:0:0:
329,192,6506,1,0,0:0:0:0:
36,192,6581,1,0,0:0:0:0:
475,192,6581,1,0,0:0:0:0:
256,192,6731,1,0,0:0:0:0:
402,192,6731,1,0,0:0:0:0:
109,192,6881,1,0,0:0:0:0:
256,192,7031,1,0,0:0:0:0:
402,192,7031,1,0,0:0:0:0:
36,192,7181,1,0,0:0:0:0:
475,192,7181,1,0,0:0:0:0:
182,192,7331,1,0,0:0:0:0:
329,192,7406,1,0,0:0:0:0:
475,192,7481,1,0,0:0:0:0:
182,192,7556,1,0,0:0:0:0:
329,192,7631,1,0,0:0:0:0:
475,192,7706,1,0,0:0:0:0:
402,192,7781,1,0,0:0:0:0:
36,192,7781,1,0,0:0:0:0:
182,192,7931,1,0,0:0:0:0:
402,192,8081,1,0,0:0:0:0:
36,192,8081,1,0,0:0:0:0:
475,192,8231,1,0,0:0:0:0:
36,192,8381,1,0,0:0:0:0:
182,192,8456,1,0,0:0:0:0:
475,192,8531,1,0,0:0:0:0:
329,192,8606,1,0,0:0:0:0:
36,192,8681,1,0,0:0:0:0:
182,192,8756,1,0,0:0:0:0:
475,192,8831,1,0,0:0:0:0:
329,192,8906,1,0,0:0:0:0:
402,192,8981,1,0,0:0:0:0:
109,192,8981,1,0,0:0:0:0:
256,192,9056,1,0,0:0:0:0:
402,192,9131,1,0,0:0:0:0:
109,192,9131,1,0,0:0:0:0:
256,192,9206,1,0,0:0:0:0:
402,192,9281,1,0,0:0:0:0:
109,192,9281,1,0,0:0:0:0:
475,192,9581,1,0,0:0:0:0:
36,192,9581,1,0,0:0:0:0:
109,192,9606,1,0,0:0:0:0:
402,192,9606,1,0,0:0:0:0:
182,192,9631,1,0,0:0:0:0:
329,192,9631,1,0,0:0:0:0:
36,192,9881,1,0,0:0:0:0:
182,192,9881,1,0,0:0:0:0:
329,192,9956,1,0,0:0:0:0:
475,192,9956,1,0,0:0:0:0:
36,192,10031,1,0,0:0:0:0:
182,192,10031,1,0,0:0:0:0:
329,192,10106,1,0,0:0:0:0:
475,192,10106,1,0,0:0:0:0:
182,192,10181,1,0,0:0:0:0:
256,192,10181,1,0,0:0:0:0:
36,192,10181,1,0,0:0:0:0:
402,192,10331,1,0,0:0:0:0:
329,192,10481,1,0,0:0:0:0:
256,192,10481,1,0,0:0:0:0:
36,192,10481,1,0,0:0:0:0:
475,192,10631,1,0,0:0:0:0:
329,192,10781,1,0,0:0:0:0:
402,192,10781,1,0,0:0:0:0:
109,192,10781,1,0,0:0:0:0:
182,192,10931,1,0,0:0:0:0:
36,192,10931,1,0,0:0:0:0:
475,192,11081,1,0,0:0:0:0:
109,192,11081,1,0,0:0:0:0:
256,192,11081,1,0,0:0:0:0:
182,192,11231,1,0,0:0:0:0:
329,192,11381,1,0,0:0:0:0:
402,192,11381,1,0,0:0:0:0:
109,192,11381,1,0,0:0:0:0:
36,192,11381,1,0,0:0:0:0:
475,192,11531,1,0,0:0:0:0:
329,192,11681,1,0,0:0:0:0:
402,192,11681,1,0,0:0:0:0:
109,192,11681,1,0,0:0:0:0:
256,192,11831,1,0,0:0:0:0:
475,192,11981,1,0,0:0:0:0:
109,192,11981,1,0,0:0:0:0:
402,192,11981,1,0,0:0:0:0:
182,192,12131,1,0,0:0:0:0:
36,192,12131,1,0,0:0:0:0:
402,192,12281,1,0,0:0:0:0:
256,192,12281,1,0,0:0:0:0:
109,192,12281,1,0,0:0:0:0:
182,192,12431,1,0,0:0:0:0:
329,192,12581,1,0,0:0:0:0:
475,192,12581,1,0,0:0:0:0:
36,192,12581,1,0,0:0:0:0:
109,192,12581,1,0,0:0:0:0:
256,192,12731,1,0,0:0:0:0:
475,192,12881,1,0,0:0:0:0:
329,192,12881,1,0,0:0:0:0:
36,192,12881,1,0,0:0:0:0:
256,192,13031,1,0,0:0:0:0:
329,192,13181,1,0,0:0:0:0:
402,192,13181,1,0,0:0:0:0:
109,192,13181,1,0,0:0:0:0:
182,192,13331,1,0,0:0:0:0:
36,192,13331,1,0,0:0:0:0:
402,192,13481,1,0,0:0:0:0:
109,192,13481,1,0,0:0:0:0:
256,192,13481,1,0,0:0:0:0:
182,192,13631,1,0,0:0:0:0:
36,192,13781,1,0,0:0:0:0:
475,192,13781,1,0,0:0:0:0:
109,192,13781,1,0,0:0:0:0:
329,192,13781,1,0,0:0:0:0:
256,192,13931,1,0,0:0:0:0:
475,192,14081,1,0,0:0:0:0:
329,192,14081,1,0,0:0:0:0:
182,192,14081,1,0,0:0:0:0:
109,192,14231,1,0,0:0:0:0:
256,192,14306,1,0,0:0:0:0:
182,192,14381,1,0,0:0:0:0:
475,192,14381,1,0,0:0:0:0:
329,192,14381,1,0,0:0:0:0:
256,192,14531,1,0,0:0:0:0:
109,192,14531,1,0,0:0:0:0:
182,192,14681,1,0,0:0:0:0:
36,192,14681,1,0,0:0:0:0:
402,192,14681,1,0,0:0:0:0:
109,192,14831,1,0,0:0:0:0:
256,192,14981,1,0,0:0:0:0:
329,192,14981,1,0,0:0:0:0:
475,192,14981,1,0,0:0:0:0:
36,192,14981,1,0,0:0:0:0:
402,192,15131,1,0,0:0:0:0:
256,192,15281,1,0,0:0:0:0:
182,192,15281,1,0,0:0:0:0:
475,192,15281,1,0,0:0:0:0:
329,192,15431,1,0,0:0:0:0:
402,192,15581,1,0,0:0:0:0:
109,192,15581,1,0,0:0:0:0:
475,192,15581,1,0,0:0:0:0:
36,192,15731,1,0,0:0:0:0:
182,192,15731,1,0,0:0:0:0:
109,192,15881,1,0,0:0:0:0:
256,192,15881,1,0,0:0:0:0:
475,192,15881,1,0,0:0:0:0:
182,192,16031,1,0,0:0:0:0:
36,192,16181,1,0,0:0:0:0:
475,192,16181,1,0,0:0:0:0:
109,192,16181,1,0,0:0:0:0:
329,192,16181,1,0,0:0:0:0:
256,192,16331,1,0,0:0:0:0:
475,192,16481,1,0,0:0:0:0:
182,192,16481,1,0,0:0:0:0:
329,192,16481,1,0,0:0:0:0:
256,192,16631,1,0,0:0:0:0:
109,192,16781,1,0,0:0:0:0:
402,192,16781,1,0,0:0:0:0:
36,192,16931,1,0,0:0:0:0:
182,192,16931,1,0,0:0:0:0:
256,192,17081,1,0,0:0:0:0:
109,192,17081,1,0,0:0:0:0:
475,192,17081,1,0,0:0:0:0:
182,192,17231,1,0,0:0:0:0:
109,192,17381,1,0,0:0:0:0:
36,192,17381,1,0,0:0:0:0:
329,192,17381,1,0,0:0:0:0:
475,192,17381,1,0,0:0:0:0:
402,192,17531,1,0,0:0:0:0:
109,192,17681,1,0,0:0:0:0:
475,192,17681,1,0,0:0:0:0:
256,192,17681,1,0,0:0:0:0:
329,192,17831,1,0,0:0:0:0:
402,192,17981,1,0,0:0:0:0:
36,192,17981,1,0,0:0:0:0:
182,192,17981,1,0,0:0:0:0:
256,192,17981,1,0,0:0:0:0:
109,192,18131,1,0,0:0:0:0:
329,192,18131,1,0,0:0:0:0:
182,192,18281,1,0,0:0:0:0:
402,192,18281,1,0,0:0:0:0:
256,192,18431,1,0,0:0:0:0:
329,192,18581,1,0,0:0:0:0:
109,192,18581,1,0,0:0:0:0:
36,192,18581,1,0,0:0:0:0:
475,192,18581,1,0,0:0:0:0:
402,192,18731,1,0,0:0:0:0:
256,192,18881,1,0,0:0:0:0:
36,192,18881,1,0,0:0:0:0:
475,192,18881,1,0,0:0:0:0:
182,192,19031,1,0,0:0:0:0:
329,192,19106,1,0,0:0:0:0:
475,192,19181,1,0,0:0:0:0:
109,192,19181,1,0,0:0:0:0:
256,192,19181,1,0,0:0:0:0:
36,192,19331,1,0,0:0:0:0:
182,192,19331,1,0,0:0:0:0:
402,192,19481,1,0,0:0:0:0:
109,192,19481,1,0,0:0:0:0:
256,192,19481,1,0,0:0:0:0:
402,192,19631,1,0,0:0:0:0:
256,192,19631,1,0,0:0:0:0:
109,192,19631,1,0,0:0:0:0:
182,192,19781,1,0,0:0:0:0:
475,192,19781,1,0,0:0:0:0:
329,192,19856,1,0,0:0:0:0:
36,192,19856,1,0,0:0:0:0:
109,192,19931,1,0,0:0:0:0:
402,192,19931,1,0,0:0:0:0:
182,192,20006,1,0,0:0:0:0:
475,192,20006,1,0,0:0:0:0:
36,192,20081,1,0,0:0:0:0:
329,192,20081,1,0,0:0:0:0:
36,192,20381,1,0,0:0:0:0:
182,192,20381,1,0,0:0:0:0:
475,192,20381,1,0,0:0:0:0:
256,192,20381,1,0,0:0:0:0:
329,192,20381,1,0,0:0:0:0:
402,192,20531,1,0,0:0:0:0:
329,192,20681,1,0,0:0:0:0:
475,192,20681,1,0,0:0:0:0:
109,192,20681,1,0,0:0:0:0:
182,192,20831,1,0,0:0:0:0:
36,192,20981,1,0,0:0:0:0:
329,192,20981,1,0,0:0:0:0:
475,192,20981,1,0,0:0:0:0:
109,192,20981,1,0,0:0:0:0:
182,192,21131,1,0,0:0:0:0:
36,192,21281,1,0,0:0:0:0:
329,192,21281,1,0,0:0:0:0:
475,192,21281,1,0,0:0:0:0:
109,192,21356,1,0,0:0:0:0:
182,192,21431,1,0,0:0:0:0:
402,192,21431,1,0,0:0:0:0:
256,192,21506,1,0,0:0:0:0:
475,192,21581,1,0,0:0:0:0:
182,192,21581,1,0,0:0:0:0:
36,192,21581,1,0,0:0:0:0:
402,192,21656,1,0,0:0:0:0:
329,192,21731,1,0,0:0:0:0:
109,192,21731,1,0,0:0:0:0:
256,192,21806,1,0,0:0:0:0:
329,192,21881,1,0,0:0:0:0:
36,192,21881,1,0,0:0:0:0:
109,192,21956,1,0,0:0:0:0:
182,192,22031,1,0,0:0:0:0:
402,192,22031,1,0,0:0:0:0:
256,192,22106,1,0,0:0:0:0:
329,192,22181,1,0,0:0:0:0:
109,192,22181,1,0,0:0:0:0:
475,192,22181,1,0,0:0:0:0:
36,192,22181,1,0,0:0:0:0:
182,192,22331,1,0,0:0:0:0:
329,192,22481,1,0,0:0:0:0:
475,192,22481,1,0,0:0:0:0:
109,192,22481,1,0,0:0:0:0:
182,192,22631,1,0,0:0:0:0:
36,192,22781,1,0,0:0:0:0:
182,192,22781,1,0,0:0:0:0:
329,192,22781,1,0,0:0:0:0:
475,192,22781,1,0,0:0:0:0:
256,192,22931,1,0,0:0:0:0:
402,192,22931,1,0,0:0:0:0:
109,192,23081,1,0,0:0:0:0:
475,192,23081,1,0,0:0:0:0:
329,192,23081,1,0,0:0:0:0:
182,192,23231,1,0,0:0:0:0:
36,192,23381,1,0,0:0:0:0:
475,192,23381,1,0,0:0:0:0:
256,192,23381,1,0,0:0:0:0:
329,192,23381,1,0,0:0:0:0:
182,192,23531,1,0,0:0:0:0:
109,192,23681,1,0,0:0:0:0:
475,192,23681,1,0,0:0:0:0:
329,192,23681,1,0,0:0:0:0:
182,192,23831,1,0,0:0:0:0:
329,192,23906,1,0,0:0:0:0:
109,192,23981,1,0,0:0:0:0:
256,192,23981,1,0,0:0:0:0:
475,192,23981,1,0,0:0:0:0:
182,192,24131,1,0,0:0:0:0:
36,192,24131,1,0,0:0:0:0:
402,192,24131,1,0,0:0:0:0:
109,192,24281,1,0,0:0:0:0:
329,192,24281,1,0,0:0:0:0:
256,192,24431,1,0,0:0:0:0:
182,192,24581,1,0,0:0:0:0:
329,192,24581,1,0,0:0:0:0:
475,192,24581,1,0,0:0:0:0:
36,192,24581,1,0,0:0:0:0:
109,192,24731,1,0,0:0:0:0:
329,192,24806,1,0,0:0:0:0:
36,192,24881,1,0,0:0:0:0:
256,192,24881,1,0,0:0:0:0:
475,192,24881,1,0,0:0:0:0:
182,192,25031,1,0,0:0:0:0:
402,192,25106,1,0,0:0:0:0:
109,192,25181,1,0,0:0:0:0:
256,192,25181,1,0,0:0:0:0:
182,192,25331,1,0,0:0:0:0:
329,192,25331,1,0,0:0:0:0:
256,192,25481,1,0,0:0:0:0:
36,192,25481,1,0,0:0:0:0:
402,192,25481,1,0,0:0:0:0:
109,192,25781,1,0,0:0:0:0:
256,192,25781,1,0,0:0:0:0:
329,192,25781,1,0,0:0:0:0:
475,192,25781,1,0,0:0:0:0:
182,192,25931,1,0,0:0:0:0:
402,192,26006,1,0,0:0:0:0:
36,192,26081,1,0,0:0:0:0:
475,192,26081,1,0,0:0:0:0:
182,192,26081,1,0,0:0:0:0:
109,192,26156,1,0,0:0:0:0:
256,192,26231,1,0,0:0:0:0:
182,192,26306,1,0,0:0:0:0:
329,192,26381,1,0,0:0:0:0:
475,192,26381,1,0,0:0:0:0:
402,192,26456,1,0,0:0:0:0:
256,192,26531,1,0,0:0:0:0:
329,192,26606,1,0,0:0:0:0:
475,192,26681,1,0,0:0:0:0:
182,192,26681,1,0,0:0:0:0:
256,192,26756,1,0,0:0:0:0:
109,192,26831,1,0,0:0:0:0:
182,192,26906,1,0,0:0:0:0:
36,192,26981,1,0,0:0:0:0:
475,192,26981,1,0,0:0:0:0:
329,192,26981,1,0,0:0:0:0:
256,192,27281,1,0,0:0:0:0:
36,192,27431,1,0,0:0:0:0:
182,192,27431,1,0,0:0:0:0:
36,192,27581,1,0,0:0:0:0:
329,192,27581,1,0,0:0:0:0:
475,192,27581,1,0,0:0:0:0:
36,192,27881,1,0,0:0:0:0:
182,192,27881,1,0,0:0:0:0:
475,192,28031,1,0,0:0:0:0:
329,192,28031,1,0,0:0:0:0:
475,192,28181,1,0,0:0:0:0:
36,192,28181,1,0,0:0:0:0:
256,192,28181,1,0,0:0:0:0:
109,192,28331,1,0,0:0:0:0:
475,192,28406,1,0,0:0:0:0:
109,192,28481,1,0,0:0:0:0:
256,192,28481,1,0,0:0:0:0:
402,192,28481,1,0,0:0:0:0:
329,192,28631,1,0,0:0:0:0:
36,192,28706,1,0,0:0:0:0:
182,192,28781,1,0,0:0:0:0:
329,192,28781,1,0,0:0:0:0:
475,192,28781,1,0,0:0:0:0:
36,192,28931,1,0,0:0:0:0:
329,192,29006,1,0,0:0:0:0:
182,192,29081,1,0,0:0:0:0:
109,192,29081,1,0,0:0:0:0:
402,192,29156,1,0,0:0:0:0:
256,192,29231,1,0,0:0:0:0:
182,192,29231,1,0,0:0:0:0:
475,192,29306,1,0,0:0:0:0:
329,192,29381,1,0,0:0:0:0:
36,192,29381,1,0,0:0:0:0:
256,192,29381,1,2,0:0:0:0:
182,192,30281,1,2,0:0:0:0:
256,192,30431,1,2,0:0:0:0:
329,192,30581,1,2,0:0:0:0:
256,192,31031,1,2,0:0:0:0:
182,192,31481,1,2,0:0:0:0:
182,192,31631,1,2,0:0:0:0:
329,192,31781,1,2,0:0:0:0:
256,192,32231,1,2,0:0:0:0:
182,192,32681,1,0,0:0:0:0:
329,192,32831,128,2,33581:0:0:0:0:
475,192,33731,128,0,33881:0:0:0:0:
36,192,33881,1,2,0:0:0:0:
402,192,33881,128,0,34031:0:0:0:0:
109,192,34031,1,2,0:0:0:0:
329,192,34031,128,0,34331:0:0:0:0:
182,192,34181,1,2,0:0:0:0:
36,192,35081,1,2,0:0:0:0:
109,192,35231,1,2,0:0:0:0:
182,192,35381,1,2,0:0:0:0:
109,192,35831,1,2,0:0:0:0:
36,192,36281,1,2,0:0:0:0:
36,192,36431,1,2,0:0:0:0:
182,192,36581,1,2,0:0:0:0:
109,192,37031,1,2,0:0:0:0:
36,192,37481,1,0,0:0:0:0:
182,192,37631,128,2,38231:0:0:0:0:
256,192,38531,128,0,38681:0:0:0:0:
329,192,38681,1,2,0:0:0:0:
182,192,38681,128,0,38831:0:0:0:0:
402,192,38831,1,2,0:0:0:0:
109,192,38831,128,0,39131:0:0:0:0:
475,192,38981,1,2,0:0:0:0:
36,192,38981,1,0,0:0:0:0:
182,192,38981,1,0,0:0:0:0:
36,192,39431,1,0,0:0:0:0:
182,192,39431,1,0,0:0:0:0:
329,192,39881,1,2,0:0:0:0:
182,192,39881,1,0,0:0:0:0:
36,192,39881,1,0,0:0:0:0:
402,192,40031,1,2,0:0:0:0:
475,192,40181,1,2,0:0:0:0:
109,192,40331,1,0,0:0:0:0:
256,192,40331,1,0,0:0:0:0:
402,192,40631,1,2,0:0:0:0:
109,192,40781,1,0,0:0:0:0:
182,192,40781,1,0,0:0:0:0:
182,192,41081,1,0,0:0:0:0:
109,192,41081,1,0,0:0:0:0:
475,192,41081,1,2,0:0:0:0:
475,192,41231,1,2,0:0:0:0:
109,192,41381,1,0,0:0:0:0:
182,192,41381,1,0,0:0:0:0:
329,192,41381,1,2,0:0:0:0:
109,192,41831,1,0,0:0:0:0:
182,192,41831,1,0,0:0:0:0:
402,192,41831,1,2,0:0:0:0:
329,192,42281,128,2,42431:0:0:0:0:
109,192,42281,1,0,0:0:0:0:
182,192,42281,1,0,0:0:0:0:
475,192,42431,128,2,43181:0:0:0:0:
109,192,42731,1,0,0:0:0:0:
182,192,42731,1,0,0:0:0:0:
109,192,43181,1,0,0:0:0:0:
182,192,43181,1,0,0:0:0:0:
329,192,43481,5,2,0:0:0:0:
109,192,43481,1,0,0:0:0:0:
182,192,43481,1,0,0:0:0:0:
402,192,43631,1,2,0:0:0:0:
36,192,43781,1,0,0:0:0:0:
182,192,43781,1,0,0:0:0:0:
475,192,43781,1,2,0:0:0:0:
36,192,44231,1,0,0:0:0:0:
182,192,44231,1,0,0:0:0:0:
36,192,44681,1,0,0:0:0:0:
182,192,44681,1,0,0:0:0:0:
329,192,44681,1,2,0:0:0:0:
402,192,44831,1,2,0:0:0:0:
475,192,44981,1,2,0:0:0:0:
109,192,45131,1,0,0:0:0:0:
256,192,45131,1,0,0:0:0:0:
402,192,45431,1,2,0:0:0:0:
109,192,45581,1,0,0:0:0:0:
182,192,45581,1,0,0:0:0:0:
109,192,45881,1,0,0:0:0:0:
182,192,45881,1,0,0:0:0:0:
329,192,45881,1,2,0:0:0:0:
329,192,46031,1,2,0:0:0:0:
182,192,46181,1,0,0:0:0:0:
109,192,46181,1,0,0:0:0:0:
475,192,46181,1,2,0:0:0:0:
109,192,46631,1,0,0:0:0:0:
182,192,46631,1,0,0:0:0:0:
402,192,46631,128,2,47081:0:0:0:0:
109,192,47081,1,0,0:0:0:0:
182,192,47081,1,0,0:0:0:0:
36,192,47381,1,0,0:0:0:0:
402,192,47381,1,0,0:0:0:0:
182,192,47456,1,0,0:0:0:0:
256,192,47531,1,0,0:0:0:0:
402,192,47606,1,0,0:0:0:0:
36,192,47681,1,0,0:0:0:0:
182,192,47756,1,0,0:0:0:0:
256,192,47831,1,0,0:0:0:0:
402,192,47906,1,0,0:0:0:0:
182,192,47981,1,0,0:0:0:0:
36,192,47981,1,0,0:0:0:0:
329,192,48056,1,0,0:0:0:0:
182,192,48131,1,0,0:0:0:0:
475,192,48131,1,0,0:0:0:0:
36,192,48206,1,0,0:0:0:0:
475,192,48281,1,0,0:0:0:0:
329,192,48281,1,0,0:0:0:0:
182,192,48356,1,0,0:0:0:0:
329,192,48431,1,0,0:0:0:0:
36,192,48431,1,0,0:0:0:0:
475,192,48506,1,0,0:0:0:0:
182,192,48506,1,0,0:0:0:0:
402,192,48581,1,0,0:0:0:0:
109,192,48581,1,0,0:0:0:0:
256,192,48581,1,0,0:0:0:0:
256,192,48731,1,0,0:0:0:0:
109,192,48881,1,0,0:0:0:0:
329,192,48881,1,0,0:0:0:0:
475,192,48881,1,0,0:0:0:0:
109,192,49031,1,0,0:0:0:0:
256,192,49181,1,0,0:0:0:0:
402,192,49181,1,0,0:0:0:0:
36,192,49181,1,0,0:0:0:0:
182,192,49331,1,0,0:0:0:0:
329,192,49481,1,0,0:0:0:0:
109,192,49481,1,0,0:0:0:0:
475,192,49481,1,0,0:0:0:0:
329,192,49631,1,0,0:0:0:0:
109,192,49781,1,0,0:0:0:0:
256,192,49781,1,0,0:0:0:0:
36,192,49781,1,0,0:0:0:0:
402,192,49931,1,0,0:0:0:0:
329,192,50081,1,0,0:0:0:0:
109,192,50081,1,0,0:0:0:0:
475,192,50081,1,0,0:0:0:0:
475,192,50231,1,0,0:0:0:0:
402,192,50381,1,0,0:0:0:0:
109,192,50381,1,0,0:0:0:0:
36,192,50381,1,0,0:0:0:0:
256,192,50531,1,0,0:0:0:0:
329,192,50681,1,0,0:0:0:0:
109,192,50681,1,0,0:0:0:0:
475,192,50681,1,0,0:0:0:0:
329,192,50831,1,0,0:0:0:0:
109,192,50981,128,0,51131:0:0:0:0:
256,192,50981,128,0,51131:0:0:0:0:
475,192,50981,1,0,0:0:0:0:
329,192,51281,128,0,51431:0:0:0:0:
182,192,51281,128,0,51431:0:0:0:0:
475,192,51281,1,0,0:0:0:0:
109,192,51581,128,0,51731:0:0:0:0:
256,192,51581,128,0,51731:0:0:0:0:
475,192,51581,1,0,0:0:0:0:
182,192,51881,128,0,51956:0:0:0:0:
329,192,51881,128,0,51956:0:0:0:0:
475,192,51881,1,0,0:0:0:0:
182,192,52031,128,0,52106:0:0:0:0:
329,192,52031,128,0,52106:0:0:0:0:
182,192,52181,1,0,0:0:0:0:
329,192,52181,1,0,0:0:0:0:
475,192,52181,1,0,0:0:0:0:
36,192,52293,1,0,0:0:0:0:
109,192,52406,1,0,0:0:0:0:
329,192,52406,1,0,0:0:0:0:
182,192,52481,1,0,0:0:0:0:
402,192,52481,1,0,0:0:0:0:
109,192,52593,1,0,0:0:0:0:
36,192,52706,1,0,0:0:0:0:
475,192,52706,1,0,0:0:0:0:
329,192,52781,1,0,0:0:0:0:
182,192,52781,1,0,0:0:0:0:
475,192,52893,1,0,0:0:0:0:
402,192,53006,1,0,0:0:0:0:
182,192,53006,1,0,0:0:0:0:
329,192,53081,1,0,0:0:0:0:
109,192,53081,1,0,0:0:0:0:
402,192,53193,1,0,0:0:0:0:
475,192,53306,1,0,0:0:0:0:
109,192,53306,1,0,0:0:0:0:
329,192,53381,1,0,0:0:0:0:
182,192,53381,1,0,0:0:0:0:
36,192,53381,1,0,0:0:0:0:
402,192,53531,1,0,0:0:0:0:
475,192,53681,1,0,0:0:0:0:
256,192,53681,1,0,0:0:0:0:
109,192,53681,1,0,0:0:0:0:
256,192,53831,1,0,0:0:0:0:
402,192,53981,1,0,0:0:0:0:
182,192,53981,1,0,0:0:0:0:
36,192,53981,1,0,0:0:0:0:
329,192,54131,1,0,0:0:0:0:
475,192,54281,1,0,0:0:0:0:
109,192,54281,1,0,0:0:0:0:
256,192,54281,1,0,0:0:0:0:
109,192,54431,1,0,0:0:0:0:
36,192,54581,1,0,0:0:0:0:
402,192,54581,1,0,0:0:0:0:
329,192,54581,1,0,0:0:0:0:
182,192,54731,1,0,0:0:0:0:
475,192,54881,1,0,0:0:0:0:
109,192,54881,1,0,0:0:0:0:
256,192,54881,1,0,0:0:0:0:
256,192,55031,1,0,0:0:0:0:
36,192,55181,1,0,0:0:0:0:
182,192,55181,1,0,0:0:0:0:
402,192,55181,1,0,0:0:0:0:
329,192,55331,1,0,0:0:0:0:
109,192,55481,1,0,0:0:0:0:
256,192,55481,1,0,0:0:0:0:
475,192,55481,1,0,0:0:0:0:
402,192,55631,1,0,0:0:0:0:
182,192,55631,1,0,0:0:0:0:
256,192,55781,1,0,0:0:0:0:
36,192,55781,1,0,0:0:0:0:
329,192,55781,1,0,0:0:0:0:
109,192,55931,1,0,0:0:0:0:
182,192,56081,1,0,0:0:0:0:
329,192,56081,1,0,0:0:0:0:
475,192,56081,1,0,0:0:0:0:
36,192,56231,1,0,0:0:0:0:
329,192,56381,1,0,0:0:0:0:
109,192,56381,1,0,0:0:0:0:
256,192,56381,1,0,0:0:0:0:
475,192,56381,1,0,0:0:0:0:
329,192,56681,1,0,0:0:0:0:
475,192,56681,1,0,0:0:0:0:
109,192,56681,1,0,0:0:0:0:
256,192,56756,1,0,0:0:0:0:
109,192,56981,1,0,0:0:0:0:
475,192,56981,1,0,0:0:0:0:
256,192,56981,1,0,0:0:0:0:
36,192,57056,1,0,0:0:0:0:
329,192,57131,1,0,0:0:0:0:
109,192,57206,1,0,0:0:0:0:
402,192,57281,1,0,0:0:0:0:
182,192,57356,1,0,0:0:0:0:
475,192,57431,1,0,0:0:0:0:
256,192,57506,1,0,0:0:0:0:
475,192,57581,1,0,0:0:0:0:
36,192,57581,1,0,0:0:0:0:
329,192,57656,1,0,0:0:0:0:
109,192,57656,1,0,0:0:0:0:
182,192,57731,1,0,0:0:0:0:
402,192,57731,1,0,0:0:0:0:
475,192,57806,1,0,0:0:0:0:
109,192,57806,1,0,0:0:0:0:
402,192,57881,1,0,0:0:0:0:
36,192,57881,1,0,0:0:0:0:
329,192,57956,1,0,0:0:0:0:
109,192,57956,1,0,0:0:0:0:
182,192,58031,1,0,0:0:0:0:
402,192,58031,1,0,0:0:0:0:
256,192,58106,1,0,0:0:0:0:
475,192,58106,1,0,0:0:0:0:
182,192,58181,1,0,0:0:0:0:
36,192,58181,1,0,0:0:0:0:
329,192,58181,1,0,0:0:0:0:
109,192,58331,1,0,0:0:0:0:
256,192,58481,1,0,0:0:0:0:
36,192,58481,1,0,0:0:0:0:
475,192,58481,1,0,0:0:0:0:
256,192,58631,1,0,0:0:0:0:
109,192,58781,1,0,0:0:0:0:
402,192,58781,1,0,0:0:0:0:
329,192,58781,1,0,0:0:0:0:
182,192,58931,1,0,0:0:0:0:
36,192,59081,1,0,0:0:0:0:
256,192,59081,1,0,0:0:0:0:
475,192,59081,1,0,0:0:0:0:
36,192,59231,1,0,0:0:0:0:
256,192,59381,1,0,0:0:0:0:
109,192,59381,1,0,0:0:0:0:
329,192,59381,1,0,0:0:0:0:
402,192,59531,1,0,0:0:0:0:
36,192,59681,1,0,0:0:0:0:
256,192,59681,1,0,0:0:0:0:
475,192,59681,1,0,0:0:0:0:
475,192,59831,1,0,0:0:0:0:
402,192,59981,1,0,0:0:0:0:
182,192,59981,1,0,0:0:0:0:
329,192,59981,1,0,0:0:0:0:
109,192,60131,1,0,0:0:0:0:
36,192,60281,1,0,0:0:0:0:
256,192,60281,1,0,0:0:0:0:
475,192,60281,1,0,0:0:0:0:
109,192,60431,1,0,0:0:0:0:
256,192,60581,128,0,60731:0:0:0:0:
402,192,60581,128,0,60731:0:0:0:0:
36,192,60581,1,0,0:0:0:0:
475,192,60881,128,0,61031:0:0:0:0:
329,192,60881,128,0,61031:0:0:0:0:
36,192,60881,1,0,0:0:0:0:
256,192,61181,128,0,61331:0:0:0:0:
402,192,61181,128,0,61331:0:0:0:0:
36,192,61181,1,0,0:0:0:0:
329,192,61481,128,0,61556:0:0:0:0:
475,192,61481,128,0,61556:0:0:0:0:
36,192,61481,1,0,0:0:0:0:
329,192,61631,128,0,61706:0:0:0:0:
475,192,61631,128,0,61706:0:0:0:0:
182,192,61781,1,0,0:0:0:0:
329,192,61781,1,0,0:0:0:0:
475,192,61781,1,0,0:0:0:0:
36,192,61893,1,0,0:0:0:0:
109,192,62006,1,0,0:0:0:0:
329,192,62006,1,0,0:0:0:0:
182,192,62081,1,0,0:0:0:0:
402,192,62081,1,0,0:0:0:0:
109,192,62193,1,0,0:0:0:0:
36,192,62306,1,0,0:0:0:0:
475,192,62306,1,0,0:0:0:0:
329,192,62381,1,0,0:0:0:0:
182,192,62381,1,0,0:0:0:0:
475,192,62493,1,0,0:0:0:0:
402,192,62606,1,0,0:0:0:0:
182,192,62606,1,0,0:0:0:0:
329,192,62681,1,0,0:0:0:0:
109,192,62681,1,0,0:0:0:0:
402,192,62793,1,0,0:0:0:0:
475,192,62906,1,0,0:0:0:0:
109,192,62906,1,0,0:0:0:0:
329,192,62981,1,0,0:0:0:0:
182,192,62981,1,0,0:0:0:0:
36,192,62981,1,0,0:0:0:0:
402,192,63131,1,0,0:0:0:0:
475,192,63281,1,0,0:0:0:0:
109,192,63281,1,0,0:0:0:0:
256,192,63281,1,0,0:0:0:0:
109,192,63431,1,0,0:0:0:0:
402,192,63581,1,0,0:0:0:0:
182,192,63581,1,0,0:0:0:0:
329,192,63581,1,0,0:0:0:0:
36,192,63731,1,0,0:0:0:0:
475,192,63881,1,0,0:0:0:0:
256,192,63881,1,0,0:0:0:0:
109,192,63881,1,0,0:0:0:0:
256,192,64031,1,0,0:0:0:0:
36,192,64181,1,0,0:0:0:0:
182,192,64181,1,0,0:0:0:0:
329,192,64181,1,0,0:0:0:0:
475,192,64181,1,0,0:0:0:0:
402,192,64331,1,0,0:0:0:0:
475,192,64481,1,0,0:0:0:0:
256,192,64481,1,0,0:0:0:0:
109,192,64481,1,0,0:0:0:0:
109,192,64631,1,0,0:0:0:0:
329,192,64781,1,0,0:0:0:0:
182,192,64781,1,0,0:0:0:0:
402,192,64781,1,0,0:0:0:0:
36,192,64931,1,0,0:0:0:0:
256,192,65081,1,0,0:0:0:0:
109,192,65081,1,0,0:0:0:0:
475,192,65081,1,0,0:0:0:0:
402,192,65231,1,0,0:0:0:0:
182,192,65231,1,0,0:0:0:0:
109,192,65381,1,0,0:0:0:0:
329,192,65381,1,0,0:0:0:0:
36,192,65381,1,0,0:0:0:0:
475,192,65381,1,0,0:0:0:0:
329,192,65831,1,0,0:0:0:0:
182,192,65831,1,0,0:0:0:0:
36,192,65981,1,0,0:0:0:0:
256,192,65981,1,0,0:0:0:0:
109,192,65981,1,0,0:0:0:0:
475,192,65981,1,0,0:0:0:0:
36,192,66281,1,0,0:0:0:0:
475,192,66281,1,0,0:0:0:0:
256,192,66281,1,0,0:0:0:0:
182,192,66431,1,0,0:0:0:0:
329,192,66431,1,0,0:0:0:0:
256,192,66581,1,0,0:0:0:0:
475,192,66581,1,0,0:0:0:0:
109,192,66581,1,0,0:0:0:0:
402,192,66731,1,0,0:0:0:0:
36,192,66731,1,0,0:0:0:0:
256,192,66806,1,0,0:0:0:0:
36,192,66881,1,0,0:0:0:0:
329,192,66881,1,0,0:0:0:0:
475,192,66881,1,0,0:0:0:0:
475,192,67031,1,0,0:0:0:0:
182,192,67031,1,0,0:0:0:0:
402,192,67106,1,0,0:0:0:0:
109,192,67106,1,0,0:0:0:0:
36,192,67181,1,0,0:0:0:0:
329,192,67181,1,0,0:0:0:0:
402,192,67256,1,0,0:0:0:0:
256,192,67256,1,0,0:0:0:0:
182,192,67331,1,0,0:0:0:0:
475,192,67331,1,0,0:0:0:0:
402,192,67406,1,0,0:0:0:0:
109,192,67406,1,0,0:0:0:0:
36,192,67481,1,0,0:0:0:0:
329,192,67481,1,0,0:0:0:0:
109,192,67556,1,0,0:0:0:0:
256,192,67556,1,0,0:0:0:0:
182,192,67631,1,0,0:0:0:0:
475,192,67631,1,0,0:0:0:0:
109,192,67706,1,0,0:0:0:0:
402,192,67706,1,0,0:0:0:0:
182,192,67781,1,0,0:0:0:0:
329,192,67781,1,0,0:0:0:0:
36,192,67781,1,0,0:0:0:0:
256,192,67931,1,0,0:0:0:0:
402,192,67931,1,0,0:0:0:0:
109,192,68081,1,0,0:0:0:0:
329,192,68081,1,0,0:0:0:0:
475,192,68081,1,0,0:0:0:0:
182,192,68231,1,0,0:0:0:0:
475,192,68231,1,0,0:0:0:0:
256,192,68381,1,0,0:0:0:0:
109,192,68381,1,0,0:0:0:0:
402,192,68381,1,0,0:0:0:0:
36,192,68531,1,0,0:0:0:0:
182,192,68531,1,0,0:0:0:0:
109,192,68681,1,0,0:0:0:0:
475,192,68681,1,0,0:0:0:0:
329,192,68681,1,0,0:0:0:0:
256,192,68831,1,0,0:0:0:0:
36,192,68981,1,0,0:0:0:0:
329,192,68981,1,0,0:0:0:0:
182,192,68981,1,0,0:0:0:0:
475,192,68981,1,0,0:0:0:0:
256,192,69131,1,0,0:0:0:0:
109,192,69131,1,0,0:0:0:0:
402,192,69281,1,0,0:0:0:0:
182,192,69281,1,0,0:0:0:0:
36,192,69281,1,0,0:0:0:0:
329,192,69431,1,0,0:0:0:0:
36,192,69431,1,0,0:0:0:0:
256,192,69581,1,0,0:0:0:0:
402,192,69581,1,0,0:0:0:0:
109,192,69581,1,0,0:0:0:0:
475,192,69731,1,0,0:0:0:0:
329,192,69731,1,0,0:0:0:0:
402,192,69881,1,0,0:0:0:0:
36,192,69881,1,0,0:0:0:0:
182,192,69881,1,0,0:0:0:0:
256,192,70031,1,0,0:0:0:0:
475,192,70181,1,0,0:0:0:0:
329,192,70181,1,0,0:0:0:0:
182,192,70181,1,0,0:0:0:0:
36,192,70181,1,0,0:0:0:0:
256,192,70331,1,0,0:0:0:0:
109,192,70331,1,0,0:0:0:0:
402,192,70481,1,0,0:0:0:0:
329,192,70481,1,0,0:0:0:0:
36,192,70481,1,0,0:0:0:0:
182,192,70631,1,0,0:0:0:0:
36,192,70631,1,0,0:0:0:0:
256,192,70781,1,0,0:0:0:0:
402,192,70781,1,0,0:0:0:0:
109,192,70781,1,0,0:0:0:0:
475,192,70931,1,0,0:0:0:0:
182,192,70931,1,0,0:0:0:0:
402,192,71081,1,0,0:0:0:0:
36,192,71081,1,0,0:0:0:0:
329,192,71081,1,0,0:0:0:0:
256,192,71231,1,0,0:0:0:0:
109,192,71381,1,0,0:0:0:0:
182,192,71381,1,0,0:0:0:0:
329,192,71381,1,0,0:0:0:0:
475,192,71381,1,0,0:0:0:0:
36,192,71531,1,0,0:0:0:0:
109,192,71681,1,0,0:0:0:0:
475,192,71681,1,0,0:0:0:0:
256,192,71681,1,0,0:0:0:0:
402,192,71681,1,0,0:0:0:0:
36,192,71831,1,0,0:0:0:0:
329,192,71981,1,0,0:0:0:0:
475,192,71981,1,0,0:0:0:0:
182,192,71981,1,0,0:0:0:0:
36,192,72131,1,0,0:0:0:0:
402,192,72281,1,0,0:0:0:0:
109,192,72281,1,0,0:0:0:0:
256,192,72281,1,0,0:0:0:0:
329,192,72281,1,0,0:0:0:0:
36,192,72431,1,0,0:0:0:0:
475,192,72581,1,0,0:0:0:0:
329,192,72581,1,0,0:0:0:0:
182,192,72581,1,0,0:0:0:0:
36,192,72581,1,0,0:0:0:0:
256,192,72731,1,0,0:0:0:0:
109,192,72731,1,0,0:0:0:0:
402,192,72881,1,0,0:0:0:0:
182,192,72881,1,0,0:0:0:0:
475,192,72881,1,0,0:0:0:0:
329,192,73031,1,0,0:0:0:0:
475,192,73031,1,0,0:0:0:0:
256,192,73181,1,0,0:0:0:0:
402,192,73181,1,0,0:0:0:0:
109,192,73181,1,0,0:0:0:0:
36,192,73331,1,0,0:0:0:0:
329,192,73331,1,0,0:0:0:0:
402,192,73481,1,0,0:0:0:0:
475,192,73481,1,0,0:0:0:0:
182,192,73481,1,0,0:0:0:0:
256,192,73631,1,0,0:0:0:0:
36,192,73781,1,0,0:0:0:0:
182,192,73781,1,0,0:0:0:0:
329,192,73781,1,0,0:0:0:0:
475,192,73781,1,0,0:0:0:0:
256,192,73931,1,0,0:0:0:0:
402,192,73931,1,0,0:0:0:0:
109,192,74081,1,0,0:0:0:0:
329,192,74081,1,0,0:0:0:0:
36,192,74081,1,0,0:0:0:0:
182,192,74231,1,0,0:0:0:0:
36,192,74231,1,0,0:0:0:0:
256,192,74381,1,0,0:0:0:0:
109,192,74381,1,0,0:0:0:0:
402,192,74381,1,0,0:0:0:0:
475,192,74531,1,0,0:0:0:0:
182,192,74531,1,0,0:0:0:0:
109,192,74681,1,0,0:0:0:0:
36,192,74681,1,0,0:0:0:0:
329,192,74681,1,0,0:0:0:0:
256,192,74831,1,0,0:0:0:0:
475,192,74981,1,0,0:0:0:0:
182,192,74981,1,0,0:0:0:0:
329,192,74981,1,0,0:0:0:0:
36,192,74981,1,0,0:0:0:0:
256,192,75131,1,0,0:0:0:0:
109,192,75131,1,0,0:0:0:0:
36,192,75281,1,0,0:0:0:0:
329,192,75281,1,0,0:0:0:0:
475,192,75281,1,0,0:0:0:0:
182,192,75431,1,0,0:0:0:0:
475,192,75431,1,0,0:0:0:0:
256,192,75581,1,0,0:0:0:0:
402,192,75581,1,0,0:0:0:0:
109,192,75581,1,0,0:0:0:0:
36,192,75731,1,0,0:0:0:0:
182,192,75731,1,0,0:0:0:0:
36,192,75881,1,0,0:0:0:0:
475,192,75881,1,0,0:0:0:0:
329,192,75881,1,0,0:0:0:0:
256,192,76031,1,0,0:0:0:0:
36,192,76181,1,0,0:0:0:0:
329,192,76181,1,0,0:0:0:0:
109,192,76181,1,0,0:0:0:0:
475,192,76181,1,0,0:0:0:0:
256,192,76331,1,0,0:0:0:0:
109,192,76481,1,0,0:0:0:0:
475,192,76481,1,0,0:0:0:0:
36,192,76481,1,0,0:0:0:0:
182,192,76481,1,0,0:0:0:0:
475,192,76631,1,0,0:0:0:0:
256,192,76781,1,0,0:0:0:0:
475,192,76781,1,0,0:0:0:0:
182,192,76781,1,0,0:0:0:0:
36,192,76781,1,0,0:0:0:0:
36,192,76931,1,0,0:0:0:0:
329,192,77081,1,0,0:0:0:0:
475,192,77081,1,0,0:0:0:0:
256,192,77081,1,0,0:0:0:0:
36,192,77081,1,0,0:0:0:0:
182,192,77231,1,0,0:0:0:0:
475,192,77381,1,0,0:0:0:0:
109,192,77381,1,0,0:0:0:0:
402,192,77381,1,0,0:0:0:0:
36,192,77381,1,0,0:0:0:0:
256,192,77531,1,0,0:0:0:0:
329,192,77531,1,0,0:0:0:0:
182,192,77681,1,0,0:0:0:0:
402,192,77681,1,0,0:0:0:0:
475,192,77681,1,0,0:0:0:0:
109,192,77831,1,0,0:0:0:0:
475,192,77831,1,0,0:0:0:0:
256,192,77981,1,0,0:0:0:0:
182,192,77981,1,0,0:0:0:0:
329,192,77981,1,0,0:0:0:0:
36,192,78131,1,0,0:0:0:0:
109,192,78131,1,0,0:0:0:0:
182,192,78281,1,0,0:0:0:0:
475,192,78281,1,0,0:0:0:0:
402,192,78281,1,0,0:0:0:0:
256,192,78431,1,0,0:0:0:0:
36,192,78581,1,0,0:0:0:0:
402,192,78581,1,0,0:0:0:0:
109,192,78581,1,0,0:0:0:0:
475,192,78581,1,0,0:0:0:0:
256,192,78731,1,0,0:0:0:0:
182,192,78731,1,0,0:0:0:0:
329,192,78881,1,0,0:0:0:0:
109,192,78881,1,0,0:0:0:0:
36,192,78881,1,0,0:0:0:0:
402,192,79031,1,0,0:0:0:0:
36,192,79031,1,0,0:0:0:0:
256,192,79181,1,0,0:0:0:0:
329,192,79181,1,0,0:0:0:0:
182,192,79181,1,0,0:0:0:0:
475,192,79331,1,0,0:0:0:0:
402,192,79331,1,0,0:0:0:0:
329,192,79481,1,0,0:0:0:0:
36,192,79481,1,0,0:0:0:0:
109,192,79481,1,0,0:0:0:0:
256,192,79631,1,0,0:0:0:0:
475,192,79781,1,0,0:0:0:0:
402,192,79781,1,0,0:0:0:0:
109,192,79781,1,0,0:0:0:0:
36,192,79781,1,0,0:0:0:0:
256,192,79931,1,0,0:0:0:0:
329,192,79931,1,0,0:0:0:0:
182,192,80081,1,0,0:0:0:0:
109,192,80081,1,0,0:0:0:0:
475,192,80081,1,0,0:0:0:0:
402,192,80231,1,0,0:0:0:0:
475,192,80231,1,0,0:0:0:0:
256,192,80381,1,0,0:0:0:0:
182,192,80381,1,0,0:0:0:0:
329,192,80381,1,0,0:0:0:0:
109,192,80531,1,0,0:0:0:0:
402,192,80531,1,0,0:0:0:0:
182,192,80681,1,0,0:0:0:0:
475,192,80681,1,0,0:0:0:0:
36,192,80681,1,0,0:0:0:0:
36,192,80831,1,0,0:0:0:0:
182,192,80981,1,0,0:0:0:0:
109,192,80981,1,0,0:0:0:0:
402,192,80981,1,0,0:0:0:0:
475,192,80981,1,0,0:0:0:0:
329,192,81131,1,0,0:0:0:0:
182,192,81281,1,0,0:0:0:0:
475,192,81281,1,0,0:0:0:0:
256,192,81281,1,0,0:0:0:0:
402,192,81281,1,0,0:0:0:0:
329,192,81431,1,0,0:0:0:0:
109,192,81581,1,0,0:0:0:0:
475,192,81581,1,0,0:0:0:0:
36,192,81581,1,0,0:0:0:0:
182,192,81731,1,0,0:0:0:0:
36,192,81881,1,0,0:0:0:0:
329,192,81881,1,0,0:0:0:0:
256,192,81881,1,0,0:0:0:0:
109,192,81881,1,0,0:0:0:0:
182,192,82031,1,0,0:0:0:0:
475,192,82181,1,0,0:0:0:0:
402,192,82181,1,0,0:0:0:0:
109,192,82181,1,0,0:0:0:0:
36,192,82181,1,0,0:0:0:0:
256,192,82331,1,0,0:0:0:0:
182,192,82331,1,0,0:0:0:0:
329,192,82481,1,0,0:0:0:0:
109,192,82481,1,0,0:0:0:0:
475,192,82481,1,0,0:0:0:0:
402,192,82631,1,0,0:0:0:0:
475,192,82631,1,0,0:0:0:0:
256,192,82781,1,0,0:0:0:0:
329,192,82781,1,0,0:0:0:0:
182,192,82781,1,0,0:0:0:0:
36,192,82931,1,0,0:0:0:0:
402,192,82931,1,0,0:0:0:0:
329,192,83081,1,0,0:0:0:0:
475,192,83081,1,0,0:0:0:0:
109,192,83081,1,0,0:0:0:0:
256,192,83231,1,0,0:0:0:0:
36,192,83381,1,0,0:0:0:0:
109,192,83381,1,0,0:0:0:0:
402,192,83381,1,0,0:0:0:0:
475,192,83381,1,0,0:0:0:0:
256,192,83531,1,0,0:0:0:0:
329,192,83531,1,0,0:0:0:0:
182,192,83681,1,0,0:0:0:0:
402,192,83681,1,0,0:0:0:0:
36,192,83681,1,0,0:0:0:0:
109,192,83831,1,0,0:0:0:0:
36,192,83831,1,0,0:0:0:0:
256,192,83981,1,0,0:0:0:0:
182,192,83981,1,0,0:0:0:0:
329,192,83981,1,0,0:0:0:0:
475,192,84131,1,0,0:0:0:0:
109,192,84131,1,0,0:0:0:0:
182,192,84281,1,0,0:0:0:0:
36,192,84281,1,0,0:0:0:0:
402,192,84281,1,0,0:0:0:0:
256,192,84431,1,0,0:0:0:0:
475,192,84581,1,0,0:0:0:0:
109,192,84581,1,0,0:0:0:0:
402,192,84581,1,0,0:0:0:0:
36,192,84581,1,0,0:0:0:0:
256,192,84656,1,0,0:0:0:0:
109,192,84731,1,0,0:0:0:0:
256,192,84806,1,0,0:0:0:0:
402,192,84881,1,0,0:0:0:0:
36,192,84956,1,0,0:0:0:0:
475,192,85031,1,0,0:0:0:0:
182,192,85031,1,0,0:0:0:0:
329,192,85106,1,0,0:0:0:0:
109,192,85181,1,0,0:0:0:0:
475,192,85181,1,0,0:0:0:0:
256,192,85256,1,0,0:0:0:0:
402,192,85331,1,0,0:0:0:0:
182,192,85406,1,0,0:0:0:0:
36,192,85481,1,0,0:0:0:0:
329,192,85481,1,0,0:0:0:0:
475,192,85556,1,0,0:0:0:0:
329,192,85631,1,0,0:0:0:0:
36,192,85631,1,0,0:0:0:0:
182,192,85706,1,0,0:0:0:0:
36,192,85781,1,0,0:0:0:0:
475,192,85781,1,0,0:0:0:0:
256,192,85781,1,0,0:0:0:0:
182,192,85931,1,0,0:0:0:0:
329,192,85931,1,0,0:0:0:0:
109,192,86006,1,0,0:0:0:0:
256,192,86006,1,0,0:0:0:0:
475,192,86081,1,0,0:0:0:0:
36,192,86081,1,0,0:0:0:0:
182,192,86081,1,0,0:0:0:0:
182,192,86231,1,0,0:0:0:0:
329,192,86231,1,0,0:0:0:0:
402,192,86306,1,0,0:0:0:0:
256,192,86306,1,0,0:0:0:0:
475,192,86381,1,0,0:0:0:0:
36,192,86381,1,0,0:0:0:0:
329,192,86381,1,0,0:0:0:0:
402,192,86456,1,0,0:0:0:0:
329,192,86531,1,0,0:0:0:0:
36,192,86531,1,0,0:0:0:0:
182,192,86606,1,0,0:0:0:0:
475,192,86606,1,0,0:0:0:0:
256,192,86681,1,0,0:0:0:0:
36,192,86681,1,0,0:0:0:0:
182,192,86756,1,0,0:0:0:0:
402,192,86756,1,0,0:0:0:0:
36,192,86831,1,0,0:0:0:0:
475,192,86831,1,0,0:0:0:0:
182,192,86906,1,0,0:0:0:0:
329,192,86906,1,0,0:0:0:0:
402,192,86981,1,0,0:0:0:0:
109,192,86981,1,0,0:0:0:0:
256,192,87056,1,0,0:0:0:0:
109,192,87131,1,0,0:0:0:0:
402,192,87131,1,0,0:0:0:0:
256,192,87206,1,0,0:0:0:0:
109,192,87281,1,0,0:0:0:0:
402,192,87281,1,0,0:0:0:0:
36,192,87581,1,0,0:0:0:0:
182,192,87581,1,0,0:0:0:0:
329,192,87581,1,0,0:0:0:0:
402,192,87731,1,0,0:0:0:0:
256,192,87731,1,0,0:0:0:0:
109,192,87881,1,0,0:0:0:0:
329,192,87881,1,0,0:0:0:0:
475,192,87881,1,0,0:0:0:0:
402,192,88031,1,0,0:0:0:0:
36,192,88181,1,0,0:0:0:0:
475,192,88181,1,0,0:0:0:0:
256,192,88181,1,0,0:0:0:0:
182,192,88181,1,0,0:0:0:0:
109,192,88331,1,0,0:0:0:0:
402,192,88331,1,0,0:0:0:0:
36,192,88481,1,0,0:0:0:0:
109,192,88481,1,0,0:0:0:0:
256,192,88481,1,0,0:0:0:0:
475,192,88631,1,0,0:0:0:0:
402,192,88631,1,0,0:0:0:0:
182,192,88781,1,0,0:0:0:0:
109,192,88781,1,0,0:0:0:0:
329,192,88781,1,0,0:0:0:0:
402,192,88931,1,0,0:0:0:0:
256,192,88931,1,0,0:0:0:0:
109,192,89081,1,0,0:0:0:0:
475,192,89081,1,0,0:0:0:0:
329,192,89081,1,0,0:0:0:0:
402,192,89231,1,0,0:0:0:0:
36,192,89381,1,0,0:0:0:0:
182,192,89381,1,0,0:0:0:0:
256,192,89381,1,0,0:0:0:0:
475,192,89381,1,0,0:0:0:0:
109,192,89531,1,0,0:0:0:0:
109,192,89681,1,0,0:0:0:0:
36,192,89681,1,0,0:0:0:0:
256,192,89681,1,0,0:0:0:0:
402,192,89831,1,0,0:0:0:0:
36,192,89981,1,0,0:0:0:0:
182,192,89981,1,0,0:0:0:0:
329,192,89981,1,0,0:0:0:0:
402,192,90131,1,0,0:0:0:0:
256,192,90131,1,0,0:0:0:0:
109,192,90281,1,0,0:0:0:0:
329,192,90281,1,0,0:0:0:0:
475,192,90281,1,0,0:0:0:0:
402,192,90431,1,0,0:0:0:0:
182,192,90581,1,0,0:0:0:0:
36,192,90581,1,0,0:0:0:0:
256,192,90581,1,0,0:0:0:0:
475,192,90581,1,0,0:0:0:0:
329,192,90731,1,0,0:0:0:0:
182,192,90881,1,0,0:0:0:0:
36,192,90881,1,0,0:0:0:0:
475,192,90881,1,0,0:0:0:0:
329,192,91031,1,0,0:0:0:0:
475,192,91106,1,0,0:0:0:0:
182,192,91181,1,0,0:0:0:0:
36,192,91181,1,0,0:0:0:0:
402,192,91181,1,0,0:0:0:0:
475,192,91331,1,0,0:0:0:0:
329,192,91331,1,0,0:0:0:0:
109,192,91481,1,0,0:0:0:0:
402,192,91481,1,0,0:0:0:0:
256,192,91481,1,0,0:0:0:0:
182,192,91631,1,0,0:0:0:0:
36,192,91781,1,0,0:0:0:0:
256,192,91781,1,0,0:0:0:0:
475,192,91781,1,0,0:0:0:0:
329,192,91781,1,0,0:0:0:0:
109,192,91931,1,0,0:0:0:0:
182,192,92081,1,0,0:0:0:0:
475,192,92081,1,0,0:0:0:0:
402,192,92081,1,0,0:0:0:0:
36,192,92231,1,0,0:0:0:0:
109,192,92381,1,0,0:0:0:0:
182,192,92381,1,0,0:0:0:0:
329,192,92381,1,0,0:0:0:0:
256,192,92531,1,0,0:0:0:0:
402,192,92531,1,0,0:0:0:0:
109,192,92681,1,0,0:0:0:0:
329,192,92681,1,0,0:0:0:0:
475,192,92681,1,0,0:0:0:0:
402,192,92831,1,0,0:0:0:0:
36,192,92981,1,0,0:0:0:0:
256,192,92981,1,0,0:0:0:0:
475,192,92981,1,0,0:0:0:0:
329,192,92981,1,0,0:0:0:0:
109,192,93131,1,0,0:0:0:0:
182,192,93131,1,0,0:0:0:0:
109,192,93281,1,0,0:0:0:0:
475,192,93281,1,0,0:0:0:0:
402,192,93281,1,0,0:0:0:0:
256,192,93431,1,0,0:0:0:0:
36,192,93431,1,0,0:0:0:0:
182,192,93581,1,0,0:0:0:0:
329,192,93581,1,0,0:0:0:0:
256,192,93731,1,0,0:0:0:0:
402,192,93731,1,0,0:0:0:0:
109,192,93881,1,0,0:0:0:0:
475,192,93881,1,0,0:0:0:0:
329,192,93881,1,0,0:0:0:0:
402,192,94031,1,0,0:0:0:0:
109,192,94181,1,0,0:0:0:0:
256,192,94181,1,0,0:0:0:0:
329,192,94181,1,0,0:0:0:0:
475,192,94181,1,0,0:0:0:0:
36,192,94331,1,0,0:0:0:0:
182,192,94481,1,0,0:0:0:0:
329,192,94481,1,0,0:0:0:0:
475,192,94481,1,0,0:0:0:0:
109,192,94631,1,0,0:0:0:0:
109,192,94781,1,0,0:0:0:0:
256,192,94781,1,0,0:0:0:0:
402,192,94781,1,0,0:0:0:0:
475,192,94781,1,0,0:0:0:0:
36,192,94931,1,0,0:0:0:0:
329,192,94931,1,0,0:0:0:0:
182,192,95081,1,0,0:0:0:0:
402,192,95081,1,0,0:0:0:0:
475,192,95231,1,0,0:0:0:0:
109,192,95381,1,0,0:0:0:0:
182,192,95381,1,0,0:0:0:0:
329,192,95381,1,0,0:0:0:0:
402,192,95381,1,0,0:0:0:0:
36,192,95531,1,0,0:0:0:0:
182,192,95681,1,0,0:0:0:0:
475,192,95681,1,0,0:0:0:0:
329,192,95681,1,0,0:0:0:0:
36,192,95831,1,0,0:0:0:0:
402,192,95906,1,0,0:0:0:0:
182,192,95981,1,0,0:0:0:0:
329,192,95981,1,0,0:0:0:0:
475,192,95981,1,0,0:0:0:0:
109,192,96131,1,0,0:0:0:0:
256,192,96131,1,0,0:0:0:0:
36,192,96281,1,0,0:0:0:0:
182,192,96281,1,0,0:0:0:0:
475,192,96281,1,0,0:0:0:0:
402,192,96431,1,0,0:0:0:0:
475,192,96581,1,0,0:0:0:0:
256,192,96618,1,0,0:0:0:0:
36,192,96656,1,0,0:0:0:0:
329,192,96693,1,0,0:0:0:0:
109,192,96731,1,0,0:0:0:0:
402,192,96768,1,0,0:0:0:0:
182,192,96806,1,0,0:0:0:0:
475,192,96843,1,0,0:0:0:0:
256,192,96881,1,0,0:0:0:0:
402,192,96918,1,0,0:0:0:0:
182,192,96956,1,0,0:0:0:0:
329,192,96993,1,0,0:0:0:0:
109,192,97031,1,0,0:0:0:0:
256,192,97068,1,0,0:0:0:0:
36,192,97106,1,0,0:0:0:0:
182,192,97143,1,0,0:0:0:0:
329,192,97181,1,0,0:0:0:0:
402,192,97181,1,0,0:0:0:0:
475,192,97181,1,0,0:0:0:0:
182,192,97481,1,0,0:0:0:0:
256,192,97481,1,0,0:0:0:0:
36,192,97781,1,0,0:0:0:0:
109,192,97781,1,0,0:0:0:0:
256,192,97931,1,0,0:0:0:0:
182,192,97931,1,0,0:0:0:0:
402,192,98006,1,0,0:0:0:0:
329,192,98006,1,0,0:0:0:0:
109,192,98081,1,0,0:0:0:0:
36,192,98081,1,0,0:0:0:0:
182,192,98231,1,0,0:0:0:0:
256,192,98231,1,0,0:0:0:0:
329,192,98381,1,0,0:0:0:0:
402,192,98381,1,0,0:0:0:0:
475,192,98381,1,0,0:0:0:0:
109,192,98681,1,0,0:0:0:0:
36,192,98681,1,0,0:0:0:0:
182,192,98831,1,0,0:0:0:0:
256,192,98831,1,0,0:0:0:0:
109,192,98981,1,0,0:0:0:0:
36,192,98981,1,0,0:0:0:0:
329,192,98981,1,0,0:0:0:0:
402,192,98981,1,0,0:0:0:0:
329,192,99581,1,0,0:0:0:0:
402,192,99581,1,0,0:0:0:0:
475,192,99581,1,0,0:0:0:0:
182,192,99881,1,0,0:0:0:0:
256,192,99881,1,0,0:0:0:0:
109,192,100181,1,0,0:0:0:0:
36,192,100181,1,0,0:0:0:0:
256,192,100331,1,0,0:0:0:0:
182,192,100331,1,0,0:0:0:0:
402,192,100406,1,0,0:0:0:0:
329,192,100406,1,0,0:0:0:0:
109,192,100481,1,0,0:0:0:0:
36,192,100481,1,0,0:0:0:0:
182,192,100631,1,0,0:0:0:0:
256,192,100631,1,0,0:0:0:0:
329,192,100781,1,0,0:0:0:0:
402,192,100781,1,0,0:0:0:0:
475,192,100781,1,0,0:0:0:0:
402,192,101081,1,0,0:0:0:0:
475,192,101081,1,0,0:0:0:0:
329,192,101081,1,0,0:0:0:0:
256,192,101231,1,0,0:0:0:0:
109,192,101381,1,0,0:0:0:0:
182,192,101381,1,0,0:0:0:0:
475,192,101381,1,0,0:0:0:0:
402,192,101381,1,0,0:0:0:0:
36,192,101531,1,0,0:0:0:0:
109,192,101531,1,0,0:0:0:0:
329,192,101531,1,0,0:0:0:0:
402,192,101681,1,0,0:0:0:0:
36,192,101681,1,0,0:0:0:0:
256,192,101681,1,0,0:0:0:0:
475,192,101681,1,0,0:0:0:0:
329,192,101831,1,0,0:0:0:0:
402,192,101831,1,0,0:0:0:0:
182,192,101831,1,0,0:0:0:0:
182,192,101981,1,0,0:0:0:0:
475,192,101981,1,0,0:0:0:0:
109,192,101981,1,0,0:0:0:0:
402,192,102131,1,0,0:0:0:0:
36,192,102131,1,0,0:0:0:0:
109,192,102131,1,0,0:0:0:0:
329,192,102281,1,0,0:0:0:0:
475,192,102281,1,0,0:0:0:0:
182,192,102281,1,0,0:0:0:0:
256,192,102281,1,0,0:0:0:0:
182,192,102431,1,0,0:0:0:0:
402,192,102431,1,0,0:0:0:0:
109,192,102431,1,0,0:0:0:0:
36,192,102581,1,0,0:0:0:0:
475,192,102581,1,0,0:0:0:0:
182,192,102581,1,0,0:0:0:0:
329,192,102581,1,0,0:0:0:0:
402,192,102731,1,0,0:0:0:0:
109,192,102731,1,0,0:0:0:0:
329,192,102731,1,0,0:0:0:0:
256,192,102881,1,0,0:0:0:0:
329,192,102881,1,0,0:0:0:0:
36,192,102881,1,0,0:0:0:0:
182,192,102881,1,0,0:0:0:0:
402,192,103031,1,0,0:0:0:0:
475,192,103031,1,0,0:0:0:0:
256,192,103031,1,0,0:0:0:0:
402,192,103181,1,0,0:0:0:0:
109,192,103181,1,0,0:0:0:0:
182,192,103181,1,0,0:0:0:0:
109,192,103331,1,0,0:0:0:0:
36,192,103331,1,0,0:0:0:0:
329,192,103331,1,0,0:0:0:0:
36,192,103481,1,0,0:0:0:0:
256,192,103481,1,0,0:0:0:0:
475,192,103481,1,0,0:0:0:0:
182,192,103481,1,0,0:0:0:0:
109,192,103631,1,0,0:0:0:0:
182,192,103631,1,0,0:0:0:0:
402,192,103631,1,0,0:0:0:0:
109,192,103781,1,0,0:0:0:0:
36,192,103781,1,0,0:0:0:0:
329,192,103781,1,0,0:0:0:0:
402,192,103781,1,0,0:0:0:0:
256,192,103781,1,0,0:0:0:0:
36,192,104231,1,0,0:0:0:0:
182,192,104231,1,0,0:0:0:0:
36,192,104381,1,0,0:0:0:0:
182,192,104381,1,0,0:0:0:0:
256,192,104381,1,0,0:0:0:0:
402,192,104381,1,0,0:0:0:0:
109,192,104381,1,0,0:0:0:0:
329,192,104681,1,0,0:0:0:0:
475,192,104681,1,0,0:0:0:0:
475,192,104831,1,0,0:0:0:0:
329,192,104831,1,0,0:0:0:0:
402,192,104981,1,0,0:0:0:0:
256,192,104981,1,0,0:0:0:0:
182,192,104981,1,0,0:0:0:0:
36,192,104981,1,0,0:0:0:0:
109,192,104981,1,0,0:0:0:0:
329,192,105131,1,0,0:0:0:0:
475,192,105131,1,0,0:0:0:0:
402,192,105206,1,0,0:0:0:0:
256,192,105206,1,0,0:0:0:0:
329,192,105281,1,0,0:0:0:0:
182,192,105281,1,0,0:0:0:0:
36,192,105281,1,0,0:0:0:0:
109,192,105431,1,0,0:0:0:0:
256,192,105431,1,0,0:0:0:0:
182,192,105506,1,0,0:0:0:0:
329,192,105506,1,0,0:0:0:0:
256,192,105581,1,0,0:0:0:0:
402,192,105581,1,0,0:0:0:0:
475,192,105581,1,0,0:0:0:0:
36,192,105731,1,0,0:0:0:0:
329,192,105731,1,0,0:0:0:0:
182,192,105806,1,0,0:0:0:0:
329,192,105881,1,0,0:0:0:0:
475,192,105881,1,0,0:0:0:0:
182,192,105956,1,0,0:0:0:0:
329,192,106031,1,0,0:0:0:0:
475,192,106031,1,0,0:0:0:0:
182,192,106106,1,0,0:0:0:0:
256,192,106181,1,0,0:0:0:0:
109,192,106181,1,0,0:0:0:0:
402,192,106181,128,0,106481:0:0:0:0:
329,192,106331,1,0,0:0:0:0:
182,192,106481,128,0,106781:0:0:0:0:
256,192,106631,1,0,0:0:0:0:
402,192,106781,128,0,107081:0:0:0:0:
329,192,106931,1,0,0:0:0:0:
182,192,107081,128,0,107381:0:0:0:0:
256,192,107231,1,0,0:0:0:0:
329,192,107381,128,0,107681:0:0:0:0:
256,192,107531,1,0,0:0:0:0:
109,192,107681,128,0,107981:0:0:0:0:
182,192,107831,1,0,0:0:0:0:
329,192,107981,128,0,108281:0:0:0:0:
256,192,108131,1,0,0:0:0:0:
109,192,108281,128,0,108581:0:0:0:0:
182,192,108431,1,0,0:0:0:0:
402,192,108581,128,0,108881:0:0:0:0:
329,192,108731,1,0,0:0:0:0:
256,192,108881,128,0,109181:0:0:0:0:
475,192,109031,1,0,0:0:0:0:
402,192,109181,128,0,109481:0:0:0:0:
475,192,109331,1,0,0:0:0:0:
256,192,109481,128,0,109781:0:0:0:0:
329,192,109631,1,0,0:0:0:0:
182,192,109781,128,0,110081:0:0:0:0:
109,192,109931,1,0,0:0:0:0:
36,192,110081,128,0,110381:0:0:0:0:
256,192,110231,1,0,0:0:0:0:
182,192,110381,128,0,110681:0:0:0:0:
109,192,110531,1,0,0:0:0:0:
36,192,110681,128,0,110981:0:0:0:0:
256,192,110831,1,0,0:0:0:0:
329,192,110981,128,0,111281:0:0:0:0:
402,192,111131,1,0,0:0:0:0:
475,192,111281,128,0,111581:0:0:0:0:
256,192,111431,1,0,0:0:0:0:
329,192,111581,128,0,111881:0:0:0:0:
402,192,111731,1,0,0:0:0:0:
475,192,111881,128,0,112181:0:0:0:0:
256,192,112031,1,0,0:0:0:0:
109,192,112181,128,0,112481:0:0:0:0:
182,192,112331,1,0,0:0:0:0:
256,192,112481,128,0,112781:0:0:0:0:
36,192,112631,1,0,0:0:0:0:
109,192,112781,128,0,113081:0:0:0:0:
182,192,112931,1,0,0:0:0:0:
256,192,113081,128,0,113381:0:0:0:0:
36,192,113231,1,0,0:0:0:0:
475,192,113381,128,0,113981:0:0:0:0:
182,192,113381,128,0,113681:0:0:0:0:
256,192,113531,1,0,0:0:0:0:
109,192,113681,128,0,113981:0:0:0:0:
36,192,113831,1,0,0:0:0:0:
329,192,113981,128,0,114581:0:0:0:0:
182,192,113981,128,0,114281:0:0:0:0:
109,192,114131,1,0,0:0:0:0:
36,192,114281,128,0,114581:0:0:0:0:
256,192,114431,1,0,0:0:0:0:
182,192,114581,128,0,115181:0:0:0:0:
402,192,114581,128,0,114881:0:0:0:0:
329,192,114731,1,0,0:0:0:0:
475,192,114881,128,0,115181:0:0:0:0:
256,192,115031,1,0,0:0:0:0:
329,192,115181,128,0,115481:0:0:0:0:
109,192,115181,128,0,115781:0:0:0:0:
475,192,115331,1,0,0:0:0:0:
402,192,115481,128,0,115781:0:0:0:0:
329,192,115631,1,0,0:0:0:0:
36,192,115781,1,0,0:0:0:0:
475,192,115781,1,0,0:0:0:0:
256,192,115781,128,0,116081:0:0:0:0:
329,192,115931,1,0,0:0:0:0:
36,192,116081,1,0,0:0:0:0:
402,192,116081,128,0,116381:0:0:0:0:
329,192,116231,1,0,0:0:0:0:
36,192,116381,1,0,0:0:0:0:
256,192,116381,128,0,116681:0:0:0:0:
329,192,116531,1,0,0:0:0:0:
36,192,116681,1,0,0:0:0:0:
402,192,116681,128,0,116981:0:0:0:0:
329,192,116831,1,0,0:0:0:0:
109,192,116981,1,0,0:0:0:0:
182,192,116981,128,0,117281:0:0:0:0:
256,192,117131,1,0,0:0:0:0:
109,192,117281,1,0,0:0:0:0:
402,192,117281,128,0,117581:0:0:0:0:
329,192,117431,1,0,0:0:0:0:
109,192,117581,1,0,0:0:0:0:
182,192,117581,128,0,117881:0:0:0:0:
329,192,117731,1,0,0:0:0:0:
109,192,117881,1,0,0:0:0:0:
402,192,117881,128,0,118181:0:0:0:0:
329,192,118031,1,0,0:0:0:0:
36,192,118181,1,0,0:0:0:0:
182,192,118181,128,0,118481:0:0:0:0:
256,192,118331,1,0,0:0:0:0:
36,192,118481,1,0,0:0:0:0:
329,192,118481,128,0,118781:0:0:0:0:
256,192,118631,1,0,0:0:0:0:
475,192,118781,1,0,0:0:0:0:
182,192,118781,128,0,119081:0:0:0:0:
256,192,118931,1,0,0:0:0:0:
475,192,119081,1,0,0:0:0:0:
329,192,119081,128,0,119381:0:0:0:0:
256,192,119231,1,0,0:0:0:0:
402,192,119381,1,0,0:0:0:0:
109,192,119381,128,0,119681:0:0:0:0:
182,192,119381,1,0,0:0:0:0:
36,192,119531,1,0,0:0:0:0:
182,192,119681,1,0,0:0:0:0:
256,192,119681,128,0,119981:0:0:0:0:
329,192,119756,1,0,0:0:0:0:
182,192,119981,1,0,0:0:0:0:
109,192,119981,128,0,120281:0:0:0:0:
36,192,120131,1,0,0:0:0:0:
182,192,120281,1,0,0:0:0:0:
256,192,120281,128,0,120581:0:0:0:0:
329,192,120431,1,0,0:0:0:0:
475,192,120581,1,0,0:0:0:0:
36,192,120581,128,0,120881:0:0:0:0:
109,192,120731,1,0,0:0:0:0:
475,192,120881,1,0,0:0:0:0:
182,192,120881,128,0,121181:0:0:0:0:
109,192,121031,1,0,0:0:0:0:
475,192,121181,1,0,0:0:0:0:
36,192,121181,128,0,121481:0:0:0:0:
109,192,121331,1,0,0:0:0:0:
475,192,121481,1,0,0:0:0:0:
182,192,121481,128,0,121781:0:0:0:0:
256,192,121631,1,0,0:0:0:0:
36,192,121781,1,0,0:0:0:0:
329,192,121781,128,0,122081:0:0:0:0:
402,192,121931,1,0,0:0:0:0:
36,192,122081,1,0,0:0:0:0:
475,192,122081,128,0,122381:0:0:0:0:
402,192,122231,1,0,0:0:0:0:
36,192,122381,1,0,0:0:0:0:
329,192,122381,128,0,122681:0:0:0:0:
402,192,122531,1,0,0:0:0:0:
36,192,122681,1,0,0:0:0:0:
475,192,122681,128,0,122981:0:0:0:0:
402,192,122831,1,0,0:0:0:0:
329,192,122981,1,0,0:0:0:0:
36,192,122981,1,0,0:0:0:0:
256,192,122981,1,0,0:0:0:0:
109,192,122981,1,0,0:0:0:0:
109,192,123431,1,0,0:0:0:0:
256,192,123581,1,0,0:0:0:0:
402,192,123581,1,0,0:0:0:0:
182,192,123581,1,0,0:0:0:0:
475,192,123581,1,0,0:0:0:0:
182,192,123881,1,0,0:0:0:0:
402,192,123881,1,0,0:0:0:0:
256,192,124031,1,0,0:0:0:0:
109,192,124031,1,0,0:0:0:0:
36,192,124181,1,0,0:0:0:0:
182,192,124181,1,0,0:0:0:0:
329,192,124181,1,0,0:0:0:0:
475,192,124181,1,0,0:0:0:0:
109,192,124331,1,0,0:0:0:0:
402,192,124331,1,0,0:0:0:0:
256,192,124406,1,0,0:0:0:0:
36,192,124481,1,0,0:0:0:0:
182,192,124481,1,0,0:0:0:0:
402,192,124481,1,0,0:0:0:0:
475,192,124481,1,0,0:0:0:0:
475,192,124631,1,0,0:0:0:0:
182,192,124631,1,0,0:0:0:0:
329,192,124706,1,0,0:0:0:0:
475,192,124781,1,0,0:0:0:0:
182,192,124781,1,0,0:0:0:0:
109,192,124818,1,0,0:0:0:0:
402,192,124818,1,0,0:0:0:0:
36,192,124856,1,0,0:0:0:0:
329,192,124856,1,0,0:0:0:0:
182,192,125081,1,0,0:0:0:0:
402,192,125081,1,0,0:0:0:0:
329,192,125156,1,0,0:0:0:0:
109,192,125156,1,0,0:0:0:0:
182,192,125231,1,0,0:0:0:0:
402,192,125231,1,0,0:0:0:0:
329,192,125306,1,0,0:0:0:0:
109,192,125306,1,0,0:0:0:0:
475,192,125381,1,0,0:0:0:0:
402,192,125381,1,0,0:0:0:0:
256,192,125381,1,0,0:0:0:0:
36,192,125381,1,0,0:0:0:0:
182,192,125456,1,0,0:0:0:0:
109,192,125531,1,0,0:0:0:0:
256,192,125531,1,0,0:0:0:0:
402,192,125606,1,0,0:0:0:0:
475,192,125681,1,0,0:0:0:0:
329,192,125681,1,0,0:0:0:0:
182,192,125681,1,0,0:0:0:0:
402,192,125756,1,0,0:0:0:0:
109,192,125831,1,0,0:0:0:0:
256,192,125831,1,0,0:0:0:0:
329,192,125906,1,0,0:0:0:0:
475,192,125981,1,0,0:0:0:0:
36,192,125981,1,0,0:0:0:0:
256,192,125981,1,0,0:0:0:0:
182,192,126056,1,0,0:0:0:0:
329,192,126131,1,0,0:0:0:0:
109,192,126131,1,0,0:0:0:0:
256,192,126206,1,0,0:0:0:0:
475,192,126281,1,0,0:0:0:0:
182,192,126281,1,0,0:0:0:0:
402,192,126281,1,0,0:0:0:0:
329,192,126356,1,0,0:0:0:0:
109,192,126431,1,0,0:0:0:0:
256,192,126431,1,0,0:0:0:0:
182,192,126506,1,0,0:0:0:0:
475,192,126581,1,0,0:0:0:0:
36,192,126581,1,0,0:0:0:0:
329,192,126581,1,0,0:0:0:0:
402,192,126581,1,0,0:0:0:0:
182,192,126656,1,0,0:0:0:0:
109,192,126731,1,0,0:0:0:0:
329,192,126731,1,0,0:0:0:0:
256,192,126806,1,0,0:0:0:0:
402,192,126806,1,0,0:0:0:0:
475,192,126881,1,0,0:0:0:0:
182,192,126881,1,0,0:0:0:0:
329,192,126956,1,0,0:0:0:0:
109,192,127031,1,0,0:0:0:0:
256,192,127031,1,0,0:0:0:0:
329,192,127106,1,0,0:0:0:0:
182,192,127106,1,0,0:0:0:0:
475,192,127181,1,0,0:0:0:0:
36,192,127181,1,0,0:0:0:0:
256,192,127181,1,0,0:0:0:0:
402,192,127181,1,0,0:0:0:0:
109,192,127256,1,0,0:0:0:0:
182,192,127331,1,0,0:0:0:0:
329,192,127331,1,0,0:0:0:0:
36,192,127406,1,0,0:0:0:0:
109,192,127481,1,0,0:0:0:0:
329,192,127481,1,0,0:0:0:0:
475,192,127481,1,0,0:0:0:0:
402,192,127556,1,0,0:0:0:0:
256,192,127556,1,0,0:0:0:0:
36,192,127631,1,0,0:0:0:0:
182,192,127631,1,0,0:0:0:0:
109,192,127706,1,0,0:0:0:0:
329,192,127706,1,0,0:0:0:0:
475,192,127781,1,0,0:0:0:0:
256,192,127781,1,0,0:0:0:0:
36,192,127781,1,0,0:0:0:0:
182,192,127781,1,0,0:0:0:0:
329,192,127856,1,0,0:0:0:0:
109,192,127931,1,0,0:0:0:0:
402,192,127931,1,0,0:0:0:0:
329,192,128006,1,0,0:0:0:0:
475,192,128081,1,0,0:0:0:0:
182,192,128081,1,0,0:0:0:0:
402,192,128081,1,0,0:0:0:0:
256,192,128156,1,0,0:0:0:0:
109,192,128231,1,0,0:0:0:0:
329,192,128231,1,0,0:0:0:0:
402,192,128306,1,0,0:0:0:0:
475,192,128381,1,0,0:0:0:0:
36,192,128381,1,0,0:0:0:0:
329,192,128381,1,0,0:0:0:0:
182,192,128456,1,0,0:0:0:0:
256,192,128531,1,0,0:0:0:0:
109,192,128606,1,0,0:0:0:0:
475,192,128681,1,0,0:0:0:0:
182,192,128681,1,0,0:0:0:0:
402,192,128681,1,0,0:0:0:0:
36,192,128756,1,0,0:0:0:0:
109,192,128831,1,0,0:0:0:0:
256,192,128831,1,0,0:0:0:0:
329,192,128906,1,0,0:0:0:0:
475,192,128981,1,0,0:0:0:0:
402,192,128981,1,0,0:0:0:0:
182,192,128981,1,0,0:0:0:0:
109,192,129056,1,0,0:0:0:0:
329,192,129056,1,0,0:0:0:0:
182,192,129131,1,0,0:0:0:0:
256,192,129206,1,0,0:0:0:0:
402,192,129206,1,0,0:0:0:0:
329,192,129281,1,0,0:0:0:0:
182,192,129281,1,0,0:0:0:0:
109,192,129356,1,0,0:0:0:0:
182,192,129431,1,0,0:0:0:0:
402,192,129431,1,0,0:0:0:0:
256,192,129506,1,0,0:0:0:0:
329,192,129506,1,0,0:0:0:0:
182,192,129581,1,0,0:0:0:0:
109,192,129656,1,0,0:0:0:0:
329,192,129656,1,0,0:0:0:0:
36,192,129731,1,0,0:0:0:0:
256,192,129731,1,0,0:0:0:0:
182,192,129806,1,0,0:0:0:0:
256,192,129881,1,0,0:0:0:0:
402,192,129881,1,0,0:0:0:0:
329,192,130031,1,0,0:0:0:0:
182,192,130031,1,0,0:0:0:0:
402,192,130181,1,0,0:0:0:0:
36,192,130181,1,0,0:0:0:0:
109,192,130181,1,0,0:0:0:0:
475,192,130181,1,0,0:0:0:0:
329,192,130256,1,0,0:0:0:0:
182,192,130331,1,0,0:0:0:0:
475,192,130331,1,0,0:0:0:0:
402,192,130406,1,0,0:0:0:0:
329,192,130481,1,0,0:0:0:0:
36,192,130481,1,0,0:0:0:0:
256,192,130481,1,0,0:0:0:0:
475,192,130556,1,0,0:0:0:0:
182,192,130631,1,0,0:0:0:0:
402,192,130631,1,0,0:0:0:0:
256,192,130706,1,0,0:0:0:0:
36,192,130781,1,0,0:0:0:0:
329,192,130781,1,0,0:0:0:0:
109,192,130781,1,0,0:0:0:0:
256,192,130856,1,0,0:0:0:0:
182,192,130931,1,0,0:0:0:0:
402,192,130931,1,0,0:0:0:0:
109,192,131006,1,0,0:0:0:0:
256,192,131081,1,0,0:0:0:0:
329,192,131081,1,0,0:0:0:0:
36,192,131081,1,0,0:0:0:0:
109,192,131156,1,0,0:0:0:0:
182,192,131231,1,0,0:0:0:0:
329,192,131306,1,0,0:0:0:0:
36,192,131381,1,0,0:0:0:0:
475,192,131381,1,0,0:0:0:0:
256,192,131381,1,0,0:0:0:0:
402,192,131381,1,0,0:0:0:0:
182,192,131456,1,0,0:0:0:0:
329,192,131531,1,0,0:0:0:0:
36,192,131531,1,0,0:0:0:0:
109,192,131606,1,0,0:0:0:0:
256,192,131681,1,0,0:0:0:0:
182,192,131681,1,0,0:0:0:0:
475,192,131681,1,0,0:0:0:0:
109,192,131756,1,0,0:0:0:0:
329,192,131831,1,0,0:0:0:0:
402,192,131831,1,0,0:0:0:0:
36,192,131906,1,0,0:0:0:0:
475,192,131981,1,0,0:0:0:0:
182,192,131981,1,0,0:0:0:0:
109,192,131981,1,0,0:0:0:0:
256,192,132056,1,0,0:0:0:0:
329,192,132131,1,0,0:0:0:0:
36,192,132131,1,0,0:0:0:0:
402,192,132206,1,0,0:0:0:0:
109,192,132206,1,0,0:0:0:0:
256,192,132281,1,0,0:0:0:0:
182,192,132281,1,0,0:0:0:0:
475,192,132281,1,0,0:0:0:0:
402,192,132356,1,0,0:0:0:0:
36,192,132356,1,0,0:0:0:0:
329,192,132431,1,0,0:0:0:0:
109,192,132431,1,0,0:0:0:0:
182,192,132506,1,0,0:0:0:0:
402,192,132506,1,0,0:0:0:0:
475,192,132581,1,0,0:0:0:0:
36,192,132581,1,0,0:0:0:0:
256,192,132581,1,0,0:0:0:0:
329,192,132581,1,0,0:0:0:0:
109,192,132656,1,0,0:0:0:0:
182,192,132731,1,0,0:0:0:0:
402,192,132731,1,0,0:0:0:0:
329,192,132806,1,0,0:0:0:0:
256,192,132881,1,0,0:0:0:0:
36,192,132881,1,0,0:0:0:0:
475,192,132881,1,0,0:0:0:0:
182,192,132956,1,0,0:0:0:0:
109,192,133031,1,0,0:0:0:0:
329,192,133031,1,0,0:0:0:0:
402,192,133106,1,0,0:0:0:0:
475,192,133181,1,0,0:0:0:0:
36,192,133181,1,0,0:0:0:0:
256,192,133181,1,0,0:0:0:0:
182,192,133181,1,0,0:0:0:0:
402,192,133256,1,0,0:0:0:0:
329,192,133331,1,0,0:0:0:0:
109,192,133331,1,0,0:0:0:0:
182,192,133406,1,0,0:0:0:0:
36,192,133481,1,0,0:0:0:0:
256,192,133481,1,0,0:0:0:0:
475,192,133481,1,0,0:0:0:0:
329,192,133556,1,0,0:0:0:0:
402,192,133631,1,0,0:0:0:0:
182,192,133631,1,0,0:0:0:0:
109,192,133706,1,0,0:0:0:0:
36,192,133781,1,0,0:0:0:0:
475,192,133781,1,0,0:0:0:0:
329,192,133781,1,0,0:0:0:0:
256,192,133781,1,0,0:0:0:0:
182,192,133856,1,0,0:0:0:0:
109,192,133931,1,0,0:0:0:0:
402,192,133931,1,0,0:0:0:0:
182,192,134006,1,0,0:0:0:0:
256,192,134081,1,0,0:0:0:0:
329,192,134081,1,0,0:0:0:0:
475,192,134081,1,0,0:0:0:0:
36,192,134081,1,0,0:0:0:0:
109,192,134156,1,0,0:0:0:0:
182,192,134231,1,0,0:0:0:0:
402,192,134231,1,0,0:0:0:0:
109,192,134306,1,0,0:0:0:0:
36,192,134381,1,0,0:0:0:0:
402,192,134381,1,0,0:0:0:0:
475,192,134381,1,0,0:0:0:0:
182,192,134381,1,0,0:0:0:0:
329,192,134456,1,0,0:0:0:0:
256,192,134531,1,0,0:0:0:0:
109,192,134531,1,0,0:0:0:0:
329,192,134606,1,0,0:0:0:0:
475,192,134681,1,0,0:0:0:0:
182,192,134681,1,0,0:0:0:0:
402,192,134681,1,0,0:0:0:0:
36,192,134681,1,0,0:0:0:0:
256,192,134756,1,0,0:0:0:0:
329,192,134831,1,0,0:0:0:0:
109,192,134831,1,0,0:0:0:0:
256,192,134906,1,0,0:0:0:0:
109,192,134981,1,0,0:0:0:0:
182,192,134981,1,0,0:0:0:0:
475,192,134981,1,0,0:0:0:0:
402,192,134981,1,0,0:0:0:0:
36,192,134981,1,0,0:0:0:0:
329,192,135056,1,0,0:0:0:0:
475,192,135131,1,0,0:0:0:0:
256,192,135131,1,0,0:0:0:0:
36,192,135206,1,0,0:0:0:0:
256,192,135281,1,0,0:0:0:0:
402,192,135281,1,0,0:0:0:0:
109,192,135281,1,0,0:0:0:0:
36,192,135356,1,0,0:0:0:0:
475,192,135431,1,0,0:0:0:0:
329,192,135431,1,0,0:0:0:0:
182,192,135506,1,0,0:0:0:0:
475,192,135581,1,0,0:0:0:0:
256,192,135581,1,0,0:0:0:0:
109,192,135581,1,0,0:0:0:0:
329,192,135656,1,0,0:0:0:0:
182,192,135731,1,0,0:0:0:0:
402,192,135731,1,0,0:0:0:0:
256,192,135806,1,0,0:0:0:0:
329,192,135881,1,0,0:0:0:0:
109,192,135881,1,0,0:0:0:0:
36,192,135881,1,0,0:0:0:0:
182,192,135956,1,0,0:0:0:0:
402,192,136031,1,0,0:0:0:0:
256,192,136031,1,0,0:0:0:0:
329,192,136106,1,0,0:0:0:0:
109,192,136181,1,0,0:0:0:0:
475,192,136181,1,0,0:0:0:0:
182,192,136181,1,0,0:0:0:0:
36,192,136181,1,0,0:0:0:0:
329,192,136256,1,0,0:0:0:0:
402,192,136331,1,0,0:0:0:0:
182,192,136331,1,0,0:0:0:0:
256,192,136406,1,0,0:0:0:0:
36,192,136406,1,0,0:0:0:0:
109,192,136481,1,0,0:0:0:0:
329,192,136481,1,0,0:0:0:0:
182,192,136556,1,0,0:0:0:0:
402,192,136631,1,0,0:0:0:0:
256,192,136631,1,0,0:0:0:0:
182,192,136706,1,0,0:0:0:0:
329,192,136706,1,0,0:0:0:0:
475,192,136781,1,0,0:0:0:0:
109,192,136781,1,0,0:0:0:0:
256,192,136781,1,0,0:0:0:0:
36,192,136781,1,0,0:0:0:0:
402,192,136856,1,0,0:0:0:0:
329,192,136931,1,0,0:0:0:0:
36,192,136931,1,0,0:0:0:0:
475,192,137006,1,0,0:0:0:0:
402,192,137081,1,0,0:0:0:0:
182,192,137081,1,0,0:0:0:0:
36,192,137081,1,0,0:0:0:0:
109,192,137156,1,0,0:0:0:0:
256,192,137156,1,0,0:0:0:0:
475,192,137231,1,0,0:0:0:0:
329,192,137231,1,0,0:0:0:0:
402,192,137306,1,0,0:0:0:0:
36,192,137306,1,0,0:0:0:0:
109,192,137381,1,0,0:0:0:0:
256,192,137381,1,0,0:0:0:0:
475,192,137381,1,0,0:0:0:0:
182,192,137456,1,0,0:0:0:0:
402,192,137531,1,0,0:0:0:0:
36,192,137531,1,0,0:0:0:0:
182,192,137606,1,0,0:0:0:0:
329,192,137681,1,0,0:0:0:0:
109,192,137681,1,0,0:0:0:0:
256,192,137756,1,0,0:0:0:0:
402,192,137831,1,0,0:0:0:0:
182,192,137831,1,0,0:0:0:0:
36,192,137906,1,0,0:0:0:0:
475,192,137981,1,0,0:0:0:0:
109,192,137981,1,0,0:0:0:0:
182,192,137981,1,0,0:0:0:0:
329,192,138056,1,0,0:0:0:0:
256,192,138131,1,0,0:0:0:0:
402,192,138206,1,0,0:0:0:0:
329,192,138281,1,0,0:0:0:0:
109,192,138281,1,0,0:0:0:0:
36,192,138281,1,0,0:0:0:0:
475,192,138356,1,0,0:0:0:0:
402,192,138431,1,0,0:0:0:0:
256,192,138431,1,0,0:0:0:0:
329,192,138506,1,0,0:0:0:0:
402,192,138581,1,0,0:0:0:0:
256,192,138581,1,0,0:0:0:0:
36,192,138581,1,0,0:0:0:0:
109,192,138656,1,0,0:0:0:0:
329,192,138656,1,0,0:0:0:0:
182,192,138731,1,0,0:0:0:0:
256,192,138806,1,0,0:0:0:0:
402,192,138806,1,0,0:0:0:0:
329,192,138881,1,0,0:0:0:0:
182,192,138881,1,0,0:0:0:0:
109,192,138956,1,0,0:0:0:0:
182,192,139031,1,0,0:0:0:0:
402,192,139031,1,0,0:0:0:0:
256,192,139106,1,0,0:0:0:0:
329,192,139106,1,0,0:0:0:0:
182,192,139181,1,0,0:0:0:0:
109,192,139256,1,0,0:0:0:0:
329,192,139256,1,0,0:0:0:0:
36,192,139331,1,0,0:0:0:0:
256,192,139331,1,0,0:0:0:0:
182,192,139406,1,0,0:0:0:0:
256,192,139481,1,0,0:0:0:0:
475,192,139481,1,0,0:0:0:0:
402,192,139631,1,0,0:0:0:0:
182,192,139631,1,0,0:0:0:0:
329,192,139781,1,0,0:0:0:0:
109,192,139781,1,0,0:0:0:0:
36,192,139781,1,0,0:0:0:0:
36,192,139931,1,0,0:0:0:0:
256,192,139931,1,0,0:0:0:0:
182,192,140006,1,0,0:0:0:0:
475,192,140006,1,0,0:0:0:0:
329,192,140006,1,0,0:0:0:0:
109,192,140156,1,0,0:0:0:0:
256,192,140156,1,0,0:0:0:0:
182,192,140231,1,0,0:0:0:0:
329,192,140231,1,0,0:0:0:0:
109,192,140306,1,0,0:0:0:0:
402,192,140306,1,0,0:0:0:0:
36,192,140381,1,0,0:0:0:0:
182,192,140381,1,0,0:0:0:0:
475,192,140381,1,0,0:0:0:0:
109,192,140531,1,0,0:0:0:0:
329,192,140531,1,0,0:0:0:0:
182,192,140606,1,0,0:0:0:0:
256,192,140606,1,0,0:0:0:0:
475,192,140606,1,0,0:0:0:0:
402,192,140756,1,0,0:0:0:0:
109,192,140756,1,0,0:0:0:0:
329,192,140831,1,0,0:0:0:0:
36,192,140831,1,0,0:0:0:0:
256,192,140906,1,0,0:0:0:0:
402,192,140906,1,0,0:0:0:0:
329,192,140981,1,0,0:0:0:0:
182,192,140981,1,0,0:0:0:0:
36,192,140981,1,0,0:0:0:0:
109,192,141131,1,0,0:0:0:0:
256,192,141131,1,0,0:0:0:0:
182,192,141206,1,0,0:0:0:0:
329,192,141206,1,0,0:0:0:0:
475,192,141206,1,0,0:0:0:0:
402,192,141356,1,0,0:0:0:0:
256,192,141356,1,0,0:0:0:0:
36,192,141431,1,0,0:0:0:0:
182,192,141431,1,0,0:0:0:0:
109,192,141506,1,0,0:0:0:0:
256,192,141506,1,0,0:0:0:0:
36,192,141581,1,0,0:0:0:0:
475,192,141581,1,0,0:0:0:0:
329,192,141581,1,0,0:0:0:0:
256,192,141731,1,0,0:0:0:0:
402,192,141731,1,0,0:0:0:0:
36,192,141806,1,0,0:0:0:0:
182,192,141806,1,0,0:0:0:0:
329,192,141806,1,0,0:0:0:0:
475,192,141956,1,0,0:0:0:0:
109,192,141956,1,0,0:0:0:0:
182,192,142031,1,0,0:0:0:0:
402,192,142031,1,0,0:0:0:0:
329,192,142106,1,0,0:0:0:0:
109,192,142106,1,0,0:0:0:0:
36,192,142181,1,0,0:0:0:0:
256,192,142181,1,0,0:0:0:0:
475,192,142181,1,0,0:0:0:0:
402,192,142181,1,0,0:0:0:0:
109,192,142331,1,0,0:0:0:0:
36,192,142481,1,0,0:0:0:0:
182,192,142481,1,0,0:0:0:0:
256,192,142631,1,0,0:0:0:0:
329,192,142781,1,0,0:0:0:0:
36,192,142781,1,0,0:0:0:0:
182,192,142781,1,0,0:0:0:0:
475,192,142781,1,0,0:0:0:0:
256,192,142781,1,0,0:0:0:0:
109,192,142931,1,0,0:0:0:0:
182,192,143081,1,0,0:0:0:0:
36,192,143081,1,0,0:0:0:0:
329,192,143081,1,0,0:0:0:0:
36,192,143231,1,0,0:0:0:0:
256,192,143231,1,0,0:0:0:0:
402,192,143231,1,0,0:0:0:0:
329,192,143381,1,0,0:0:0:0:
256,192,143381,1,0,0:0:0:0:
475,192,143381,1,0,0:0:0:0:
36,192,143381,1,0,0:0:0:0:
182,192,143381,1,0,0:0:0:0:
109,192,143531,1,0,0:0:0:0:
402,192,143531,1,0,0:0:0:0:
256,192,143531,1,0,0:0:0:0:
182,192,143606,1,0,0:0:0:0:
36,192,143606,1,0,0:0:0:0:
109,192,143681,1,0,0:0:0:0:
329,192,143681,1,0,0:0:0:0:
475,192,143681,1,0,0:0:0:0:
109,192,143831,1,0,0:0:0:0:
256,192,143831,1,0,0:0:0:0:
402,192,143831,1,0,0:0:0:0:
329,192,143906,1,0,0:0:0:0:
475,192,143906,1,0,0:0:0:0:
36,192,143981,1,0,0:0:0:0:
182,192,143981,1,0,0:0:0:0:
402,192,143981,1,0,0:0:0:0:
109,192,144131,1,0,0:0:0:0:
329,192,144131,1,0,0:0:0:0:
475,192,144131,1,0,0:0:0:0:
182,192,144206,1,0,0:0:0:0:
256,192,144206,1,0,0:0:0:0:
329,192,144281,1,0,0:0:0:0:
475,192,144281,1,0,0:0:0:0:
36,192,144281,1,0,0:0:0:0:
109,192,144356,1,0,0:0:0:0:
182,192,144356,1,0,0:0:0:0:
402,192,144356,1,0,0:0:0:0:
256,192,144431,1,0,0:0:0:0:
475,192,144431,1,0,0:0:0:0:
36,192,144431,1,0,0:0:0:0:
109,192,144506,1,0,0:0:0:0:
182,192,144506,1,0,0:0:0:0:
329,192,144506,1,0,0:0:0:0:
256,192,144581,1,0,0:0:0:0:
36,192,144581,1,0,0:0:0:0:
475,192,144581,1,0,0:0:0:0:
402,192,144581,1,0,0:0:0:0:
