osu file format v14

[General]
AudioFilename: audio.mp3
AudioLeadIn: 0
PreviewTime: 67731
Countdown: 0
SampleSet: None
StackLeniency: 0.7
Mode: 3
LetterboxInBreaks: 0
SpecialStyle: 0
WidescreenStoryboard: 1

[Editor]
Bookmarks: 29381
DistanceSpacing: 1.1
BeatDivisor: 4
GridSize: 32
TimelineZoom: 2.200001

[Metadata]
Title:Cross Over
TitleUnicode:Cross†Over
Artist:HyuN feat. LyuU
ArtistUnicode:HyuN feat. LyuU
Creator:Arzenvald
Version:4K EX
Source:PUMP IT UP 2018 PRIME 2
Tags:mappers' guild featured artist digital step core
BeatmapID:3628334
BeatmapSetID:905208

[Difficulty]
HPDrainRate:8
CircleSize:4
OverallDifficulty:8
ApproachRate:5
SliderMultiplier:1.4
SliderTickRate:1

[Events]
//Background and Video events
0,0,"BG.jpg",0,0
//Break Periods
//Storyboard Layer 0 (Background)
//Storyboard Layer 1 (Fail)
//Storyboard Layer 2 (Pass)
//Storyboard Layer 3 (Foreground)
//Storyboard Layer 4 (Overlay)
//Storyboard Sound Samples

[TimingPoints]
581,300,4,2,1,85,1,0
67781,-100,4,2,1,85,0,1
86981,-100,4,2,1,85,0,0
125381,-100,4,2,1,85,0,1
144618,-100,4,2,1,85,0,0

[HitObjects]
448,192,581,5,0,0:0:0:0:
64,192,581,128,0,656:0:0:0:0:
192,192,731,128,0,806:0:0:0:0:
320,192,881,128,0,956:0:0:0:0:
64,192,881,1,0,0:0:0:0:
448,192,1031,128,0,1481:0:0:0:0:
64,192,1181,1,0,0:0:0:0:
320,192,1181,1,0,0:0:0:0:
192,192,1331,1,0,0:0:0:0:
320,192,1406,1,0,0:0:0:0:
64,192,1481,1,0,0:0:0:0:
320,192,1556,1,0,0:0:0:0:
64,192,1631,1,0,0:0:0:0:
320,192,1706,1,0,0:0:0:0:
64,192,1781,1,0,0:0:0:0:
192,192,1931,1,0,0:0:0:0:
320,192,1931,1,0,0:0:0:0:
64,192,2081,1,0,0:0:0:0:
192,192,2231,1,0,0:0:0:0:
320,192,2231,1,0,0:0:0:0:
448,192,2381,1,0,0:0:0:0:
320,192,2381,1,0,0:0:0:0:
64,192,2531,1,0,0:0:0:0:
320,192,2606,1,0,0:0:0:0:
448,192,2681,1,0,0:0:0:0:
192,192,2756,1,0,0:0:0:0:
448,192,2831,1,0,0:0:0:0:
192,192,2906,1,0,0:0:0:0:
64,192,2981,128,0,3056:0:0:0:0:
448,192,2981,1,0,0:0:0:0:
192,192,3131,128,0,3206:0:0:0:0:
320,192,3281,128,0,3356:0:0:0:0:
64,192,3281,1,0,0:0:0:0:
448,192,3431,128,0,3881:0:0:0:0:
64,192,3581,1,0,0:0:0:0:
320,192,3581,1,0,0:0:0:0:
192,192,3731,1,0,0:0:0:0:
64,192,3806,1,0,0:0:0:0:
320,192,3881,1,0,0:0:0:0:
192,192,3956,1,0,0:0:0:0:
448,192,4031,1,0,0:0:0:0:
192,192,4106,1,0,0:0:0:0:
448,192,4181,1,0,0:0:0:0:
64,192,4181,128,0,4256:0:0:0:0:
192,192,4331,128,0,4406:0:0:0:0:
64,192,4331,1,0,0:0:0:0:
320,192,4481,128,0,4556:0:0:0:0:
192,192,4631,128,0,5081:0:0:0:0:
448,192,4631,1,0,0:0:0:0:
64,192,4781,1,0,0:0:0:0:
448,192,4931,128,0,5006:0:0:0:0:
320,192,5081,128,0,5156:0:0:0:0:
448,192,5156,1,0,0:0:0:0:
192,192,5231,128,0,5306:0:0:0:0:
64,192,5268,1,0,0:0:0:0:
448,192,5306,1,0,0:0:0:0:
320,192,5343,1,0,0:0:0:0:
64,192,5381,128,0,5456:0:0:0:0:
192,192,5381,1,0,0:0:0:0:
192,192,5531,128,0,5606:0:0:0:0:
320,192,5681,128,0,5756:0:0:0:0:
448,192,5681,1,0,0:0:0:0:
448,192,5831,128,0,6281:0:0:0:0:
320,192,5981,1,0,0:0:0:0:
64,192,5981,1,0,0:0:0:0:
64,192,6131,1,0,0:0:0:0:
320,192,6206,1,0,0:0:0:0:
192,192,6281,1,0,0:0:0:0:
320,192,6356,1,0,0:0:0:0:
192,192,6431,1,0,0:0:0:0:
320,192,6506,1,0,0:0:0:0:
192,192,6581,1,0,0:0:0:0:
64,192,6581,1,0,0:0:0:0:
64,192,6731,1,0,0:0:0:0:
448,192,6731,1,0,0:0:0:0:
192,192,6881,1,0,0:0:0:0:
64,192,7031,1,0,0:0:0:0:
448,192,7031,1,0,0:0:0:0:
320,192,7181,1,0,0:0:0:0:
448,192,7181,1,0,0:0:0:0:
64,192,7331,1,0,0:0:0:0:
320,192,7406,1,0,0:0:0:0:
448,192,7481,1,0,0:0:0:0:
64,192,7556,1,0,0:0:0:0:
448,192,7631,1,0,0:0:0:0:
64,192,7706,1,0,0:0:0:0:
192,192,7781,1,0,0:0:0:0:
448,192,7781,1,0,0:0:0:0:
320,192,7856,1,0,0:0:0:0:
192,192,7931,1,0,0:0:0:0:
64,192,7931,1,0,0:0:0:0:
320,192,8006,1,0,0:0:0:0:
64,192,8081,1,0,0:0:0:0:
448,192,8081,1,0,0:0:0:0:
192,192,8156,1,0,0:0:0:0:
320,192,8231,1,0,0:0:0:0:
448,192,8231,1,0,0:0:0:0:
64,192,8306,1,0,0:0:0:0:
320,192,8381,1,0,0:0:0:0:
192,192,8456,1,0,0:0:0:0:
320,192,8531,1,0,0:0:0:0:
192,192,8606,1,0,0:0:0:0:
448,192,8681,1,0,0:0:0:0:
64,192,8756,1,0,0:0:0:0:
448,192,8831,1,0,0:0:0:0:
64,192,8906,1,0,0:0:0:0:
448,192,8981,1,0,0:0:0:0:
320,192,8999,1,0,0:0:0:0:
448,192,9056,1,0,0:0:0:0:
320,192,9074,1,0,0:0:0:0:
64,192,9131,1,0,0:0:0:0:
192,192,9149,1,0,0:0:0:0:
64,192,9206,1,0,0:0:0:0:
192,192,9224,1,0,0:0:0:0:
448,192,9281,1,0,0:0:0:0:
320,192,9318,1,0,0:0:0:0:
192,192,9356,1,0,0:0:0:0:
64,192,9381,1,0,0:0:0:0:
320,192,9581,128,0,9681:0:0:0:0:
448,192,9581,128,0,9656:0:0:0:0:
192,192,9606,128,0,9881:0:0:0:0:
64,192,9631,128,0,9881:0:0:0:0:
448,192,9881,1,0,0:0:0:0:
320,192,9881,1,0,0:0:0:0:
64,192,9956,1,0,0:0:0:0:
192,192,9956,1,0,0:0:0:0:
448,192,10031,1,0,0:0:0:0:
320,192,10031,1,0,0:0:0:0:
192,192,10106,1,0,0:0:0:0:
64,192,10106,1,0,0:0:0:0:
320,192,10181,1,0,0:0:0:0:
448,192,10181,1,0,0:0:0:0:
192,192,10256,1,0,0:0:0:0:
64,192,10331,1,0,0:0:0:0:
192,192,10406,1,0,0:0:0:0:
448,192,10481,1,0,0:0:0:0:
320,192,10481,1,0,0:0:0:0:
192,192,10556,1,0,0:0:0:0:
64,192,10631,1,0,0:0:0:0:
320,192,10706,1,0,0:0:0:0:
448,192,10706,1,0,0:0:0:0:
192,192,10781,1,0,0:0:0:0:
64,192,10781,1,0,0:0:0:0:
448,192,10856,1,0,0:0:0:0:
320,192,10931,1,0,0:0:0:0:
192,192,10931,1,0,0:0:0:0:
64,192,11006,1,0,0:0:0:0:
320,192,11081,1,0,0:0:0:0:
448,192,11081,1,0,0:0:0:0:
192,192,11156,1,0,0:0:0:0:
320,192,11231,1,0,0:0:0:0:
448,192,11306,1,0,0:0:0:0:
64,192,11381,1,0,0:0:0:0:
192,192,11381,1,0,0:0:0:0:
320,192,11456,1,0,0:0:0:0:
448,192,11531,1,0,0:0:0:0:
320,192,11606,1,0,0:0:0:0:
64,192,11681,1,0,0:0:0:0:
192,192,11681,1,0,0:0:0:0:
320,192,11756,1,0,0:0:0:0:
64,192,11831,1,0,0:0:0:0:
320,192,11906,1,0,0:0:0:0:
448,192,11906,1,0,0:0:0:0:
192,192,11981,1,0,0:0:0:0:
64,192,11981,1,0,0:0:0:0:
448,192,12056,1,0,0:0:0:0:
320,192,12131,1,0,0:0:0:0:
192,192,12131,1,0,0:0:0:0:
64,192,12206,1,0,0:0:0:0:
320,192,12281,1,0,0:0:0:0:
448,192,12281,1,0,0:0:0:0:
192,192,12356,1,0,0:0:0:0:
320,192,12431,1,0,0:0:0:0:
448,192,12506,1,0,0:0:0:0:
64,192,12581,1,0,0:0:0:0:
320,192,12581,1,0,0:0:0:0:
192,192,12656,1,0,0:0:0:0:
448,192,12731,1,0,0:0:0:0:
192,192,12806,1,0,0:0:0:0:
64,192,12881,1,0,0:0:0:0:
320,192,12881,1,0,0:0:0:0:
192,192,12956,1,0,0:0:0:0:
64,192,13031,1,0,0:0:0:0:
320,192,13106,1,0,0:0:0:0:
448,192,13106,1,0,0:0:0:0:
192,192,13181,1,0,0:0:0:0:
64,192,13181,1,0,0:0:0:0:
448,192,13256,1,0,0:0:0:0:
320,192,13331,1,0,0:0:0:0:
192,192,13331,1,0,0:0:0:0:
64,192,13406,1,0,0:0:0:0:
320,192,13481,1,0,0:0:0:0:
448,192,13481,1,0,0:0:0:0:
192,192,13556,1,0,0:0:0:0:
448,192,13631,1,0,0:0:0:0:
64,192,13706,1,0,0:0:0:0:
192,192,13781,1,0,0:0:0:0:
320,192,13781,128,0,14231:0:0:0:0:
448,192,13856,1,0,0:0:0:0:
192,192,13931,1,0,0:0:0:0:
448,192,14006,1,0,0:0:0:0:
192,192,14081,1,0,0:0:0:0:
448,192,14156,1,0,0:0:0:0:
192,192,14231,1,0,0:0:0:0:
64,192,14231,1,0,0:0:0:0:
320,192,14306,1,0,0:0:0:0:
448,192,14306,1,0,0:0:0:0:
64,192,14381,1,0,0:0:0:0:
192,192,14381,1,0,0:0:0:0:
320,192,14456,1,0,0:0:0:0:
64,192,14531,1,0,0:0:0:0:
448,192,14531,1,0,0:0:0:0:
320,192,14606,1,0,0:0:0:0:
192,192,14681,1,0,0:0:0:0:
64,192,14681,1,0,0:0:0:0:
448,192,14756,1,0,0:0:0:0:
320,192,14831,1,0,0:0:0:0:
192,192,14906,1,0,0:0:0:0:
320,192,14981,1,0,0:0:0:0:
448,192,14981,1,0,0:0:0:0:
192,192,15056,1,0,0:0:0:0:
64,192,15131,1,0,0:0:0:0:
192,192,15206,1,0,0:0:0:0:
320,192,15281,1,0,0:0:0:0:
448,192,15281,1,0,0:0:0:0:
192,192,15356,1,0,0:0:0:0:
64,192,15431,1,0,0:0:0:0:
320,192,15506,1,0,0:0:0:0:
448,192,15506,1,0,0:0:0:0:
192,192,15581,1,0,0:0:0:0:
64,192,15581,1,0,0:0:0:0:
448,192,15656,1,0,0:0:0:0:
320,192,15731,1,0,0:0:0:0:
192,192,15731,1,0,0:0:0:0:
64,192,15806,1,0,0:0:0:0:
320,192,15881,1,0,0:0:0:0:
448,192,15881,1,0,0:0:0:0:
192,192,15956,1,0,0:0:0:0:
320,192,16031,1,0,0:0:0:0:
448,192,16106,1,0,0:0:0:0:
192,192,16181,1,0,0:0:0:0:
64,192,16181,1,0,0:0:0:0:
320,192,16256,1,0,0:0:0:0:
448,192,16331,1,0,0:0:0:0:
320,192,16406,1,0,0:0:0:0:
64,192,16481,1,0,0:0:0:0:
192,192,16481,1,0,0:0:0:0:
320,192,16556,1,0,0:0:0:0:
64,192,16631,1,0,0:0:0:0:
320,192,16706,1,0,0:0:0:0:
448,192,16706,1,0,0:0:0:0:
192,192,16781,1,0,0:0:0:0:
64,192,16781,1,0,0:0:0:0:
448,192,16856,1,0,0:0:0:0:
320,192,16931,1,0,0:0:0:0:
192,192,16931,1,0,0:0:0:0:
64,192,17006,1,0,0:0:0:0:
320,192,17081,1,0,0:0:0:0:
448,192,17081,1,0,0:0:0:0:
192,192,17156,1,0,0:0:0:0:
320,192,17231,1,0,0:0:0:0:
448,192,17306,1,0,0:0:0:0:
64,192,17381,1,0,0:0:0:0:
320,192,17381,1,0,0:0:0:0:
192,192,17456,1,0,0:0:0:0:
448,192,17531,1,0,0:0:0:0:
192,192,17606,1,0,0:0:0:0:
64,192,17681,1,0,0:0:0:0:
320,192,17681,1,0,0:0:0:0:
192,192,17756,1,0,0:0:0:0:
64,192,17831,1,0,0:0:0:0:
320,192,17906,1,0,0:0:0:0:
448,192,17906,1,0,0:0:0:0:
192,192,17981,1,0,0:0:0:0:
64,192,17981,1,0,0:0:0:0:
448,192,18056,1,0,0:0:0:0:
320,192,18131,1,0,0:0:0:0:
192,192,18131,1,0,0:0:0:0:
64,192,18206,1,0,0:0:0:0:
448,192,18281,1,0,0:0:0:0:
320,192,18281,1,0,0:0:0:0:
192,192,18356,1,0,0:0:0:0:
320,192,18431,1,0,0:0:0:0:
64,192,18506,1,0,0:0:0:0:
320,192,18581,128,0,19031:0:0:0:0:
448,192,18581,1,0,0:0:0:0:
192,192,18656,1,0,0:0:0:0:
448,192,18731,1,0,0:0:0:0:
192,192,18806,1,0,0:0:0:0:
448,192,18881,1,0,0:0:0:0:
192,192,18956,1,0,0:0:0:0:
448,192,19031,1,0,0:0:0:0:
64,192,19031,1,0,0:0:0:0:
320,192,19106,1,0,0:0:0:0:
192,192,19106,1,0,0:0:0:0:
448,192,19181,1,0,0:0:0:0:
64,192,19181,1,0,0:0:0:0:
320,192,19331,1,0,0:0:0:0:
64,192,19481,1,0,0:0:0:0:
448,192,19481,1,0,0:0:0:0:
448,192,19631,1,0,0:0:0:0:
64,192,19631,1,0,0:0:0:0:
64,192,19781,1,0,0:0:0:0:
192,192,19799,1,0,0:0:0:0:
64,192,19856,1,0,0:0:0:0:
192,192,19874,1,0,0:0:0:0:
448,192,19931,1,0,0:0:0:0:
320,192,19949,1,0,0:0:0:0:
448,192,20006,1,0,0:0:0:0:
320,192,20024,1,0,0:0:0:0:
64,192,20081,1,0,0:0:0:0:
192,192,20118,1,0,0:0:0:0:
320,192,20156,1,0,0:0:0:0:
448,192,20193,1,0,0:0:0:0:
320,192,20381,1,0,0:0:0:0:
192,192,20381,1,0,0:0:0:0:
64,192,20381,1,0,0:0:0:0:
448,192,20456,1,0,0:0:0:0:
320,192,20531,1,0,0:0:0:0:
192,192,20531,1,0,0:0:0:0:
64,192,20606,1,0,0:0:0:0:
320,192,20681,1,0,0:0:0:0:
448,192,20681,1,0,0:0:0:0:
192,192,20756,1,0,0:0:0:0:
64,192,20831,1,0,0:0:0:0:
320,192,20906,1,0,0:0:0:0:
64,192,20981,1,0,0:0:0:0:
192,192,20981,1,0,0:0:0:0:
448,192,21056,1,0,0:0:0:0:
192,192,21131,1,0,0:0:0:0:
448,192,21206,1,0,0:0:0:0:
64,192,21281,1,0,0:0:0:0:
320,192,21281,1,0,0:0:0:0:
192,192,21356,1,0,0:0:0:0:
448,192,21431,1,0,0:0:0:0:
192,192,21506,1,0,0:0:0:0:
64,192,21506,1,0,0:0:0:0:
448,192,21581,1,0,0:0:0:0:
320,192,21581,1,0,0:0:0:0:
64,192,21656,1,0,0:0:0:0:
192,192,21731,1,0,0:0:0:0:
320,192,21731,1,0,0:0:0:0:
448,192,21806,1,0,0:0:0:0:
192,192,21881,1,0,0:0:0:0:
64,192,21881,1,0,0:0:0:0:
448,192,21956,1,0,0:0:0:0:
64,192,22031,1,0,0:0:0:0:
320,192,22106,1,0,0:0:0:0:
448,192,22181,1,0,0:0:0:0:
192,192,22181,1,0,0:0:0:0:
64,192,22256,1,0,0:0:0:0:
320,192,22331,1,0,0:0:0:0:
64,192,22406,1,0,0:0:0:0:
448,192,22481,1,0,0:0:0:0:
192,192,22481,1,0,0:0:0:0:
320,192,22556,1,0,0:0:0:0:
64,192,22631,1,0,0:0:0:0:
320,192,22706,1,0,0:0:0:0:
448,192,22706,1,0,0:0:0:0:
192,192,22781,1,0,0:0:0:0:
64,192,22781,1,0,0:0:0:0:
448,192,22856,1,0,0:0:0:0:
320,192,22931,1,0,0:0:0:0:
192,192,22931,1,0,0:0:0:0:
64,192,23006,1,0,0:0:0:0:
320,192,23081,1,0,0:0:0:0:
448,192,23081,1,0,0:0:0:0:
64,192,23156,1,0,0:0:0:0:
320,192,23231,1,0,0:0:0:0:
192,192,23306,1,0,0:0:0:0:
448,192,23381,128,0,23831:0:0:0:0:
320,192,23381,1,0,0:0:0:0:
64,192,23456,1,0,0:0:0:0:
320,192,23531,1,0,0:0:0:0:
64,192,23606,1,0,0:0:0:0:
320,192,23681,1,0,0:0:0:0:
64,192,23756,1,0,0:0:0:0:
192,192,23831,1,0,0:0:0:0:
320,192,23831,1,0,0:0:0:0:
64,192,23906,1,0,0:0:0:0:
448,192,23906,1,0,0:0:0:0:
320,192,23981,1,0,0:0:0:0:
192,192,23981,1,0,0:0:0:0:
448,192,24056,1,0,0:0:0:0:
64,192,24131,1,0,0:0:0:0:
320,192,24131,1,0,0:0:0:0:
448,192,24206,1,0,0:0:0:0:
192,192,24281,1,0,0:0:0:0:
64,192,24281,1,0,0:0:0:0:
320,192,24356,1,0,0:0:0:0:
64,192,24431,1,0,0:0:0:0:
192,192,24506,1,0,0:0:0:0:
320,192,24581,1,0,0:0:0:0:
64,192,24581,1,0,0:0:0:0:
448,192,24581,1,0,0:0:0:0:
192,192,24656,1,0,0:0:0:0:
320,192,24731,1,0,0:0:0:0:
448,192,24806,1,0,0:0:0:0:
64,192,24881,1,0,0:0:0:0:
320,192,24881,1,0,0:0:0:0:
192,192,24956,1,0,0:0:0:0:
64,192,25031,1,0,0:0:0:0:
448,192,25106,1,0,0:0:0:0:
320,192,25106,1,0,0:0:0:0:
192,192,25181,1,0,0:0:0:0:
64,192,25181,1,0,0:0:0:0:
448,192,25256,1,0,0:0:0:0:
320,192,25331,1,0,0:0:0:0:
64,192,25331,1,0,0:0:0:0:
192,192,25406,1,0,0:0:0:0:
320,192,25481,1,0,0:0:0:0:
448,192,25481,1,0,0:0:0:0:
64,192,25556,1,0,0:0:0:0:
192,192,25631,1,0,0:0:0:0:
320,192,25706,1,0,0:0:0:0:
448,192,25781,1,0,0:0:0:0:
192,192,25781,1,0,0:0:0:0:
64,192,25781,1,0,0:0:0:0:
320,192,25856,1,0,0:0:0:0:
192,192,25931,1,0,0:0:0:0:
64,192,26006,1,0,0:0:0:0:
192,192,26081,1,0,0:0:0:0:
448,192,26081,1,0,0:0:0:0:
320,192,26156,1,0,0:0:0:0:
192,192,26231,1,0,0:0:0:0:
64,192,26306,1,0,0:0:0:0:
320,192,26306,1,0,0:0:0:0:
448,192,26381,1,0,0:0:0:0:
192,192,26381,1,0,0:0:0:0:
320,192,26456,1,0,0:0:0:0:
64,192,26531,1,0,0:0:0:0:
192,192,26531,1,0,0:0:0:0:
320,192,26606,1,0,0:0:0:0:
448,192,26681,1,0,0:0:0:0:
64,192,26681,1,0,0:0:0:0:
192,192,26756,1,0,0:0:0:0:
320,192,26831,1,0,0:0:0:0:
448,192,26906,1,0,0:0:0:0:
64,192,26981,1,0,0:0:0:0:
192,192,26981,1,0,0:0:0:0:
320,192,26981,1,0,0:0:0:0:
64,192,27131,1,0,0:0:0:0:
192,192,27206,1,0,0:0:0:0:
448,192,27281,1,0,0:0:0:0:
64,192,27431,1,0,0:0:0:0:
320,192,27506,1,0,0:0:0:0:
448,192,27581,1,0,0:0:0:0:
64,192,27581,1,0,0:0:0:0:
192,192,27581,1,0,0:0:0:0:
64,192,27731,1,0,0:0:0:0:
192,192,27806,1,0,0:0:0:0:
448,192,27881,1,0,0:0:0:0:
64,192,28031,1,0,0:0:0:0:
320,192,28106,1,0,0:0:0:0:
448,192,28181,1,0,0:0:0:0:
64,192,28181,1,0,0:0:0:0:
192,192,28181,1,0,0:0:0:0:
64,192,28331,1,0,0:0:0:0:
192,192,28331,1,0,0:0:0:0:
320,192,28406,1,0,0:0:0:0:
448,192,28406,1,0,0:0:0:0:
64,192,28481,1,0,0:0:0:0:
192,192,28481,1,0,0:0:0:0:
448,192,28631,1,0,0:0:0:0:
320,192,28631,1,0,0:0:0:0:
192,192,28706,1,0,0:0:0:0:
64,192,28706,1,0,0:0:0:0:
448,192,28781,1,0,0:0:0:0:
320,192,28781,1,0,0:0:0:0:
64,192,28931,1,0,0:0:0:0:
192,192,28931,1,0,0:0:0:0:
320,192,29006,1,0,0:0:0:0:
448,192,29081,1,0,0:0:0:0:
64,192,29081,1,0,0:0:0:0:
192,192,29156,1,0,0:0:0:0:
320,192,29156,1,0,0:0:0:0:
448,192,29231,1,0,0:0:0:0:
64,192,29231,1,0,0:0:0:0:
192,192,29306,1,0,0:0:0:0:
320,192,29306,1,0,0:0:0:0:
448,192,29381,128,0,29981:0:0:0:0:
64,192,29381,1,0,0:0:0:0:
64,192,29681,1,0,0:0:0:0:
192,192,29831,1,0,0:0:0:0:
320,192,29981,1,0,0:0:0:0:
64,192,30281,128,0,30431:0:0:0:0:
192,192,30431,128,0,30581:0:0:0:0:
448,192,30581,128,0,31031:0:0:0:0:
320,192,31031,128,0,31481:0:0:0:0:
192,192,31481,128,0,31631:0:0:0:0:
64,192,31631,128,0,31781:0:0:0:0:
320,192,31781,128,0,32231:0:0:0:0:
192,192,32231,128,0,32681:0:0:0:0:
320,192,32681,128,0,32831:0:0:0:0:
448,192,32831,128,0,33581:0:0:0:0:
192,192,33131,128,0,33281:0:0:0:0:
320,192,33281,128,0,33431:0:0:0:0:
64,192,33581,128,0,33731:0:0:0:0:
448,192,33731,128,0,33881:0:0:0:0:
320,192,33881,1,0,0:0:0:0:
192,192,34031,1,0,0:0:0:0:
64,192,34181,128,0,34781:0:0:0:0:
64,192,35081,128,0,35231:0:0:0:0:
192,192,35231,128,0,35381:0:0:0:0:
448,192,35381,128,0,35831:0:0:0:0:
320,192,35831,128,0,36281:0:0:0:0:
192,192,36281,128,0,36431:0:0:0:0:
64,192,36431,128,0,36581:0:0:0:0:
320,192,36581,128,0,37031:0:0:0:0:
192,192,37031,128,0,37481:0:0:0:0:
64,192,37481,128,0,37631:0:0:0:0:
448,192,37631,128,0,38381:0:0:0:0:
64,192,37931,128,0,38081:0:0:0:0:
320,192,38081,128,0,38231:0:0:0:0:
64,192,38381,128,0,38531:0:0:0:0:
192,192,38531,128,0,38681:0:0:0:0:
448,192,38681,1,0,0:0:0:0:
320,192,38831,1,0,0:0:0:0:
448,192,38981,128,0,39056:0:0:0:0:
192,192,38981,128,0,39056:0:0:0:0:
64,192,38981,128,0,39056:0:0:0:0:
448,192,39431,128,0,39506:0:0:0:0:
64,192,39431,128,0,39506:0:0:0:0:
448,192,39881,128,0,39956:0:0:0:0:
64,192,39881,128,0,39956:0:0:0:0:
448,192,40331,128,0,40406:0:0:0:0:
192,192,40331,128,0,40406:0:0:0:0:
320,192,40631,128,0,40706:0:0:0:0:
64,192,40781,128,0,40856:0:0:0:0:
192,192,40781,128,0,40856:0:0:0:0:
192,192,41081,128,0,41156:0:0:0:0:
64,192,41081,128,0,41156:0:0:0:0:
192,192,41381,128,0,41456:0:0:0:0:
64,192,41381,128,0,41456:0:0:0:0:
448,192,41681,128,0,41756:0:0:0:0:
320,192,41831,128,0,41906:0:0:0:0:
192,192,41831,128,0,41906:0:0:0:0:
448,192,42131,128,0,42206:0:0:0:0:
320,192,42281,128,0,42356:0:0:0:0:
192,192,42281,128,0,42356:0:0:0:0:
448,192,42581,128,0,42656:0:0:0:0:
320,192,42731,128,0,42806:0:0:0:0:
192,192,42731,128,0,42806:0:0:0:0:
448,192,43031,128,0,43106:0:0:0:0:
192,192,43181,128,0,43256:0:0:0:0:
64,192,43181,128,0,43256:0:0:0:0:
320,192,43331,128,0,43406:0:0:0:0:
192,192,43481,128,0,43556:0:0:0:0:
64,192,43481,128,0,43556:0:0:0:0:
448,192,43631,128,0,43706:0:0:0:0:
448,192,43781,128,0,43856:0:0:0:0:
64,192,43781,128,0,43856:0:0:0:0:
320,192,43781,128,0,43856:0:0:0:0:
448,192,44231,128,0,44306:0:0:0:0:
64,192,44231,128,0,44306:0:0:0:0:
448,192,44681,128,0,44756:0:0:0:0:
64,192,44681,128,0,44756:0:0:0:0:
448,192,45131,128,0,45206:0:0:0:0:
192,192,45131,128,0,45206:0:0:0:0:
320,192,45431,128,0,45506:0:0:0:0:
64,192,45581,128,0,45656:0:0:0:0:
192,192,45581,128,0,45656:0:0:0:0:
192,192,45881,128,0,45956:0:0:0:0:
64,192,45881,128,0,45956:0:0:0:0:
320,192,46181,128,0,46256:0:0:0:0:
192,192,46181,128,0,46256:0:0:0:0:
64,192,46181,128,0,46256:0:0:0:0:
448,192,46481,128,0,46556:0:0:0:0:
320,192,46631,128,0,46706:0:0:0:0:
192,192,46631,128,0,46706:0:0:0:0:
448,192,46931,128,0,47006:0:0:0:0:
320,192,47081,128,0,47156:0:0:0:0:
192,192,47081,128,0,47156:0:0:0:0:
448,192,47381,1,0,0:0:0:0:
64,192,47381,1,0,0:0:0:0:
320,192,47531,128,0,47606:0:0:0:0:
192,192,47531,128,0,47606:0:0:0:0:
448,192,47681,1,0,0:0:0:0:
320,192,47756,1,0,0:0:0:0:
192,192,47831,1,0,0:0:0:0:
64,192,47906,1,0,0:0:0:0:
320,192,47981,1,0,0:0:0:0:
448,192,47981,1,0,0:0:0:0:
192,192,48056,1,0,0:0:0:0:
448,192,48131,1,0,0:0:0:0:
320,192,48131,1,0,0:0:0:0:
192,192,48206,1,0,0:0:0:0:
64,192,48281,1,0,0:0:0:0:
448,192,48281,1,0,0:0:0:0:
320,192,48356,1,0,0:0:0:0:
64,192,48431,1,0,0:0:0:0:
192,192,48431,1,0,0:0:0:0:
320,192,48506,1,0,0:0:0:0:
448,192,48581,1,0,0:0:0:0:
64,192,48581,1,0,0:0:0:0:
192,192,48581,1,0,0:0:0:0:
192,192,48731,1,0,0:0:0:0:
320,192,48881,1,0,0:0:0:0:
192,192,48881,1,0,0:0:0:0:
64,192,48881,1,0,0:0:0:0:
192,192,49031,1,0,0:0:0:0:
320,192,49181,1,0,0:0:0:0:
320,192,49331,1,0,0:0:0:0:
448,192,49481,1,0,0:0:0:0:
192,192,49481,1,0,0:0:0:0:
320,192,49481,1,0,0:0:0:0:
320,192,49631,1,0,0:0:0:0:
448,192,49781,1,0,0:0:0:0:
448,192,49931,1,0,0:0:0:0:
192,192,50081,1,0,0:0:0:0:
320,192,50081,1,0,0:0:0:0:
448,192,50081,1,0,0:0:0:0:
448,192,50231,1,0,0:0:0:0:
64,192,50381,1,0,0:0:0:0:
64,192,50531,1,0,0:0:0:0:
64,192,50681,1,0,0:0:0:0:
320,192,50681,1,0,0:0:0:0:
192,192,50681,1,0,0:0:0:0:
64,192,50831,1,0,0:0:0:0:
448,192,50981,128,0,51056:0:0:0:0:
192,192,50981,1,0,0:0:0:0:
320,192,50981,1,0,0:0:0:0:
64,192,51131,1,0,0:0:0:0:
320,192,51281,128,0,51356:0:0:0:0:
448,192,51281,1,0,0:0:0:0:
64,192,51281,1,0,0:0:0:0:
448,192,51431,1,0,0:0:0:0:
64,192,51581,128,0,51656:0:0:0:0:
448,192,51581,1,0,0:0:0:0:
320,192,51581,1,0,0:0:0:0:
192,192,51731,1,0,0:0:0:0:
64,192,51881,128,0,51956:0:0:0:0:
448,192,51881,1,0,0:0:0:0:
320,192,51881,1,0,0:0:0:0:
64,192,52031,128,0,52106:0:0:0:0:
320,192,52031,1,0,0:0:0:0:
448,192,52031,1,0,0:0:0:0:
448,192,52181,1,0,0:0:0:0:
64,192,52181,1,0,0:0:0:0:
192,192,52256,1,0,0:0:0:0:
320,192,52293,1,0,0:0:0:0:
448,192,52293,1,0,0:0:0:0:
192,192,52406,1,0,0:0:0:0:
320,192,52481,1,0,0:0:0:0:
448,192,52481,1,0,0:0:0:0:
64,192,52556,1,0,0:0:0:0:
192,192,52593,1,0,0:0:0:0:
448,192,52593,1,0,0:0:0:0:
64,192,52706,1,0,0:0:0:0:
320,192,52781,1,0,0:0:0:0:
192,192,52781,1,0,0:0:0:0:
448,192,52856,1,0,0:0:0:0:
320,192,52893,1,0,0:0:0:0:
64,192,52893,1,0,0:0:0:0:
320,192,53006,1,0,0:0:0:0:
192,192,53081,1,0,0:0:0:0:
64,192,53081,1,0,0:0:0:0:
448,192,53156,1,0,0:0:0:0:
192,192,53193,1,0,0:0:0:0:
64,192,53193,1,0,0:0:0:0:
320,192,53306,1,0,0:0:0:0:
64,192,53381,1,0,0:0:0:0:
192,192,53381,1,0,0:0:0:0:
448,192,53381,1,0,0:0:0:0:
192,192,53531,1,0,0:0:0:0:
320,192,53681,1,0,0:0:0:0:
192,192,53681,1,0,0:0:0:0:
64,192,53681,1,0,0:0:0:0:
192,192,53831,1,0,0:0:0:0:
320,192,53981,1,0,0:0:0:0:
320,192,54131,1,0,0:0:0:0:
192,192,54281,1,0,0:0:0:0:
448,192,54281,1,0,0:0:0:0:
320,192,54281,1,0,0:0:0:0:
320,192,54431,1,0,0:0:0:0:
448,192,54581,1,0,0:0:0:0:
448,192,54731,1,0,0:0:0:0:
192,192,54881,1,0,0:0:0:0:
320,192,54881,1,0,0:0:0:0:
448,192,54881,1,0,0:0:0:0:
448,192,55031,1,0,0:0:0:0:
320,192,55181,1,0,0:0:0:0:
320,192,55331,1,0,0:0:0:0:
192,192,55481,1,0,0:0:0:0:
448,192,55481,1,0,0:0:0:0:
320,192,55481,1,0,0:0:0:0:
320,192,55631,1,0,0:0:0:0:
64,192,55781,1,0,0:0:0:0:
64,192,55931,1,0,0:0:0:0:
192,192,56081,1,0,0:0:0:0:
320,192,56081,1,0,0:0:0:0:
64,192,56081,1,0,0:0:0:0:
64,192,56231,1,0,0:0:0:0:
448,192,56381,1,0,0:0:0:0:
192,192,56381,1,0,0:0:0:0:
320,192,56381,1,0,0:0:0:0:
192,192,56681,1,0,0:0:0:0:
448,192,56681,1,0,0:0:0:0:
320,192,56681,1,0,0:0:0:0:
64,192,56756,1,0,0:0:0:0:
320,192,56981,1,0,0:0:0:0:
192,192,56981,1,0,0:0:0:0:
448,192,56981,1,0,0:0:0:0:
64,192,57056,1,0,0:0:0:0:
448,192,57131,1,0,0:0:0:0:
320,192,57131,1,0,0:0:0:0:
192,192,57206,1,0,0:0:0:0:
64,192,57281,1,0,0:0:0:0:
448,192,57281,1,0,0:0:0:0:
320,192,57356,1,0,0:0:0:0:
448,192,57431,1,0,0:0:0:0:
192,192,57431,1,0,0:0:0:0:
64,192,57506,1,0,0:0:0:0:
320,192,57581,1,0,0:0:0:0:
448,192,57581,1,0,0:0:0:0:
64,192,57656,1,0,0:0:0:0:
448,192,57731,1,0,0:0:0:0:
192,192,57731,1,0,0:0:0:0:
320,192,57806,1,0,0:0:0:0:
64,192,57881,1,0,0:0:0:0:
192,192,57881,1,0,0:0:0:0:
320,192,57956,1,0,0:0:0:0:
192,192,58031,1,0,0:0:0:0:
448,192,58031,1,0,0:0:0:0:
320,192,58106,1,0,0:0:0:0:
192,192,58181,1,0,0:0:0:0:
448,192,58181,1,0,0:0:0:0:
64,192,58181,1,0,0:0:0:0:
448,192,58331,1,0,0:0:0:0:
192,192,58481,1,0,0:0:0:0:
320,192,58481,1,0,0:0:0:0:
448,192,58481,1,0,0:0:0:0:
448,192,58631,1,0,0:0:0:0:
320,192,58781,1,0,0:0:0:0:
320,192,58931,1,0,0:0:0:0:
448,192,59081,1,0,0:0:0:0:
192,192,59081,1,0,0:0:0:0:
320,192,59081,1,0,0:0:0:0:
320,192,59231,1,0,0:0:0:0:
64,192,59381,1,0,0:0:0:0:
64,192,59531,1,0,0:0:0:0:
320,192,59681,1,0,0:0:0:0:
192,192,59681,1,0,0:0:0:0:
64,192,59681,1,0,0:0:0:0:
64,192,59831,1,0,0:0:0:0:
192,192,59981,1,0,0:0:0:0:
192,192,60131,1,0,0:0:0:0:
320,192,60281,1,0,0:0:0:0:
64,192,60281,1,0,0:0:0:0:
192,192,60281,1,0,0:0:0:0:
192,192,60431,1,0,0:0:0:0:
448,192,60581,128,0,60656:0:0:0:0:
64,192,60581,1,0,0:0:0:0:
320,192,60581,1,0,0:0:0:0:
192,192,60731,1,0,0:0:0:0:
320,192,60881,128,0,60956:0:0:0:0:
448,192,60881,1,0,0:0:0:0:
64,192,60881,1,0,0:0:0:0:
448,192,61031,1,0,0:0:0:0:
64,192,61181,128,0,61256:0:0:0:0:
448,192,61181,1,0,0:0:0:0:
320,192,61181,1,0,0:0:0:0:
320,192,61331,1,0,0:0:0:0:
448,192,61481,128,0,61556:0:0:0:0:
64,192,61481,1,0,0:0:0:0:
192,192,61481,1,0,0:0:0:0:
448,192,61631,128,0,61706:0:0:0:0:
192,192,61631,1,0,0:0:0:0:
64,192,61631,1,0,0:0:0:0:
64,192,61781,1,0,0:0:0:0:
320,192,61781,1,0,0:0:0:0:
448,192,61781,1,0,0:0:0:0:
192,192,61893,1,0,0:0:0:0:
448,192,61893,1,0,0:0:0:0:
320,192,61931,1,0,0:0:0:0:
64,192,62006,1,0,0:0:0:0:
320,192,62081,1,0,0:0:0:0:
448,192,62081,1,0,0:0:0:0:
192,192,62193,1,0,0:0:0:0:
64,192,62193,1,0,0:0:0:0:
320,192,62231,1,0,0:0:0:0:
448,192,62306,1,0,0:0:0:0:
320,192,62381,1,0,0:0:0:0:
192,192,62381,1,0,0:0:0:0:
64,192,62493,1,0,0:0:0:0:
448,192,62493,1,0,0:0:0:0:
320,192,62531,1,0,0:0:0:0:
192,192,62606,1,0,0:0:0:0:
448,192,62681,1,0,0:0:0:0:
320,192,62681,1,0,0:0:0:0:
448,192,62793,1,0,0:0:0:0:
320,192,62793,1,0,0:0:0:0:
192,192,62831,1,0,0:0:0:0:
64,192,62906,1,0,0:0:0:0:
448,192,62981,1,0,0:0:0:0:
320,192,62981,1,0,0:0:0:0:
192,192,62981,1,0,0:0:0:0:
448,192,63131,1,0,0:0:0:0:
320,192,63281,1,0,0:0:0:0:
448,192,63281,1,0,0:0:0:0:
192,192,63281,1,0,0:0:0:0:
448,192,63431,1,0,0:0:0:0:
64,192,63581,1,0,0:0:0:0:
64,192,63731,1,0,0:0:0:0:
320,192,63881,1,0,0:0:0:0:
64,192,63881,1,0,0:0:0:0:
192,192,63881,1,0,0:0:0:0:
64,192,64031,1,0,0:0:0:0:
320,192,64181,1,0,0:0:0:0:
448,192,64181,1,0,0:0:0:0:
64,192,64181,1,0,0:0:0:0:
320,192,64331,1,0,0:0:0:0:
320,192,64481,1,0,0:0:0:0:
192,192,64481,1,0,0:0:0:0:
448,192,64481,1,0,0:0:0:0:
320,192,64631,1,0,0:0:0:0:
192,192,64781,1,0,0:0:0:0:
192,192,64931,1,0,0:0:0:0:
64,192,65081,1,0,0:0:0:0:
192,192,65081,1,0,0:0:0:0:
320,192,65081,1,0,0:0:0:0:
192,192,65231,1,0,0:0:0:0:
64,192,65381,1,0,0:0:0:0:
448,192,65381,1,0,0:0:0:0:
320,192,65381,1,0,0:0:0:0:
192,192,65381,1,0,0:0:0:0:
320,192,65531,1,0,0:0:0:0:
192,192,65606,1,0,0:0:0:0:
448,192,65681,1,0,0:0:0:0:
320,192,65756,1,0,0:0:0:0:
64,192,65831,1,0,0:0:0:0:
192,192,65831,1,0,0:0:0:0:
320,192,65906,1,0,0:0:0:0:
448,192,65981,1,0,0:0:0:0:
64,192,65981,1,0,0:0:0:0:
192,192,65981,1,0,0:0:0:0:
320,192,66056,1,0,0:0:0:0:
448,192,66131,1,0,0:0:0:0:
192,192,66206,1,0,0:0:0:0:
448,192,66281,1,0,0:0:0:0:
64,192,66281,1,0,0:0:0:0:
320,192,66356,1,0,0:0:0:0:
64,192,66431,1,0,0:0:0:0:
192,192,66431,1,0,0:0:0:0:
448,192,66506,1,0,0:0:0:0:
192,192,66581,1,0,0:0:0:0:
320,192,66581,1,0,0:0:0:0:
64,192,66581,1,0,0:0:0:0:
448,192,66656,1,0,0:0:0:0:
64,192,66731,1,0,0:0:0:0:
192,192,66731,1,0,0:0:0:0:
448,192,66806,1,0,0:0:0:0:
320,192,66806,1,0,0:0:0:0:
64,192,66881,1,0,0:0:0:0:
192,192,66881,1,0,0:0:0:0:
448,192,66956,1,0,0:0:0:0:
192,192,67031,1,0,0:0:0:0:
320,192,67031,1,0,0:0:0:0:
448,192,67106,1,0,0:0:0:0:
64,192,67106,1,0,0:0:0:0:
192,192,67181,1,0,0:0:0:0:
320,192,67181,1,0,0:0:0:0:
64,192,67256,1,0,0:0:0:0:
448,192,67256,1,0,0:0:0:0:
320,192,67331,1,0,0:0:0:0:
192,192,67331,1,0,0:0:0:0:
64,192,67406,1,0,0:0:0:0:
320,192,67481,1,0,0:0:0:0:
448,192,67481,1,0,0:0:0:0:
448,192,67556,1,0,0:0:0:0:
320,192,67556,1,0,0:0:0:0:
64,192,67631,1,0,0:0:0:0:
192,192,67631,1,0,0:0:0:0:
64,192,67706,1,0,0:0:0:0:
192,192,67706,1,0,0:0:0:0:
320,192,67781,1,0,0:0:0:0:
448,192,67781,1,0,0:0:0:0:
192,192,67831,1,0,0:0:0:0:
64,192,67881,1,0,0:0:0:0:
448,192,67931,1,0,0:0:0:0:
320,192,67981,1,0,0:0:0:0:
192,192,68031,1,0,0:0:0:0:
320,192,68081,1,0,0:0:0:0:
64,192,68131,1,0,0:0:0:0:
192,192,68181,1,0,0:0:0:0:
320,192,68231,1,0,0:0:0:0:
448,192,68231,1,0,0:0:0:0:
192,192,68306,1,0,0:0:0:0:
64,192,68381,1,0,0:0:0:0:
448,192,68381,1,0,0:0:0:0:
320,192,68456,1,0,0:0:0:0:
192,192,68531,1,0,0:0:0:0:
320,192,68606,1,0,0:0:0:0:
64,192,68681,1,0,0:0:0:0:
448,192,68681,1,0,0:0:0:0:
192,192,68731,1,0,0:0:0:0:
320,192,68781,1,0,0:0:0:0:
448,192,68831,1,0,0:0:0:0:
64,192,68881,1,0,0:0:0:0:
192,192,68931,1,0,0:0:0:0:
320,192,68981,1,0,0:0:0:0:
64,192,68981,1,0,0:0:0:0:
448,192,69031,1,0,0:0:0:0:
320,192,69081,1,0,0:0:0:0:
192,192,69131,1,0,0:0:0:0:
64,192,69181,1,0,0:0:0:0:
320,192,69231,1,0,0:0:0:0:
192,192,69281,1,0,0:0:0:0:
448,192,69331,1,0,0:0:0:0:
320,192,69381,1,0,0:0:0:0:
192,192,69431,1,0,0:0:0:0:
64,192,69431,1,0,0:0:0:0:
320,192,69506,1,0,0:0:0:0:
448,192,69581,1,0,0:0:0:0:
192,192,69581,1,0,0:0:0:0:
64,192,69656,1,0,0:0:0:0:
320,192,69731,1,0,0:0:0:0:
192,192,69806,1,0,0:0:0:0:
64,192,69881,1,0,0:0:0:0:
320,192,69881,1,0,0:0:0:0:
448,192,69881,1,0,0:0:0:0:
192,192,69956,1,0,0:0:0:0:
448,192,70031,1,0,0:0:0:0:
320,192,70106,1,0,0:0:0:0:
448,192,70181,1,0,0:0:0:0:
64,192,70181,1,0,0:0:0:0:
192,192,70231,1,0,0:0:0:0:
320,192,70281,1,0,0:0:0:0:
448,192,70331,1,0,0:0:0:0:
64,192,70406,1,0,0:0:0:0:
192,192,70481,1,0,0:0:0:0:
320,192,70481,1,0,0:0:0:0:
448,192,70556,1,0,0:0:0:0:
64,192,70631,1,0,0:0:0:0:
320,192,70631,1,0,0:0:0:0:
192,192,70706,1,0,0:0:0:0:
448,192,70781,1,0,0:0:0:0:
64,192,70781,1,0,0:0:0:0:
320,192,70856,1,0,0:0:0:0:
192,192,70931,1,0,0:0:0:0:
320,192,71006,1,0,0:0:0:0:
192,192,71081,1,0,0:0:0:0:
448,192,71081,1,0,0:0:0:0:
64,192,71081,1,0,0:0:0:0:
320,192,71156,1,0,0:0:0:0:
64,192,71231,1,0,0:0:0:0:
192,192,71306,1,0,0:0:0:0:
320,192,71381,1,0,0:0:0:0:
448,192,71381,1,0,0:0:0:0:
64,192,71456,1,0,0:0:0:0:
320,192,71531,1,0,0:0:0:0:
192,192,71606,1,0,0:0:0:0:
448,192,71681,1,0,0:0:0:0:
64,192,71681,1,0,0:0:0:0:
320,192,71756,1,0,0:0:0:0:
64,192,71831,1,0,0:0:0:0:
448,192,71906,1,0,0:0:0:0:
64,192,71981,1,0,0:0:0:0:
192,192,71981,1,0,0:0:0:0:
448,192,72056,1,0,0:0:0:0:
192,192,72131,1,0,0:0:0:0:
320,192,72206,1,0,0:0:0:0:
448,192,72281,1,0,0:0:0:0:
64,192,72281,1,0,0:0:0:0:
192,192,72431,1,0,0:0:0:0:
320,192,72581,1,0,0:0:0:0:
448,192,72581,1,0,0:0:0:0:
192,192,72631,1,0,0:0:0:0:
448,192,72681,1,0,0:0:0:0:
64,192,72731,1,0,0:0:0:0:
320,192,72781,1,0,0:0:0:0:
192,192,72831,1,0,0:0:0:0:
64,192,72881,1,0,0:0:0:0:
320,192,72931,1,0,0:0:0:0:
192,192,72981,1,0,0:0:0:0:
320,192,73031,1,0,0:0:0:0:
448,192,73031,1,0,0:0:0:0:
192,192,73106,1,0,0:0:0:0:
64,192,73181,1,0,0:0:0:0:
448,192,73181,1,0,0:0:0:0:
320,192,73256,1,0,0:0:0:0:
192,192,73331,1,0,0:0:0:0:
320,192,73406,1,0,0:0:0:0:
64,192,73481,1,0,0:0:0:0:
448,192,73481,1,0,0:0:0:0:
192,192,73531,1,0,0:0:0:0:
320,192,73581,1,0,0:0:0:0:
448,192,73631,1,0,0:0:0:0:
64,192,73681,1,0,0:0:0:0:
192,192,73731,1,0,0:0:0:0:
320,192,73781,1,0,0:0:0:0:
64,192,73781,1,0,0:0:0:0:
448,192,73831,1,0,0:0:0:0:
320,192,73881,1,0,0:0:0:0:
192,192,73931,1,0,0:0:0:0:
320,192,73981,1,0,0:0:0:0:
64,192,74031,1,0,0:0:0:0:
192,192,74081,1,0,0:0:0:0:
448,192,74131,1,0,0:0:0:0:
320,192,74181,1,0,0:0:0:0:
192,192,74231,1,0,0:0:0:0:
64,192,74231,1,0,0:0:0:0:
320,192,74306,1,0,0:0:0:0:
448,192,74381,1,0,0:0:0:0:
192,192,74381,1,0,0:0:0:0:
64,192,74456,1,0,0:0:0:0:
320,192,74531,1,0,0:0:0:0:
192,192,74606,1,0,0:0:0:0:
64,192,74681,1,0,0:0:0:0:
320,192,74681,1,0,0:0:0:0:
448,192,74681,1,0,0:0:0:0:
192,192,74756,1,0,0:0:0:0:
448,192,74831,1,0,0:0:0:0:
320,192,74906,1,0,0:0:0:0:
448,192,74981,1,0,0:0:0:0:
64,192,74981,1,0,0:0:0:0:
192,192,75031,1,0,0:0:0:0:
320,192,75081,1,0,0:0:0:0:
64,192,75131,1,0,0:0:0:0:
448,192,75181,1,0,0:0:0:0:
192,192,75231,1,0,0:0:0:0:
320,192,75281,1,0,0:0:0:0:
192,192,75331,1,0,0:0:0:0:
448,192,75381,1,0,0:0:0:0:
64,192,75431,1,0,0:0:0:0:
320,192,75431,1,0,0:0:0:0:
192,192,75506,1,0,0:0:0:0:
448,192,75581,1,0,0:0:0:0:
64,192,75581,1,0,0:0:0:0:
320,192,75656,1,0,0:0:0:0:
192,192,75731,1,0,0:0:0:0:
320,192,75806,1,0,0:0:0:0:
192,192,75881,1,0,0:0:0:0:
448,192,75881,1,0,0:0:0:0:
64,192,75881,1,0,0:0:0:0:
320,192,75956,1,0,0:0:0:0:
64,192,76031,1,0,0:0:0:0:
192,192,76106,1,0,0:0:0:0:
320,192,76181,1,0,0:0:0:0:
448,192,76181,1,0,0:0:0:0:
192,192,76331,1,0,0:0:0:0:
64,192,76481,1,0,0:0:0:0:
192,192,76481,1,0,0:0:0:0:
320,192,76518,1,0,0:0:0:0:
448,192,76556,1,0,0:0:0:0:
64,192,76593,1,0,0:0:0:0:
192,192,76631,1,0,0:0:0:0:
320,192,76668,1,0,0:0:0:0:
448,192,76706,1,0,0:0:0:0:
64,192,76743,1,0,0:0:0:0:
192,192,76781,1,0,0:0:0:0:
320,192,76781,1,0,0:0:0:0:
64,192,76931,1,0,0:0:0:0:
448,192,77081,1,0,0:0:0:0:
192,192,77081,1,0,0:0:0:0:
64,192,77131,1,0,0:0:0:0:
320,192,77181,1,0,0:0:0:0:
192,192,77231,1,0,0:0:0:0:
64,192,77381,1,0,0:0:0:0:
320,192,77381,1,0,0:0:0:0:
448,192,77381,1,0,0:0:0:0:
192,192,77431,1,0,0:0:0:0:
64,192,77481,1,0,0:0:0:0:
448,192,77531,1,0,0:0:0:0:
320,192,77581,1,0,0:0:0:0:
192,192,77631,1,0,0:0:0:0:
64,192,77681,1,0,0:0:0:0:
320,192,77731,1,0,0:0:0:0:
192,192,77781,1,0,0:0:0:0:
320,192,77831,1,0,0:0:0:0:
448,192,77831,1,0,0:0:0:0:
192,192,77906,1,0,0:0:0:0:
64,192,77981,1,0,0:0:0:0:
448,192,77981,1,0,0:0:0:0:
320,192,78056,1,0,0:0:0:0:
192,192,78131,1,0,0:0:0:0:
320,192,78206,1,0,0:0:0:0:
64,192,78281,1,0,0:0:0:0:
448,192,78281,1,0,0:0:0:0:
192,192,78331,1,0,0:0:0:0:
320,192,78381,1,0,0:0:0:0:
448,192,78431,1,0,0:0:0:0:
64,192,78481,1,0,0:0:0:0:
320,192,78531,1,0,0:0:0:0:
192,192,78581,1,0,0:0:0:0:
64,192,78581,1,0,0:0:0:0:
448,192,78631,1,0,0:0:0:0:
320,192,78681,1,0,0:0:0:0:
192,192,78731,1,0,0:0:0:0:
64,192,78781,1,0,0:0:0:0:
320,192,78831,1,0,0:0:0:0:
448,192,78881,1,0,0:0:0:0:
192,192,78931,1,0,0:0:0:0:
320,192,78981,1,0,0:0:0:0:
448,192,79031,1,0,0:0:0:0:
64,192,79031,1,0,0:0:0:0:
192,192,79106,1,0,0:0:0:0:
448,192,79181,1,0,0:0:0:0:
320,192,79181,1,0,0:0:0:0:
64,192,79256,1,0,0:0:0:0:
192,192,79331,1,0,0:0:0:0:
320,192,79406,1,0,0:0:0:0:
64,192,79481,1,0,0:0:0:0:
192,192,79481,1,0,0:0:0:0:
448,192,79481,1,0,0:0:0:0:
320,192,79556,1,0,0:0:0:0:
192,192,79631,1,0,0:0:0:0:
320,192,79706,1,0,0:0:0:0:
448,192,79781,1,0,0:0:0:0:
64,192,79781,1,0,0:0:0:0:
320,192,79831,1,0,0:0:0:0:
192,192,79881,1,0,0:0:0:0:
64,192,79931,1,0,0:0:0:0:
448,192,79981,1,0,0:0:0:0:
320,192,80031,1,0,0:0:0:0:
192,192,80081,1,0,0:0:0:0:
64,192,80081,1,0,0:0:0:0:
448,192,80131,1,0,0:0:0:0:
320,192,80181,1,0,0:0:0:0:
64,192,80231,1,0,0:0:0:0:
448,192,80231,1,0,0:0:0:0:
192,192,80306,1,0,0:0:0:0:
448,192,80381,1,0,0:0:0:0:
64,192,80381,1,0,0:0:0:0:
320,192,80456,1,0,0:0:0:0:
192,192,80531,1,0,0:0:0:0:
320,192,80606,1,0,0:0:0:0:
192,192,80681,1,0,0:0:0:0:
448,192,80681,1,0,0:0:0:0:
64,192,80681,1,0,0:0:0:0:
320,192,80756,1,0,0:0:0:0:
64,192,80831,1,0,0:0:0:0:
320,192,80906,1,0,0:0:0:0:
192,192,80981,1,0,0:0:0:0:
448,192,80981,1,0,0:0:0:0:
320,192,81081,1,0,0:0:0:0:
64,192,81131,1,0,0:0:0:0:
192,192,81181,1,0,0:0:0:0:
448,192,81281,1,0,0:0:0:0:
320,192,81281,1,0,0:0:0:0:
192,192,81381,1,0,0:0:0:0:
64,192,81431,1,0,0:0:0:0:
320,192,81481,1,0,0:0:0:0:
64,192,81581,1,0,0:0:0:0:
192,192,81581,1,0,0:0:0:0:
320,192,81731,1,0,0:0:0:0:
448,192,81881,1,0,0:0:0:0:
64,192,81881,1,0,0:0:0:0:
320,192,81956,1,0,0:0:0:0:
192,192,82031,1,0,0:0:0:0:
64,192,82031,1,0,0:0:0:0:
448,192,82106,1,0,0:0:0:0:
64,192,82181,1,0,0:0:0:0:
192,192,82181,1,0,0:0:0:0:
320,192,82231,1,0,0:0:0:0:
448,192,82281,1,0,0:0:0:0:
64,192,82331,1,0,0:0:0:0:
192,192,82381,1,0,0:0:0:0:
448,192,82431,1,0,0:0:0:0:
192,192,82481,1,0,0:0:0:0:
320,192,82531,1,0,0:0:0:0:
448,192,82581,1,0,0:0:0:0:
192,192,82631,1,0,0:0:0:0:
64,192,82631,1,0,0:0:0:0:
320,192,82706,1,0,0:0:0:0:
64,192,82781,1,0,0:0:0:0:
448,192,82781,1,0,0:0:0:0:
320,192,82856,1,0,0:0:0:0:
192,192,82931,1,0,0:0:0:0:
320,192,83006,1,0,0:0:0:0:
64,192,83081,1,0,0:0:0:0:
448,192,83081,1,0,0:0:0:0:
320,192,83156,1,0,0:0:0:0:
192,192,83231,1,0,0:0:0:0:
64,192,83231,1,0,0:0:0:0:
448,192,83306,1,0,0:0:0:0:
192,192,83381,1,0,0:0:0:0:
64,192,83381,1,0,0:0:0:0:
320,192,83431,1,0,0:0:0:0:
448,192,83481,1,0,0:0:0:0:
64,192,83531,1,0,0:0:0:0:
192,192,83581,1,0,0:0:0:0:
448,192,83631,1,0,0:0:0:0:
64,192,83681,1,0,0:0:0:0:
320,192,83731,1,0,0:0:0:0:
448,192,83781,1,0,0:0:0:0:
192,192,83831,1,0,0:0:0:0:
64,192,83831,1,0,0:0:0:0:
320,192,83906,1,0,0:0:0:0:
448,192,83981,1,0,0:0:0:0:
192,192,83981,1,0,0:0:0:0:
64,192,84056,1,0,0:0:0:0:
320,192,84131,1,0,0:0:0:0:
320,192,84281,1,0,0:0:0:0:
448,192,84281,1,0,0:0:0:0:
192,192,84356,1,0,0:0:0:0:
320,192,84431,1,0,0:0:0:0:
64,192,84506,1,0,0:0:0:0:
448,192,84581,1,0,0:0:0:0:
192,192,84581,1,0,0:0:0:0:
320,192,84581,1,0,0:0:0:0:
64,192,84656,1,0,0:0:0:0:
448,192,84731,1,0,0:0:0:0:
320,192,84806,1,0,0:0:0:0:
448,192,84881,1,0,0:0:0:0:
192,192,84956,1,0,0:0:0:0:
448,192,85031,1,0,0:0:0:0:
64,192,85031,1,0,0:0:0:0:
320,192,85106,1,0,0:0:0:0:
448,192,85181,1,0,0:0:0:0:
64,192,85181,1,0,0:0:0:0:
192,192,85181,1,0,0:0:0:0:
320,192,85256,1,0,0:0:0:0:
64,192,85331,1,0,0:0:0:0:
192,192,85406,1,0,0:0:0:0:
64,192,85481,1,0,0:0:0:0:
448,192,85481,1,0,0:0:0:0:
320,192,85556,1,0,0:0:0:0:
64,192,85631,1,0,0:0:0:0:
192,192,85631,1,0,0:0:0:0:
448,192,85706,1,0,0:0:0:0:
64,192,85781,1,0,0:0:0:0:
320,192,85781,1,0,0:0:0:0:
192,192,85781,1,0,0:0:0:0:
448,192,85856,1,0,0:0:0:0:
64,192,85931,1,0,0:0:0:0:
192,192,85931,1,0,0:0:0:0:
320,192,86006,1,0,0:0:0:0:
448,192,86006,1,0,0:0:0:0:
64,192,86081,1,0,0:0:0:0:
192,192,86081,1,0,0:0:0:0:
320,192,86156,1,0,0:0:0:0:
64,192,86231,1,0,0:0:0:0:
448,192,86231,1,0,0:0:0:0:
192,192,86306,1,0,0:0:0:0:
320,192,86306,1,0,0:0:0:0:
64,192,86381,1,0,0:0:0:0:
448,192,86381,1,0,0:0:0:0:
192,192,86456,1,0,0:0:0:0:
320,192,86456,1,0,0:0:0:0:
64,192,86531,1,0,0:0:0:0:
448,192,86531,1,0,0:0:0:0:
192,192,86606,1,0,0:0:0:0:
320,192,86681,1,0,0:0:0:0:
448,192,86681,1,0,0:0:0:0:
448,192,86756,1,0,0:0:0:0:
320,192,86756,1,0,0:0:0:0:
192,192,86831,1,0,0:0:0:0:
64,192,86831,1,0,0:0:0:0:
64,192,86906,1,0,0:0:0:0:
192,192,86906,1,0,0:0:0:0:
448,192,86981,1,0,0:0:0:0:
320,192,86999,1,0,0:0:0:0:
448,192,87056,1,0,0:0:0:0:
320,192,87074,1,0,0:0:0:0:
64,192,87131,1,0,0:0:0:0:
192,192,87149,1,0,0:0:0:0:
64,192,87206,1,0,0:0:0:0:
192,192,87224,1,0,0:0:0:0:
448,192,87281,1,0,0:0:0:0:
320,192,87318,1,0,0:0:0:0:
192,192,87356,1,0,0:0:0:0:
64,192,87393,1,0,0:0:0:0:
64,192,87581,1,0,0:0:0:0:
192,192,87581,1,0,0:0:0:0:
448,192,87656,1,0,0:0:0:0:
192,192,87731,1,0,0:0:0:0:
320,192,87731,1,0,0:0:0:0:
64,192,87806,1,0,0:0:0:0:
448,192,87881,1,0,0:0:0:0:
320,192,87881,1,0,0:0:0:0:
192,192,87956,1,0,0:0:0:0:
320,192,88031,1,0,0:0:0:0:
448,192,88106,1,0,0:0:0:0:
192,192,88181,1,0,0:0:0:0:
64,192,88181,1,0,0:0:0:0:
320,192,88256,1,0,0:0:0:0:
448,192,88331,1,0,0:0:0:0:
192,192,88331,1,0,0:0:0:0:
320,192,88406,1,0,0:0:0:0:
64,192,88481,1,0,0:0:0:0:
320,192,88556,1,0,0:0:0:0:
192,192,88631,1,0,0:0:0:0:
448,192,88631,1,0,0:0:0:0:
320,192,88706,1,0,0:0:0:0:
64,192,88706,1,0,0:0:0:0:
192,192,88781,1,0,0:0:0:0:
448,192,88781,1,0,0:0:0:0:
64,192,88856,1,0,0:0:0:0:
192,192,88931,1,0,0:0:0:0:
320,192,88931,1,0,0:0:0:0:
64,192,89006,1,0,0:0:0:0:
448,192,89081,1,0,0:0:0:0:
320,192,89081,1,0,0:0:0:0:
192,192,89156,1,0,0:0:0:0:
320,192,89231,1,0,0:0:0:0:
64,192,89231,1,0,0:0:0:0:
448,192,89306,1,0,0:0:0:0:
320,192,89381,1,0,0:0:0:0:
64,192,89381,1,0,0:0:0:0:
192,192,89456,1,0,0:0:0:0:
448,192,89531,1,0,0:0:0:0:
192,192,89606,1,0,0:0:0:0:
320,192,89681,1,0,0:0:0:0:
64,192,89681,1,0,0:0:0:0:
192,192,89756,1,0,0:0:0:0:
64,192,89831,1,0,0:0:0:0:
320,192,89906,1,0,0:0:0:0:
448,192,89906,1,0,0:0:0:0:
64,192,89981,1,0,0:0:0:0:
192,192,89981,1,0,0:0:0:0:
448,192,90056,1,0,0:0:0:0:
192,192,90131,1,0,0:0:0:0:
320,192,90131,1,0,0:0:0:0:
64,192,90206,1,0,0:0:0:0:
448,192,90281,1,0,0:0:0:0:
320,192,90281,1,0,0:0:0:0:
192,192,90356,1,0,0:0:0:0:
448,192,90431,1,0,0:0:0:0:
64,192,90506,1,0,0:0:0:0:
320,192,90581,128,0,91031:0:0:0:0:
192,192,90581,1,0,0:0:0:0:
448,192,90656,1,0,0:0:0:0:
192,192,90731,1,0,0:0:0:0:
448,192,90806,1,0,0:0:0:0:
192,192,90881,1,0,0:0:0:0:
448,192,90956,1,0,0:0:0:0:
64,192,91031,1,0,0:0:0:0:
192,192,91031,1,0,0:0:0:0:
448,192,91106,1,0,0:0:0:0:
320,192,91106,1,0,0:0:0:0:
192,192,91181,1,0,0:0:0:0:
64,192,91181,1,0,0:0:0:0:
320,192,91256,1,0,0:0:0:0:
448,192,91331,1,0,0:0:0:0:
64,192,91331,1,0,0:0:0:0:
320,192,91406,1,0,0:0:0:0:
64,192,91481,1,0,0:0:0:0:
192,192,91481,1,0,0:0:0:0:
448,192,91556,1,0,0:0:0:0:
320,192,91631,1,0,0:0:0:0:
192,192,91706,1,0,0:0:0:0:
448,192,91781,1,0,0:0:0:0:
320,192,91781,1,0,0:0:0:0:
192,192,91856,1,0,0:0:0:0:
64,192,91931,1,0,0:0:0:0:
192,192,92006,1,0,0:0:0:0:
448,192,92081,1,0,0:0:0:0:
320,192,92081,1,0,0:0:0:0:
192,192,92156,1,0,0:0:0:0:
64,192,92231,1,0,0:0:0:0:
320,192,92306,1,0,0:0:0:0:
448,192,92306,1,0,0:0:0:0:
64,192,92381,1,0,0:0:0:0:
192,192,92381,1,0,0:0:0:0:
448,192,92456,1,0,0:0:0:0:
192,192,92531,1,0,0:0:0:0:
320,192,92531,1,0,0:0:0:0:
64,192,92606,1,0,0:0:0:0:
448,192,92681,1,0,0:0:0:0:
320,192,92681,1,0,0:0:0:0:
192,192,92756,1,0,0:0:0:0:
320,192,92831,1,0,0:0:0:0:
448,192,92906,1,0,0:0:0:0:
64,192,92981,1,0,0:0:0:0:
192,192,92981,1,0,0:0:0:0:
320,192,93056,1,0,0:0:0:0:
448,192,93131,1,0,0:0:0:0:
192,192,93131,1,0,0:0:0:0:
320,192,93206,1,0,0:0:0:0:
64,192,93281,1,0,0:0:0:0:
448,192,93281,1,0,0:0:0:0:
320,192,93356,1,0,0:0:0:0:
192,192,93431,1,0,0:0:0:0:
448,192,93431,1,0,0:0:0:0:
320,192,93506,1,0,0:0:0:0:
64,192,93506,1,0,0:0:0:0:
192,192,93581,1,0,0:0:0:0:
448,192,93581,1,0,0:0:0:0:
64,192,93656,1,0,0:0:0:0:
192,192,93731,1,0,0:0:0:0:
320,192,93731,1,0,0:0:0:0:
64,192,93806,1,0,0:0:0:0:
448,192,93881,1,0,0:0:0:0:
320,192,93881,1,0,0:0:0:0:
192,192,93956,1,0,0:0:0:0:
320,192,94031,1,0,0:0:0:0:
64,192,94031,1,0,0:0:0:0:
448,192,94106,1,0,0:0:0:0:
320,192,94181,1,0,0:0:0:0:
64,192,94181,1,0,0:0:0:0:
192,192,94256,1,0,0:0:0:0:
448,192,94331,1,0,0:0:0:0:
192,192,94406,1,0,0:0:0:0:
320,192,94481,1,0,0:0:0:0:
64,192,94481,1,0,0:0:0:0:
192,192,94556,1,0,0:0:0:0:
64,192,94631,1,0,0:0:0:0:
320,192,94706,1,0,0:0:0:0:
448,192,94706,1,0,0:0:0:0:
64,192,94781,1,0,0:0:0:0:
192,192,94781,1,0,0:0:0:0:
448,192,94856,1,0,0:0:0:0:
192,192,94931,1,0,0:0:0:0:
320,192,94931,1,0,0:0:0:0:
64,192,95006,1,0,0:0:0:0:
320,192,95081,1,0,0:0:0:0:
448,192,95081,1,0,0:0:0:0:
192,192,95156,1,0,0:0:0:0:
320,192,95231,1,0,0:0:0:0:
64,192,95306,1,0,0:0:0:0:
448,192,95381,1,0,0:0:0:0:
320,192,95381,128,0,95831:0:0:0:0:
192,192,95456,1,0,0:0:0:0:
448,192,95531,1,0,0:0:0:0:
192,192,95606,1,0,0:0:0:0:
448,192,95681,1,0,0:0:0:0:
192,192,95756,1,0,0:0:0:0:
64,192,95831,1,0,0:0:0:0:
448,192,95831,1,0,0:0:0:0:
320,192,95906,1,0,0:0:0:0:
192,192,95906,1,0,0:0:0:0:
448,192,95981,1,0,0:0:0:0:
64,192,95981,1,0,0:0:0:0:
320,192,96056,1,0,0:0:0:0:
192,192,96131,1,0,0:0:0:0:
64,192,96131,1,0,0:0:0:0:
448,192,96206,1,0,0:0:0:0:
64,192,96281,1,0,0:0:0:0:
320,192,96281,1,0,0:0:0:0:
192,192,96331,1,0,0:0:0:0:
64,192,96381,1,0,0:0:0:0:
448,192,96431,1,0,0:0:0:0:
192,192,96431,1,0,0:0:0:0:
320,192,96481,1,0,0:0:0:0:
192,192,96531,1,0,0:0:0:0:
320,192,96618,1,0,0:0:0:0:
448,192,96656,1,0,0:0:0:0:
64,192,96693,1,0,0:0:0:0:
192,192,96731,1,0,0:0:0:0:
320,192,96756,1,0,0:0:0:0:
448,192,96781,1,0,0:0:0:0:
64,192,96806,1,0,0:0:0:0:
192,192,96831,1,0,0:0:0:0:
320,192,96856,1,0,0:0:0:0:
448,192,96881,1,0,0:0:0:0:
64,192,96881,1,0,0:0:0:0:
192,192,96906,1,0,0:0:0:0:
64,192,96956,1,0,0:0:0:0:
448,192,96993,1,0,0:0:0:0:
320,192,97031,1,0,0:0:0:0:
64,192,97068,1,0,0:0:0:0:
192,192,97106,1,0,0:0:0:0:
448,192,97143,1,0,0:0:0:0:
320,192,97181,1,0,0:0:0:0:
64,192,97181,1,0,0:0:0:0:
192,192,97181,1,0,0:0:0:0:
192,192,97481,1,0,0:0:0:0:
320,192,97481,1,0,0:0:0:0:
192,192,97781,1,0,0:0:0:0:
320,192,97781,1,0,0:0:0:0:
192,192,97931,1,0,0:0:0:0:
192,192,98006,1,0,0:0:0:0:
64,192,98081,1,0,0:0:0:0:
320,192,98081,1,0,0:0:0:0:
64,192,98231,1,0,0:0:0:0:
320,192,98231,1,0,0:0:0:0:
192,192,98381,1,0,0:0:0:0:
448,192,98381,1,0,0:0:0:0:
192,192,98681,1,0,0:0:0:0:
320,192,98681,1,0,0:0:0:0:
320,192,98831,1,0,0:0:0:0:
192,192,98831,1,0,0:0:0:0:
64,192,98981,1,0,0:0:0:0:
192,192,98981,1,0,0:0:0:0:
448,192,98981,1,0,0:0:0:0:
448,192,99281,1,0,0:0:0:0:
448,192,99581,1,0,0:0:0:0:
64,192,99581,1,0,0:0:0:0:
192,192,99881,1,0,0:0:0:0:
320,192,99881,1,0,0:0:0:0:
320,192,100181,1,0,0:0:0:0:
192,192,100181,1,0,0:0:0:0:
64,192,100331,1,0,0:0:0:0:
64,192,100406,1,0,0:0:0:0:
192,192,100481,1,0,0:0:0:0:
448,192,100481,1,0,0:0:0:0:
64,192,100631,1,0,0:0:0:0:
192,192,100781,1,0,0:0:0:0:
448,192,100781,1,0,0:0:0:0:
448,192,101081,1,0,0:0:0:0:
320,192,101081,1,0,0:0:0:0:
64,192,101081,1,0,0:0:0:0:
192,192,101231,1,0,0:0:0:0:
64,192,101381,1,0,0:0:0:0:
320,192,101381,1,0,0:0:0:0:
192,192,101456,1,0,0:0:0:0:
320,192,101531,1,0,0:0:0:0:
448,192,101606,1,0,0:0:0:0:
64,192,101681,1,0,0:0:0:0:
320,192,101681,1,0,0:0:0:0:
192,192,101756,1,0,0:0:0:0:
320,192,101831,1,0,0:0:0:0:
448,192,101906,1,0,0:0:0:0:
64,192,101906,1,0,0:0:0:0:
320,192,101981,1,0,0:0:0:0:
192,192,101981,1,0,0:0:0:0:
64,192,102056,1,0,0:0:0:0:
448,192,102131,1,0,0:0:0:0:
192,192,102131,1,0,0:0:0:0:
320,192,102206,1,0,0:0:0:0:
448,192,102281,1,0,0:0:0:0:
64,192,102281,1,0,0:0:0:0:
192,192,102356,1,0,0:0:0:0:
320,192,102431,1,0,0:0:0:0:
448,192,102506,1,0,0:0:0:0:
64,192,102581,1,0,0:0:0:0:
320,192,102581,1,0,0:0:0:0:
192,192,102656,1,0,0:0:0:0:
320,192,102731,1,0,0:0:0:0:
448,192,102806,1,0,0:0:0:0:
64,192,102881,1,0,0:0:0:0:
320,192,102881,1,0,0:0:0:0:
192,192,102956,1,0,0:0:0:0:
320,192,103031,1,0,0:0:0:0:
448,192,103106,1,0,0:0:0:0:
64,192,103106,1,0,0:0:0:0:
320,192,103181,1,0,0:0:0:0:
192,192,103181,1,0,0:0:0:0:
64,192,103256,1,0,0:0:0:0:
448,192,103331,1,0,0:0:0:0:
192,192,103331,1,0,0:0:0:0:
320,192,103406,1,0,0:0:0:0:
448,192,103481,1,0,0:0:0:0:
64,192,103481,1,0,0:0:0:0:
192,192,103556,1,0,0:0:0:0:
320,192,103631,1,0,0:0:0:0:
448,192,103706,1,0,0:0:0:0:
64,192,103781,1,0,0:0:0:0:
320,192,103781,1,0,0:0:0:0:
192,192,103856,1,0,0:0:0:0:
64,192,103931,1,0,0:0:0:0:
448,192,104006,1,0,0:0:0:0:
320,192,104081,1,0,0:0:0:0:
192,192,104156,1,0,0:0:0:0:
64,192,104231,1,0,0:0:0:0:
320,192,104306,1,0,0:0:0:0:
64,192,104381,1,0,0:0:0:0:
192,192,104381,1,0,0:0:0:0:
320,192,104456,1,0,0:0:0:0:
64,192,104531,1,0,0:0:0:0:
448,192,104531,1,0,0:0:0:0:
192,192,104606,1,0,0:0:0:0:
448,192,104681,1,0,0:0:0:0:
320,192,104681,1,0,0:0:0:0:
64,192,104756,1,0,0:0:0:0:
192,192,104831,1,0,0:0:0:0:
320,192,104906,1,0,0:0:0:0:
64,192,104981,1,0,0:0:0:0:
448,192,104981,128,0,105431:0:0:0:0:
320,192,105056,1,0,0:0:0:0:
64,192,105131,1,0,0:0:0:0:
320,192,105206,1,0,0:0:0:0:
64,192,105281,1,0,0:0:0:0:
320,192,105356,1,0,0:0:0:0:
192,192,105431,1,0,0:0:0:0:
64,192,105431,1,0,0:0:0:0:
320,192,105506,1,0,0:0:0:0:
448,192,105506,1,0,0:0:0:0:
192,192,105581,1,0,0:0:0:0:
64,192,105581,1,0,0:0:0:0:
448,192,105656,1,0,0:0:0:0:
64,192,105731,1,0,0:0:0:0:
320,192,105731,1,0,0:0:0:0:
192,192,105806,1,0,0:0:0:0:
320,192,105881,1,0,0:0:0:0:
448,192,105881,1,0,0:0:0:0:
192,192,105956,1,0,0:0:0:0:
64,192,105956,1,0,0:0:0:0:
448,192,106031,1,0,0:0:0:0:
320,192,106031,1,0,0:0:0:0:
192,192,106106,1,0,0:0:0:0:
64,192,106106,1,0,0:0:0:0:
320,192,106181,1,0,0:0:0:0:
448,192,106181,1,0,0:0:0:0:
192,192,106231,1,0,0:0:0:0:
64,192,106281,1,0,0:0:0:0:
448,192,106331,1,0,0:0:0:0:
320,192,106406,1,0,0:0:0:0:
64,192,106481,1,0,0:0:0:0:
320,192,106556,1,0,0:0:0:0:
192,192,106631,1,0,0:0:0:0:
448,192,106681,1,0,0:0:0:0:
64,192,106731,1,0,0:0:0:0:
192,192,106781,1,0,0:0:0:0:
320,192,106856,1,0,0:0:0:0:
64,192,106931,1,0,0:0:0:0:
448,192,107006,1,0,0:0:0:0:
192,192,107081,1,0,0:0:0:0:
320,192,107131,1,0,0:0:0:0:
448,192,107181,1,0,0:0:0:0:
64,192,107231,1,0,0:0:0:0:
320,192,107306,1,0,0:0:0:0:
64,192,107381,1,0,0:0:0:0:
192,192,107431,1,0,0:0:0:0:
320,192,107481,1,0,0:0:0:0:
64,192,107531,1,0,0:0:0:0:
192,192,107606,1,0,0:0:0:0:
448,192,107681,1,0,0:0:0:0:
192,192,107756,1,0,0:0:0:0:
320,192,107831,1,0,0:0:0:0:
64,192,107881,1,0,0:0:0:0:
448,192,107931,1,0,0:0:0:0:
320,192,107981,1,0,0:0:0:0:
192,192,108056,1,0,0:0:0:0:
448,192,108131,1,0,0:0:0:0:
64,192,108206,1,0,0:0:0:0:
320,192,108281,1,0,0:0:0:0:
192,192,108331,1,0,0:0:0:0:
320,192,108381,1,0,0:0:0:0:
64,192,108431,1,0,0:0:0:0:
192,192,108506,1,0,0:0:0:0:
320,192,108581,1,0,0:0:0:0:
192,192,108631,1,0,0:0:0:0:
320,192,108681,1,0,0:0:0:0:
64,192,108731,1,0,0:0:0:0:
192,192,108806,1,0,0:0:0:0:
448,192,108881,1,0,0:0:0:0:
320,192,108956,1,0,0:0:0:0:
192,192,109031,1,0,0:0:0:0:
64,192,109081,1,0,0:0:0:0:
448,192,109131,1,0,0:0:0:0:
192,192,109181,1,0,0:0:0:0:
320,192,109256,1,0,0:0:0:0:
448,192,109331,1,0,0:0:0:0:
64,192,109406,1,0,0:0:0:0:
192,192,109481,1,0,0:0:0:0:
320,192,109531,1,0,0:0:0:0:
64,192,109581,1,0,0:0:0:0:
448,192,109631,1,0,0:0:0:0:
192,192,109706,1,0,0:0:0:0:
448,192,109781,1,0,0:0:0:0:
192,192,109881,1,0,0:0:0:0:
448,192,109981,1,0,0:0:0:0:
192,192,110081,1,0,0:0:0:0:
448,192,110181,1,0,0:0:0:0:
192,192,110281,1,0,0:0:0:0:
448,192,110381,1,0,0:0:0:0:
448,192,110981,1,0,0:0:0:0:
192,192,111031,1,0,0:0:0:0:
64,192,111081,1,0,0:0:0:0:
448,192,111131,1,0,0:0:0:0:
320,192,111206,1,0,0:0:0:0:
64,192,111281,1,0,0:0:0:0:
320,192,111356,1,0,0:0:0:0:
192,192,111431,1,0,0:0:0:0:
448,192,111481,1,0,0:0:0:0:
64,192,111531,1,0,0:0:0:0:
192,192,111581,1,0,0:0:0:0:
320,192,111656,1,0,0:0:0:0:
64,192,111731,1,0,0:0:0:0:
448,192,111806,1,0,0:0:0:0:
192,192,111881,1,0,0:0:0:0:
320,192,111931,1,0,0:0:0:0:
448,192,111981,1,0,0:0:0:0:
64,192,112031,1,0,0:0:0:0:
320,192,112106,1,0,0:0:0:0:
64,192,112181,1,0,0:0:0:0:
192,192,112231,1,0,0:0:0:0:
320,192,112281,1,0,0:0:0:0:
64,192,112331,1,0,0:0:0:0:
192,192,112406,1,0,0:0:0:0:
448,192,112481,1,0,0:0:0:0:
192,192,112556,1,0,0:0:0:0:
320,192,112631,1,0,0:0:0:0:
64,192,112681,1,0,0:0:0:0:
448,192,112731,1,0,0:0:0:0:
320,192,112781,1,0,0:0:0:0:
192,192,112856,1,0,0:0:0:0:
448,192,112931,1,0,0:0:0:0:
64,192,113006,1,0,0:0:0:0:
320,192,113081,1,0,0:0:0:0:
192,192,113131,1,0,0:0:0:0:
320,192,113181,1,0,0:0:0:0:
64,192,113231,1,0,0:0:0:0:
192,192,113306,1,0,0:0:0:0:
320,192,113381,1,0,0:0:0:0:
192,192,113431,1,0,0:0:0:0:
320,192,113481,1,0,0:0:0:0:
64,192,113531,1,0,0:0:0:0:
192,192,113606,1,0,0:0:0:0:
448,192,113681,1,0,0:0:0:0:
320,192,113756,1,0,0:0:0:0:
192,192,113831,1,0,0:0:0:0:
64,192,113881,1,0,0:0:0:0:
448,192,113931,1,0,0:0:0:0:
192,192,113981,1,0,0:0:0:0:
320,192,114056,1,0,0:0:0:0:
448,192,114131,1,0,0:0:0:0:
64,192,114206,1,0,0:0:0:0:
192,192,114281,1,0,0:0:0:0:
320,192,114331,1,0,0:0:0:0:
64,192,114381,1,0,0:0:0:0:
448,192,114431,1,0,0:0:0:0:
192,192,114506,1,0,0:0:0:0:
448,192,114581,1,0,0:0:0:0:
320,192,114656,1,0,0:0:0:0:
64,192,114731,1,0,0:0:0:0:
448,192,114881,1,0,0:0:0:0:
320,192,114918,1,0,0:0:0:0:
192,192,114956,1,0,0:0:0:0:
64,192,114993,1,0,0:0:0:0:
448,192,115031,1,0,0:0:0:0:
320,192,115081,1,0,0:0:0:0:
192,192,115131,1,0,0:0:0:0:
320,192,115181,1,0,0:0:0:0:
64,192,115218,1,0,0:0:0:0:
320,192,115481,1,0,0:0:0:0:
192,192,115556,1,0,0:0:0:0:
64,192,115631,1,0,0:0:0:0:
320,192,115781,1,0,0:0:0:0:
448,192,115781,1,0,0:0:0:0:
192,192,115831,1,0,0:0:0:0:
64,192,115881,1,0,0:0:0:0:
448,192,115931,1,0,0:0:0:0:
320,192,115981,1,0,0:0:0:0:
64,192,116081,1,0,0:0:0:0:
320,192,116156,1,0,0:0:0:0:
192,192,116231,1,0,0:0:0:0:
448,192,116281,1,0,0:0:0:0:
64,192,116331,1,0,0:0:0:0:
192,192,116381,1,0,0:0:0:0:
320,192,116456,1,0,0:0:0:0:
64,192,116531,1,0,0:0:0:0:
448,192,116606,1,0,0:0:0:0:
192,192,116681,1,0,0:0:0:0:
320,192,116731,1,0,0:0:0:0:
448,192,116781,1,0,0:0:0:0:
64,192,116831,1,0,0:0:0:0:
320,192,116906,1,0,0:0:0:0:
64,192,116981,1,0,0:0:0:0:
192,192,117031,1,0,0:0:0:0:
320,192,117081,1,0,0:0:0:0:
64,192,117131,1,0,0:0:0:0:
192,192,117206,1,0,0:0:0:0:
448,192,117281,1,0,0:0:0:0:
192,192,117356,1,0,0:0:0:0:
320,192,117431,1,0,0:0:0:0:
64,192,117481,1,0,0:0:0:0:
448,192,117531,1,0,0:0:0:0:
320,192,117581,1,0,0:0:0:0:
192,192,117656,1,0,0:0:0:0:
448,192,117731,1,0,0:0:0:0:
64,192,117806,1,0,0:0:0:0:
320,192,117881,1,0,0:0:0:0:
192,192,117931,1,0,0:0:0:0:
320,192,117981,1,0,0:0:0:0:
64,192,118031,1,0,0:0:0:0:
192,192,118106,1,0,0:0:0:0:
320,192,118181,1,0,0:0:0:0:
192,192,118231,1,0,0:0:0:0:
320,192,118281,1,0,0:0:0:0:
64,192,118331,1,0,0:0:0:0:
192,192,118406,1,0,0:0:0:0:
448,192,118481,1,0,0:0:0:0:
320,192,118556,1,0,0:0:0:0:
192,192,118631,1,0,0:0:0:0:
64,192,118681,1,0,0:0:0:0:
448,192,118731,1,0,0:0:0:0:
192,192,118781,1,0,0:0:0:0:
320,192,118856,1,0,0:0:0:0:
448,192,118931,1,0,0:0:0:0:
64,192,119006,1,0,0:0:0:0:
192,192,119081,1,0,0:0:0:0:
320,192,119131,1,0,0:0:0:0:
64,192,119181,1,0,0:0:0:0:
448,192,119231,1,0,0:0:0:0:
192,192,119306,1,0,0:0:0:0:
448,192,119381,1,0,0:0:0:0:
192,192,119481,1,0,0:0:0:0:
448,192,119581,1,0,0:0:0:0:
192,192,119681,1,0,0:0:0:0:
448,192,119781,1,0,0:0:0:0:
192,192,119881,1,0,0:0:0:0:
448,192,119981,1,0,0:0:0:0:
64,192,120281,1,0,0:0:0:0:
64,192,120431,1,0,0:0:0:0:
448,192,120581,1,0,0:0:0:0:
192,192,120631,1,0,0:0:0:0:
64,192,120681,1,0,0:0:0:0:
448,192,120731,1,0,0:0:0:0:
320,192,120806,1,0,0:0:0:0:
64,192,120881,1,0,0:0:0:0:
320,192,120956,1,0,0:0:0:0:
192,192,121031,1,0,0:0:0:0:
448,192,121081,1,0,0:0:0:0:
64,192,121131,1,0,0:0:0:0:
192,192,121181,1,0,0:0:0:0:
320,192,121256,1,0,0:0:0:0:
64,192,121331,1,0,0:0:0:0:
448,192,121406,1,0,0:0:0:0:
192,192,121481,1,0,0:0:0:0:
320,192,121531,1,0,0:0:0:0:
448,192,121581,1,0,0:0:0:0:
64,192,121631,1,0,0:0:0:0:
320,192,121706,1,0,0:0:0:0:
64,192,121781,1,0,0:0:0:0:
192,192,121831,1,0,0:0:0:0:
320,192,121881,1,0,0:0:0:0:
64,192,121931,1,0,0:0:0:0:
192,192,122006,1,0,0:0:0:0:
448,192,122081,1,0,0:0:0:0:
192,192,122156,1,0,0:0:0:0:
320,192,122231,1,0,0:0:0:0:
64,192,122281,1,0,0:0:0:0:
448,192,122331,1,0,0:0:0:0:
320,192,122381,1,0,0:0:0:0:
192,192,122456,1,0,0:0:0:0:
448,192,122531,1,0,0:0:0:0:
64,192,122606,1,0,0:0:0:0:
320,192,122681,1,0,0:0:0:0:
448,192,122731,1,0,0:0:0:0:
192,192,122781,1,0,0:0:0:0:
64,192,122831,1,0,0:0:0:0:
448,192,122981,1,0,0:0:0:0:
320,192,122981,1,0,0:0:0:0:
192,192,123031,1,0,0:0:0:0:
64,192,123081,1,0,0:0:0:0:
320,192,123181,1,0,0:0:0:0:
64,192,123281,1,0,0:0:0:0:
320,192,123381,1,0,0:0:0:0:
64,192,123481,1,0,0:0:0:0:
448,192,123531,1,0,0:0:0:0:
192,192,123581,1,0,0:0:0:0:
320,192,123581,1,0,0:0:0:0:
448,192,123681,1,0,0:0:0:0:
192,192,123781,1,0,0:0:0:0:
448,192,123881,1,0,0:0:0:0:
192,192,123981,1,0,0:0:0:0:
64,192,124031,1,0,0:0:0:0:
320,192,124031,1,0,0:0:0:0:
448,192,124081,1,0,0:0:0:0:
192,192,124181,1,0,0:0:0:0:
64,192,124181,1,0,0:0:0:0:
448,192,124281,1,0,0:0:0:0:
192,192,124381,1,0,0:0:0:0:
448,192,124481,1,0,0:0:0:0:
64,192,124481,1,0,0:0:0:0:
192,192,124581,1,0,0:0:0:0:
448,192,124681,1,0,0:0:0:0:
64,192,124781,1,0,0:0:0:0:
320,192,124781,1,0,0:0:0:0:
192,192,124818,1,0,0:0:0:0:
448,192,124856,1,0,0:0:0:0:
320,192,124893,1,0,0:0:0:0:
64,192,124931,1,0,0:0:0:0:
192,192,124968,1,0,0:0:0:0:
448,192,125006,1,0,0:0:0:0:
320,192,125043,1,0,0:0:0:0:
64,192,125081,1,0,0:0:0:0:
192,192,125081,1,0,0:0:0:0:
192,192,125156,1,0,0:0:0:0:
64,192,125156,1,0,0:0:0:0:
320,192,125231,1,0,0:0:0:0:
448,192,125231,1,0,0:0:0:0:
320,192,125306,1,0,0:0:0:0:
448,192,125306,1,0,0:0:0:0:
192,192,125381,1,0,0:0:0:0:
64,192,125381,1,0,0:0:0:0:
320,192,125431,1,0,0:0:0:0:
448,192,125481,1,0,0:0:0:0:
64,192,125531,1,0,0:0:0:0:
192,192,125581,1,0,0:0:0:0:
320,192,125631,1,0,0:0:0:0:
192,192,125681,1,0,0:0:0:0:
64,192,125681,1,0,0:0:0:0:
448,192,125731,1,0,0:0:0:0:
320,192,125781,1,0,0:0:0:0:
192,192,125831,1,0,0:0:0:0:
64,192,125831,1,0,0:0:0:0:
320,192,125906,1,0,0:0:0:0:
448,192,125981,1,0,0:0:0:0:
64,192,125981,1,0,0:0:0:0:
192,192,126056,1,0,0:0:0:0:
320,192,126131,1,0,0:0:0:0:
192,192,126206,1,0,0:0:0:0:
448,192,126281,1,0,0:0:0:0:
64,192,126281,1,0,0:0:0:0:
320,192,126331,1,0,0:0:0:0:
192,192,126381,1,0,0:0:0:0:
64,192,126431,1,0,0:0:0:0:
448,192,126481,1,0,0:0:0:0:
320,192,126531,1,0,0:0:0:0:
192,192,126581,1,0,0:0:0:0:
448,192,126581,1,0,0:0:0:0:
64,192,126631,1,0,0:0:0:0:
192,192,126681,1,0,0:0:0:0:
320,192,126731,1,0,0:0:0:0:
448,192,126781,1,0,0:0:0:0:
192,192,126831,1,0,0:0:0:0:
320,192,126881,1,0,0:0:0:0:
448,192,126881,1,0,0:0:0:0:
64,192,126931,1,0,0:0:0:0:
192,192,126981,1,0,0:0:0:0:
320,192,127031,1,0,0:0:0:0:
448,192,127031,1,0,0:0:0:0:
192,192,127106,1,0,0:0:0:0:
64,192,127181,1,0,0:0:0:0:
320,192,127181,1,0,0:0:0:0:
448,192,127256,1,0,0:0:0:0:
192,192,127331,1,0,0:0:0:0:
320,192,127406,1,0,0:0:0:0:
448,192,127481,1,0,0:0:0:0:
64,192,127481,1,0,0:0:0:0:
192,192,127531,1,0,0:0:0:0:
320,192,127581,1,0,0:0:0:0:
64,192,127631,1,0,0:0:0:0:
192,192,127706,1,0,0:0:0:0:
64,192,127781,1,0,0:0:0:0:
448,192,127781,1,0,0:0:0:0:
320,192,127831,1,0,0:0:0:0:
192,192,127881,1,0,0:0:0:0:
64,192,127931,1,0,0:0:0:0:
448,192,128006,1,0,0:0:0:0:
320,192,128081,1,0,0:0:0:0:
192,192,128081,1,0,0:0:0:0:
64,192,128156,1,0,0:0:0:0:
448,192,128231,1,0,0:0:0:0:
192,192,128231,1,0,0:0:0:0:
320,192,128306,1,0,0:0:0:0:
64,192,128381,1,0,0:0:0:0:
448,192,128381,1,0,0:0:0:0:
192,192,128456,1,0,0:0:0:0:
320,192,128531,1,0,0:0:0:0:
192,192,128606,1,0,0:0:0:0:
320,192,128681,1,0,0:0:0:0:
64,192,128681,1,0,0:0:0:0:
448,192,128681,1,0,0:0:0:0:
192,192,128756,1,0,0:0:0:0:
448,192,128831,1,0,0:0:0:0:
320,192,128906,1,0,0:0:0:0:
192,192,128981,1,0,0:0:0:0:
64,192,128981,1,0,0:0:0:0:
320,192,129056,1,0,0:0:0:0:
448,192,129081,1,0,0:0:0:0:
192,192,129181,1,0,0:0:0:0:
320,192,129206,1,0,0:0:0:0:
64,192,129281,1,0,0:0:0:0:
448,192,129281,1,0,0:0:0:0:
192,192,129381,1,0,0:0:0:0:
448,192,129431,1,0,0:0:0:0:
64,192,129481,1,0,0:0:0:0:
192,192,129506,1,0,0:0:0:0:
448,192,129581,1,0,0:0:0:0:
320,192,129581,1,0,0:0:0:0:
64,192,129681,1,0,0:0:0:0:
320,192,129731,1,0,0:0:0:0:
192,192,129781,1,0,0:0:0:0:
448,192,129806,1,0,0:0:0:0:
64,192,129881,1,0,0:0:0:0:
320,192,129881,1,0,0:0:0:0:
320,192,130031,1,0,0:0:0:0:
192,192,130181,1,0,0:0:0:0:
64,192,130181,1,0,0:0:0:0:
320,192,130231,1,0,0:0:0:0:
64,192,130281,1,0,0:0:0:0:
448,192,130331,1,0,0:0:0:0:
192,192,130381,1,0,0:0:0:0:
320,192,130431,1,0,0:0:0:0:
448,192,130481,1,0,0:0:0:0:
192,192,130531,1,0,0:0:0:0:
320,192,130581,1,0,0:0:0:0:
192,192,130631,1,0,0:0:0:0:
64,192,130631,1,0,0:0:0:0:
320,192,130706,1,0,0:0:0:0:
448,192,130781,1,0,0:0:0:0:
64,192,130781,1,0,0:0:0:0:
192,192,130856,1,0,0:0:0:0:
320,192,130931,1,0,0:0:0:0:
192,192,131006,1,0,0:0:0:0:
448,192,131081,1,0,0:0:0:0:
64,192,131081,1,0,0:0:0:0:
320,192,131131,1,0,0:0:0:0:
192,192,131181,1,0,0:0:0:0:
64,192,131231,1,0,0:0:0:0:
448,192,131281,1,0,0:0:0:0:
320,192,131331,1,0,0:0:0:0:
192,192,131381,1,0,0:0:0:0:
448,192,131381,1,0,0:0:0:0:
64,192,131431,1,0,0:0:0:0:
192,192,131481,1,0,0:0:0:0:
320,192,131531,1,0,0:0:0:0:
192,192,131581,1,0,0:0:0:0:
448,192,131631,1,0,0:0:0:0:
320,192,131681,1,0,0:0:0:0:
64,192,131731,1,0,0:0:0:0:
192,192,131781,1,0,0:0:0:0:
320,192,131831,1,0,0:0:0:0:
448,192,131831,1,0,0:0:0:0:
192,192,131906,1,0,0:0:0:0:
64,192,131981,1,0,0:0:0:0:
320,192,131981,1,0,0:0:0:0:
448,192,132056,1,0,0:0:0:0:
192,192,132131,1,0,0:0:0:0:
320,192,132206,1,0,0:0:0:0:
448,192,132281,1,0,0:0:0:0:
64,192,132281,1,0,0:0:0:0:
192,192,132331,1,0,0:0:0:0:
320,192,132381,1,0,0:0:0:0:
64,192,132431,1,0,0:0:0:0:
192,192,132506,1,0,0:0:0:0:
64,192,132581,1,0,0:0:0:0:
448,192,132581,1,0,0:0:0:0:
320,192,132631,1,0,0:0:0:0:
192,192,132681,1,0,0:0:0:0:
448,192,132731,1,0,0:0:0:0:
64,192,132781,1,0,0:0:0:0:
320,192,132831,1,0,0:0:0:0:
192,192,132881,1,0,0:0:0:0:
320,192,132931,1,0,0:0:0:0:
64,192,132981,1,0,0:0:0:0:
448,192,133031,1,0,0:0:0:0:
192,192,133031,1,0,0:0:0:0:
320,192,133106,1,0,0:0:0:0:
64,192,133181,1,0,0:0:0:0:
448,192,133181,1,0,0:0:0:0:
192,192,133256,1,0,0:0:0:0:
320,192,133331,1,0,0:0:0:0:
192,192,133406,1,0,0:0:0:0:
320,192,133481,1,0,0:0:0:0:
64,192,133481,1,0,0:0:0:0:
448,192,133481,1,0,0:0:0:0:
192,192,133556,1,0,0:0:0:0:
448,192,133631,1,0,0:0:0:0:
320,192,133706,1,0,0:0:0:0:
192,192,133781,1,0,0:0:0:0:
64,192,133781,1,0,0:0:0:0:
320,192,133831,1,0,0:0:0:0:
448,192,133881,1,0,0:0:0:0:
64,192,133931,1,0,0:0:0:0:
192,192,133981,1,0,0:0:0:0:
448,192,134081,1,0,0:0:0:0:
320,192,134081,1,0,0:0:0:0:
192,192,134118,1,0,0:0:0:0:
64,192,134156,1,0,0:0:0:0:
448,192,134193,1,0,0:0:0:0:
320,192,134231,1,0,0:0:0:0:
192,192,134268,1,0,0:0:0:0:
64,192,134306,1,0,0:0:0:0:
448,192,134343,1,0,0:0:0:0:
320,192,134381,1,0,0:0:0:0:
192,192,134381,1,0,0:0:0:0:
64,192,134431,1,0,0:0:0:0:
448,192,134481,1,0,0:0:0:0:
320,192,134531,1,0,0:0:0:0:
192,192,134581,1,0,0:0:0:0:
448,192,134631,1,0,0:0:0:0:
64,192,134681,1,0,0:0:0:0:
320,192,134681,1,0,0:0:0:0:
448,192,134731,1,0,0:0:0:0:
192,192,134781,1,0,0:0:0:0:
320,192,134831,1,0,0:0:0:0:
448,192,134981,1,0,0:0:0:0:
192,192,134981,1,0,0:0:0:0:
64,192,134981,1,0,0:0:0:0:
320,192,135031,1,0,0:0:0:0:
448,192,135081,1,0,0:0:0:0:
64,192,135131,1,0,0:0:0:0:
192,192,135181,1,0,0:0:0:0:
320,192,135231,1,0,0:0:0:0:
448,192,135281,1,0,0:0:0:0:
192,192,135331,1,0,0:0:0:0:
320,192,135381,1,0,0:0:0:0:
192,192,135431,1,0,0:0:0:0:
64,192,135431,1,0,0:0:0:0:
320,192,135506,1,0,0:0:0:0:
448,192,135581,1,0,0:0:0:0:
64,192,135581,1,0,0:0:0:0:
192,192,135656,1,0,0:0:0:0:
320,192,135731,1,0,0:0:0:0:
192,192,135806,1,0,0:0:0:0:
448,192,135881,1,0,0:0:0:0:
64,192,135881,1,0,0:0:0:0:
320,192,135931,1,0,0:0:0:0:
192,192,135981,1,0,0:0:0:0:
64,192,136031,1,0,0:0:0:0:
448,192,136081,1,0,0:0:0:0:
192,192,136131,1,0,0:0:0:0:
320,192,136181,1,0,0:0:0:0:
448,192,136181,1,0,0:0:0:0:
64,192,136231,1,0,0:0:0:0:
192,192,136281,1,0,0:0:0:0:
320,192,136331,1,0,0:0:0:0:
448,192,136381,1,0,0:0:0:0:
192,192,136431,1,0,0:0:0:0:
64,192,136481,1,0,0:0:0:0:
320,192,136531,1,0,0:0:0:0:
192,192,136581,1,0,0:0:0:0:
64,192,136631,1,0,0:0:0:0:
448,192,136631,1,0,0:0:0:0:
320,192,136706,1,0,0:0:0:0:
64,192,136781,1,0,0:0:0:0:
192,192,136781,1,0,0:0:0:0:
448,192,136856,1,0,0:0:0:0:
320,192,136931,1,0,0:0:0:0:
192,192,137006,1,0,0:0:0:0:
448,192,137081,1,0,0:0:0:0:
64,192,137081,1,0,0:0:0:0:
320,192,137131,1,0,0:0:0:0:
192,192,137181,1,0,0:0:0:0:
320,192,137231,1,0,0:0:0:0:
192,192,137306,1,0,0:0:0:0:
64,192,137381,1,0,0:0:0:0:
448,192,137381,1,0,0:0:0:0:
192,192,137431,1,0,0:0:0:0:
320,192,137481,1,0,0:0:0:0:
448,192,137531,1,0,0:0:0:0:
64,192,137581,1,0,0:0:0:0:
192,192,137631,1,0,0:0:0:0:
320,192,137681,1,0,0:0:0:0:
448,192,137681,1,0,0:0:0:0:
64,192,137731,1,0,0:0:0:0:
192,192,137781,1,0,0:0:0:0:
448,192,137831,1,0,0:0:0:0:
64,192,137831,1,0,0:0:0:0:
320,192,137906,1,0,0:0:0:0:
64,192,137981,1,0,0:0:0:0:
448,192,137981,1,0,0:0:0:0:
192,192,138056,1,0,0:0:0:0:
320,192,138131,1,0,0:0:0:0:
192,192,138206,1,0,0:0:0:0:
64,192,138281,1,0,0:0:0:0:
448,192,138281,1,0,0:0:0:0:
320,192,138331,1,0,0:0:0:0:
192,192,138381,1,0,0:0:0:0:
448,192,138431,1,0,0:0:0:0:
192,192,138506,1,0,0:0:0:0:
320,192,138581,1,0,0:0:0:0:
64,192,138581,1,0,0:0:0:0:
192,192,138681,1,0,0:0:0:0:
64,192,138731,1,0,0:0:0:0:
320,192,138781,1,0,0:0:0:0:
448,192,138806,1,0,0:0:0:0:
64,192,138881,1,0,0:0:0:0:
192,192,138881,1,0,0:0:0:0:
320,192,138981,1,0,0:0:0:0:
448,192,139031,1,0,0:0:0:0:
192,192,139081,1,0,0:0:0:0:
64,192,139106,1,0,0:0:0:0:
448,192,139181,1,0,0:0:0:0:
320,192,139181,1,0,0:0:0:0:
192,192,139256,1,0,0:0:0:0:
64,192,139256,1,0,0:0:0:0:
448,192,139331,1,0,0:0:0:0:
320,192,139406,1,0,0:0:0:0:
64,192,139481,1,0,0:0:0:0:
192,192,139481,1,0,0:0:0:0:
448,192,139556,1,0,0:0:0:0:
320,192,139631,1,0,0:0:0:0:
192,192,139631,1,0,0:0:0:0:
64,192,139706,1,0,0:0:0:0:
448,192,139781,1,0,0:0:0:0:
320,192,139781,1,0,0:0:0:0:
192,192,139831,1,0,0:0:0:0:
64,192,139881,1,0,0:0:0:0:
448,192,139931,1,0,0:0:0:0:
320,192,139981,1,0,0:0:0:0:
64,192,140031,1,0,0:0:0:0:
320,192,140081,1,0,0:0:0:0:
192,192,140131,1,0,0:0:0:0:
64,192,140181,1,0,0:0:0:0:
320,192,140231,1,0,0:0:0:0:
448,192,140231,1,0,0:0:0:0:
192,192,140306,1,0,0:0:0:0:
448,192,140381,1,0,0:0:0:0:
64,192,140381,1,0,0:0:0:0:
192,192,140456,1,0,0:0:0:0:
320,192,140531,1,0,0:0:0:0:
192,192,140606,1,0,0:0:0:0:
448,192,140681,1,0,0:0:0:0:
64,192,140681,1,0,0:0:0:0:
192,192,140756,1,0,0:0:0:0:
320,192,140831,1,0,0:0:0:0:
448,192,140831,1,0,0:0:0:0:
64,192,140906,1,0,0:0:0:0:
320,192,140981,1,0,0:0:0:0:
448,192,140981,1,0,0:0:0:0:
192,192,141031,1,0,0:0:0:0:
64,192,141081,1,0,0:0:0:0:
448,192,141131,1,0,0:0:0:0:
320,192,141181,1,0,0:0:0:0:
64,192,141231,1,0,0:0:0:0:
448,192,141281,1,0,0:0:0:0:
192,192,141331,1,0,0:0:0:0:
64,192,141381,1,0,0:0:0:0:
320,192,141431,1,0,0:0:0:0:
448,192,141431,1,0,0:0:0:0:
192,192,141506,1,0,0:0:0:0:
64,192,141581,1,0,0:0:0:0:
320,192,141581,1,0,0:0:0:0:
448,192,141656,1,0,0:0:0:0:
192,192,141731,1,0,0:0:0:0:
192,192,141881,1,0,0:0:0:0:
64,192,141881,1,0,0:0:0:0:
320,192,141956,1,0,0:0:0:0:
192,192,142031,1,0,0:0:0:0:
448,192,142106,1,0,0:0:0:0:
64,192,142181,1,0,0:0:0:0:
320,192,142181,1,0,0:0:0:0:
192,192,142181,1,0,0:0:0:0:
448,192,142256,1,0,0:0:0:0:
64,192,142331,1,0,0:0:0:0:
192,192,142406,1,0,0:0:0:0:
64,192,142481,1,0,0:0:0:0:
320,192,142556,1,0,0:0:0:0:
64,192,142631,1,0,0:0:0:0:
448,192,142631,1,0,0:0:0:0:
192,192,142706,1,0,0:0:0:0:
64,192,142781,1,0,0:0:0:0:
448,192,142781,1,0,0:0:0:0:
320,192,142781,1,0,0:0:0:0:
192,192,142856,1,0,0:0:0:0:
448,192,142931,1,0,0:0:0:0:
320,192,143006,1,0,0:0:0:0:
448,192,143081,1,0,0:0:0:0:
64,192,143081,1,0,0:0:0:0:
192,192,143156,1,0,0:0:0:0:
448,192,143231,1,0,0:0:0:0:
320,192,143231,1,0,0:0:0:0:
64,192,143306,1,0,0:0:0:0:
448,192,143381,1,0,0:0:0:0:
192,192,143381,1,0,0:0:0:0:
320,192,143381,1,0,0:0:0:0:
64,192,143456,1,0,0:0:0:0:
448,192,143531,1,0,0:0:0:0:
320,192,143531,1,0,0:0:0:0:
192,192,143606,1,0,0:0:0:0:
64,192,143606,1,0,0:0:0:0:
448,192,143681,1,0,0:0:0:0:
320,192,143681,1,0,0:0:0:0:
192,192,143756,1,0,0:0:0:0:
448,192,143831,1,0,0:0:0:0:
64,192,143831,1,0,0:0:0:0:
320,192,143906,1,0,0:0:0:0:
192,192,143906,1,0,0:0:0:0:
448,192,143981,1,0,0:0:0:0:
64,192,143981,1,0,0:0:0:0:
320,192,144056,1,0,0:0:0:0:
192,192,144056,1,0,0:0:0:0:
448,192,144131,1,0,0:0:0:0:
64,192,144131,1,0,0:0:0:0:
320,192,144206,1,0,0:0:0:0:
192,192,144281,1,0,0:0:0:0:
64,192,144281,1,0,0:0:0:0:
64,192,144356,1,0,0:0:0:0:
192,192,144356,1,0,0:0:0:0:
320,192,144431,1,0,0:0:0:0:
448,192,144431,1,0,0:0:0:0:
448,192,144506,1,0,0:0:0:0:
320,192,144506,1,0,0:0:0:0:
192,192,144581,1,0,0:0:0:0:
64,192,144581,1,0,0:0:0:0:
192,192,144731,1,0,0:0:0:0:
320,192,144881,1,0,0:0:0:0:
448,192,145031,1,0,0:0:0:0:
