osu file format v14

[General]
AudioFilename: audio.mp3
AudioLeadIn: 0
PreviewTime: 48206
Countdown: 0
SampleSet: Soft
StackLeniency: 0.7
Mode: 0
LetterboxInBreaks: 0
EpilepsyWarning: 1
WidescreenStoryboard: 1

[Editor]
Bookmarks: 10191,144591
DistanceSpacing: 1
BeatDivisor: 4
GridSize: 32
TimelineZoom: 1

[Metadata]
Title:Cross Over
TitleUnicode:Cross†Over
Artist:HyuN feat. LyuU
ArtistUnicode:HyuN feat. LyuU
Creator:Realazy
Version:Kalibe's Normal
Source:osu!
Tags:enkrypton kalibe bouyaaa pishifat mappers' guild featured artist digital step core PUMP IT UP 2018 PRIME 2
BeatmapID:1863225
BeatmapSetID:891337

[Difficulty]
HPDrainRate:4
CircleSize:3.5
OverallDifficulty:4.5
ApproachRate:6
SliderMultiplier:1.15
SliderTickRate:1

[Events]
//Background and Video events
0,0,"cross_over.jpg",0,0
//Break Periods
2,29581,37931
//Storyboard Layer 0 (Background)
Sprite,Background,Centre,"cross_over.jpg",320,240 F,0,0,,0
Sprite,Background,Centre,"sb/b/ds.jpg",320,240 S,0,0,,0.462963 F,0,0,10180,1
Sprite,Background,Centre,"sb/p.png",320,240 C,0,0,,0,0,0 V,0,0,,1920,1080 F,0,580,1780,1,0.3 F,0,1780,5380,0.3 F,0,5380,5530,0.3,0 F,0,5530,5680,0,0.3 F,0,5680,8980,0.3 F,0,8980,9280,0.3,0
Sprite,Background,Centre,"sb/b/vb.jpg",320,240 S,0,0,,0.4675926 F,0,0,,0
Sprite,Background,Centre,"sb/b/b.jpg",0,240 S,0,0,,0.462963 F,0,0,,0 F,0,9580,9880,0,0.8 MX,0,9580,,330 MX,0,9880,9955,330,325 MX,0,9955,10030,325,330 MX,0,10030,10105,330,325 MX,0,10105,10180,325,330
Sprite,Background,Centre,"sb/b/r.jpg",0,240 S,0,0,,0.462963 F,0,0,,0 F,0,9580,9880,0,0.5 MX,0,9580,,310 MX,0,9880,9955,310,315 MX,0,9955,10030,315,310 MX,0,10030,10105,310,315 MX,0,10105,10180,315,310
Sprite,Background,Centre,"sb/b/nm.jpg",0,0 S,0,0,,0.462963 F,0,0,,0 F,0,10180,29380,1 S,0,10180,,0.462963 F,0,10180,10480,0,1 F,0,29080,29380,1,0 M,8,0,10181,307,229,311,232.45 M,8,10181,10781,311,232.45,313,233.37 M,8,10781,11381,313,233.37,311.97,233.89 M,8,11381,11681,311.97,233.89,312.71,234.76 M,8,11681,11981,312.71,234.76,311.78,235.44 M,8,11981,12581,311.78,235.44,312.71,234.76 M,8,12581,13181,312.71,234.76,314.8,235.59 M,8,13181,13481,314.8,235.59,314.65,234.54 M,8,13481,13781,314.65,234.54,315.41,233.67 M,8,13781,14231,315.41,233.67,314.26,232.65 M,8,14231,14381,314.26,232.65 M,8,14381,14981,314.26,232.65,313.24,232.1 M,8,14981,15581,313.24,232.1,311.27,233.07 M,8,15581,16181,311.27,233.07,312.21,233.72 M,8,16181,16481,312.21,233.72,313.24,233.2 M,8,16481,16781,313.24,233.2,314.25,233.73 M,8,16781,17381,314.25,233.73,313.36,234.46 M,8,17381,17981,313.36,234.46,312.48,234.7 M,8,17981,18281,312.48,234.7,311.92,235.6 M,8,18281,18581,311.92,235.6,310.85,235.17 M,8,18581,19031,310.85,235.17,311.48,233.85 M,8,19031,19181,311.48,233.85 M,8,19181,19481,311.48,233.85,311.84,232.96 M,8,19481,19781,311.84,232.96,312.21,231.88 M,8,19781,20681,312.21,231.88,313.21,232.43 M,8,20681,20981,313.21,232.43,314.27,232.23 M,8,20981,21581,314.27,232.23,313.91,234.18 M,8,21581,21881,313.91,234.18,312.85,233.73 M,8,21881,22181,312.85,233.73,311.82,234.25 M,8,22181,22781,311.82,234.25,312.48,234.94 M,8,22781,23081,312.48,234.94,313.55,235.11 M,8,23081,23381,313.55,235.11,314.57,235.62 M,8,23381,23831,314.57,235.62,314.36,234.1 M,8,23831,23981,314.36,234.1 M,8,23981,24581,314.36,234.1,315.37,233.56 M,8,24581,25181,315.37,233.56,314.32,231.89 M,8,25181,25481,314.32,231.89,313.36,232.53 M,8,25481,25781,313.36,232.53,312.38,231.92 M,8,25781,26381,312.38,231.92,312.99,233.7 M,8,26381,26981,312.99,233.7,311.93,234.15 M,8,26981,27581,311.93,234.15,313.39,235.4 M,8,27581,27881,313.39,235.4,312.31,234.98 M,8,27881,28181,312.31,234.98,311.27,235.44 M,8,28181,28481,311.27,235.44,310.74,234.41 M,8,28481,28781,310.74,234.41,311.73,233.83 M,8,28781,29081,311.73,233.83,311.35,232.94
Sprite,Background,Centre,"sb/b/br.jpg",0,0 S,0,0,,0.462963 F,0,0,,0 F,0,19780,20080,0,1 F,0,20080,20230,1,0 M,8,0,10181,307,229,311,232.45 M,8,10181,10781,311,232.45,313,233.37 M,8,10781,11381,313,233.37,311.97,233.89 M,8,11381,11681,311.97,233.89,312.71,234.76 M,8,11681,11981,312.71,234.76,311.78,235.44 M,8,11981,12581,311.78,235.44,312.71,234.76 M,8,12581,13181,312.71,234.76,314.8,235.59 M,8,13181,13481,314.8,235.59,314.65,234.54 M,8,13481,13781,314.65,234.54,315.41,233.67 M,8,13781,14231,315.41,233.67,314.26,232.65 M,8,14231,14381,314.26,232.65 M,8,14381,14981,314.26,232.65,313.24,232.1 M,8,14981,15581,313.24,232.1,311.27,233.07 M,8,15581,16181,311.27,233.07,312.21,233.72 M,8,16181,16481,312.21,233.72,313.24,233.2 M,8,16481,16781,313.24,233.2,314.25,233.73 M,8,16781,17381,314.25,233.73,313.36,234.46 M,8,17381,17981,313.36,234.46,312.48,234.7 M,8,17981,18281,312.48,234.7,311.92,235.6 M,8,18281,18581,311.92,235.6,310.85,235.17 M,8,18581,19031,310.85,235.17,311.48,233.85 M,8,19031,19181,311.48,233.85 M,8,19181,19481,311.48,233.85,311.84,232.96 M,8,19481,19781,311.84,232.96,312.21,231.88 M,8,19781,20681,312.21,231.88,313.21,232.43 M,8,20681,20981,313.21,232.43,314.27,232.23 M,8,20981,21581,314.27,232.23,313.91,234.18 M,8,21581,21881,313.91,234.18,312.85,233.73 M,8,21881,22181,312.85,233.73,311.82,234.25 M,8,22181,22781,311.82,234.25,312.48,234.94 M,8,22781,23081,312.48,234.94,313.55,235.11 M,8,23081,23381,313.55,235.11,314.57,235.62 M,8,23381,23831,314.57,235.62,314.36,234.1 M,8,23831,23981,314.36,234.1 M,8,23981,24581,314.36,234.1,315.37,233.56 M,8,24581,25181,315.37,233.56,314.32,231.89 M,8,25181,25481,314.32,231.89,313.36,232.53 M,8,25481,25781,313.36,232.53,312.38,231.92 M,8,25781,26381,312.38,231.92,312.99,233.7 M,8,26381,26981,312.99,233.7,311.93,234.15 M,8,26981,27581,311.93,234.15,313.39,235.4 M,8,27581,27881,313.39,235.4,312.31,234.98 M,8,27881,28181,312.31,234.98,311.27,235.44 M,8,28181,28481,311.27,235.44,310.74,234.41 M,8,28481,28781,310.74,234.41,311.73,233.83 M,8,28781,29081,311.73,233.83,311.35,232.94
Sprite,Background,Centre,"sb/p.png",320,240 C,0,0,,255,255,255 V,0,0,,1920,1060 F,0,0,,0 F,0,10180,10480,0.7,0
Sprite,Background,Centre,"sb/p.png",0,0 C,0,0,,0,0,0 M,0,0,,320,150 V,0,10180,10480,0,60,1000,60 F,0,0,,0 F,0,10180,20080,0.5 V,7,19780,20080,1000,60,0,60
Sprite,Background,Centre,"sb/b/planet-nm.jpg",0,0 S,0,29380,,0.8 F,0,0,,0 F,0,29380,48580,1 M,0,29380,38980,580,340,300,310 S,0,38980,,0.4963806 M,0,38980,,320,240
Sprite,Background,Centre,"sb/p.png",320,240 V,0,0,,1920,1080 C,0,0,,0,0,0 F,0,0,,0 F,0,29380,38380,0.5 F,0,38380,38980,0.5,1 F,0,38980,39080,1,0
Sprite,Background,Centre,"sb/b/planet-br.jpg",320,240 S,0,29380,,0.4963806 F,0,0,,0 F,0,39430,39730,0.7,0 F,0,39880,40180,0.7,0 F,0,40330,40630,0.7,0 F,0,40780,41080,0.7,0 F,0,41080,41380,0.7,0 F,0,41380,41680,0.7,0 F,0,41830,42130,0.7,0 F,0,42280,42580,0.7,0 F,0,42730,43030,0.7,0 F,0,43180,43480,0.7,0 F,0,43480,43780,0.7,0 F,0,43780,44080,0.7,0 F,0,44230,44530,0.7,0 F,0,44680,44980,0.7,0 F,0,45130,45430,0.7,0 F,0,45580,45880,0.7,0 F,0,45880,46180,0.7,0 F,0,46180,46480,0.7,0 F,0,46630,46930,0.7,0 F,0,47080,47380,0.7,0 F,0,47530,47830,0.7,0
Sprite,Background,Centre,"sb/b/nm.jpg",0,0 F,0,0,,0 F,0,48580,,1 S,0,48580,,0.462963 M,8,0,48581,307,229,314.34,233.76 M,8,48581,49481,314.34,233.76,311.45,235.41 M,8,49481,49631,311.45,235.41 M,8,49631,49781,311.45,235.41 M,8,49781,50231,311.45,235.41,310.79,234 M,8,50231,50681,310.79,234,312,233 M,8,50681,50981,312,233,310.99,232.5 M,8,50981,51281,310.99,232.5,311.97,231.9 M,8,51281,51581,311.97,231.9,313.04,232.31 M,8,51581,52181,313.04,232.31,315.24,232.89 M,8,52181,53081,315.24,232.89,314.47,234.91 M,8,53081,53381,314.47,234.91,315.1,233.97 M,8,53381,54281,315.1,233.97,312.74,233.59 M,8,54281,54431,312.74,233.59 M,8,54431,54581,312.74,233.59 M,8,54581,55031,312.74,233.59,311.09,233.58 M,8,55031,55481,311.09,233.58,311.15,235.05 M,8,55481,55781,311.15,235.05,312.18,235.52 M,8,55781,56081,312.18,235.52,312.99,234.71 M,8,56081,56381,312.99,234.71,313.8,235.52 M,8,56381,56681,313.8,235.52,314.56,234.84 M,8,56681,56981,314.56,234.84,315.57,235.3 M,8,56981,57581,315.57,235.3,314.43,233.57 M,8,57581,57881,314.43,233.57,315.34,232.86 M,8,57881,58181,315.34,232.86,314.46,232.27 M,8,58181,59081,314.46,232.27,311.69,232.23 M,8,59081,59231,311.69,232.23 M,8,59231,59381,311.69,232.23 M,8,59381,59831,311.69,232.23,311.16,233.78 M,8,59831,60281,311.16,233.78,312.67,234.11 M,8,60281,60581,312.67,234.11,312.1,235.05 M,8,60581,60881,312.1,235.05,313.07,235.66 M,8,60881,61181,313.07,235.66,313.72,234.71 M,8,61181,61781,313.72,234.71,315.45,235.54 M,8,61781,62681,315.45,235.54,314.73,233.36 M,8,62681,62981,314.73,233.36,313.66,232.95 M,8,62981,63881,313.66,232.95,310.76,233.13 M,8,63881,64031,310.76,233.13 M,8,64031,64181,310.76,233.13 M,8,64181,64631,310.76,233.13,312,232.3 M,8,64631,65081,312,232.3,313.63,231.86 M,8,65081,65381,313.63,231.86,314.66,232.35 M,8,65381,65831,314.66,232.35,314.42,233.74 M,8,65831,65981,314.42,233.74 M,8,65981,66581,314.42,233.74,315.07,235.04 M,8,66581,66881,315.07,235.04,314.02,234.9 M,8,66881,67181,314.02,234.9,313.02,235.41 M,8,67181,67481,313.02,235.41,311.89,235.18
Sprite,Background,Centre,"sb/b/vbz.jpg",0,0 S,0,0,,0.462963 F,0,0,,0 M,8,0,48581,307,229,314.34,233.76 M,8,48581,49481,314.34,233.76,311.45,235.41 M,8,49481,49631,311.45,235.41 M,8,49631,49781,311.45,235.41 M,8,49781,50231,311.45,235.41,310.79,234 M,8,50231,50681,310.79,234,312,233 M,8,50681,50981,312,233,310.99,232.5 M,8,50981,51281,310.99,232.5,311.97,231.9 M,8,51281,51581,311.97,231.9,313.04,232.31 M,8,51581,52181,313.04,232.31,315.24,232.89 M,8,52181,53081,315.24,232.89,314.47,234.91 M,8,53081,53381,314.47,234.91,315.1,233.97 M,8,53381,54281,315.1,233.97,312.74,233.59 M,8,54281,54431,312.74,233.59 M,8,54431,54581,312.74,233.59 M,8,54581,55031,312.74,233.59,311.09,233.58 M,8,55031,55481,311.09,233.58,311.15,235.05 M,8,55481,55781,311.15,235.05,312.18,235.52 M,8,55781,56081,312.18,235.52,312.99,234.71 M,8,56081,56381,312.99,234.71,313.8,235.52 M,8,56381,56681,313.8,235.52,314.56,234.84 M,8,56681,56981,314.56,234.84,315.57,235.3 M,8,56981,57581,315.57,235.3,314.43,233.57 M,8,57581,57881,314.43,233.57,315.34,232.86 M,8,57881,58181,315.34,232.86,314.46,232.27 M,8,58181,59081,314.46,232.27,311.69,232.23 M,8,59081,59231,311.69,232.23 M,8,59231,59381,311.69,232.23 M,8,59381,59831,311.69,232.23,311.16,233.78 M,8,59831,60281,311.16,233.78,312.67,234.11 M,8,60281,60581,312.67,234.11,312.1,235.05 M,8,60581,60881,312.1,235.05,313.07,235.66 M,8,60881,61181,313.07,235.66,313.72,234.71 M,8,61181,61781,313.72,234.71,315.45,235.54 M,8,61781,62681,315.45,235.54,314.73,233.36 M,8,62681,62981,314.73,233.36,313.66,232.95 M,8,62981,63881,313.66,232.95,310.76,233.13 M,8,63881,64031,310.76,233.13 M,8,64031,64181,310.76,233.13 M,8,64181,64631,310.76,233.13,312,232.3 M,8,64631,65081,312,232.3,313.63,231.86 M,8,65081,65381,313.63,231.86,314.66,232.35 M,8,65381,65831,314.66,232.35,314.42,233.74 M,8,65831,65981,314.42,233.74 M,8,65981,66581,314.42,233.74,315.07,235.04 M,8,66581,66881,315.07,235.04,314.02,234.9 M,8,66881,67181,314.02,234.9,313.02,235.41 M,8,67181,67481,313.02,235.41,311.89,235.18 F,0,50980,51280,1,0 F,0,52180,52480,1,0 F,0,53380,53680,1,0 F,0,56380,56680,1,0 F,0,56680,56980,1,0 F,0,56980,57280,1,0 F,0,58255,58555,1,0 F,0,60580,60880,1,0 F,0,61780,62080,1,0 F,0,62980,63280,1,0 F,0,62980,63280,1,0 F,0,64180,64480,1,0 F,0,65380,65680,1,0 F,0,65980,66280,1,0 F,0,66580,66880,1,0
Sprite,Background,Centre,"sb/b/nm.jpg",0,0 S,0,0,,0.462963 F,0,0,,0 F,0,67780,106180,1 M,8,0,67781,307,229,310.77,234.88 M,8,67781,68231,310.77,234.88,310.71,233.22 M,8,68231,68681,310.71,233.22,312.28,233.35 M,8,68681,68981,312.28,233.35,312.97,232.43 M,8,68981,69431,312.97,232.43,314.55,232.6 M,8,69431,69881,314.55,232.6,313.76,234.05 M,8,69881,70181,313.76,234.05,314.01,235.17 M,8,70181,71381,314.01,235.17,315.05,235.65 M,8,71381,71981,315.05,235.65,314.68,233.83 M,8,71981,72281,314.68,233.83,315.46,232.99 M,8,72281,72581,315.46,232.99,314.86,232.08 M,8,72581,73031,314.86,232.08,313.26,232.62 M,8,73031,73481,313.26,232.62,311.7,232.59 M,8,73481,73781,311.7,232.59,310.77,233.26 M,8,73781,74231,310.77,233.26,312.3,233.41 M,8,74231,74681,312.3,233.41,311.48,234.82 M,8,74681,74981,311.48,234.82,312.37,235.54 M,8,74981,75431,312.37,235.54,313.7,234.65 M,8,75431,76181,313.7,234.65,314.88,234 M,8,76181,76481,314.88,234,315.81,233.33 M,8,76481,76781,315.81,233.33,315.12,232.4 M,8,76781,77081,315.12,232.4,314.18,233.06 M,8,77081,77381,314.18,233.06,313.22,233.59 M,8,77381,77831,313.22,233.59,312.67,232.13 M,8,77831,78281,312.67,232.13,310.98,232.15 M,8,78281,78581,310.98,232.15,311.69,233.04 M,8,78581,79031,311.69,233.04,311.13,234.37 M,8,79031,79481,311.13,234.37,312.49,235.13 M,8,79481,79781,312.49,235.13,313.5,235.67 M,8,79781,80381,313.5,235.67,314.02,233.54 M,8,80381,80981,314.02,233.54,314.96,231.9 M,8,80981,81881,314.96,231.9,314.41,234.47 M,8,81881,82181,314.41,234.47,313.35,234.01 M,8,82181,82631,313.35,234.01,311.83,234.18 M,8,82631,83081,311.83,234.18,311.92,232.73 M,8,83081,83381,311.92,232.73,312.81,232.01 M,8,83381,83831,312.81,232.01,314.43,231.98 M,8,83831,84281,314.43,231.98,314.68,233.41 M,8,84281,84581,314.68,233.41,315.5,234.2 M,8,84581,84731,315.5,234.2 M,8,84731,85181,315.5,234.2,314.8,235.56 M,8,85181,85481,314.8,235.56,313.8,235.01 M,8,85481,85781,313.8,235.01,312.82,235.58 M,8,85781,86081,312.82,235.58,312.16,234.63 M,8,86081,86381,312.16,234.63,313.14,234.03 M,8,86381,86681,313.14,234.03,312.73,233.18 M,8,86681,86981,312.73,233.18,313.03,232.2 M,8,86981,87881,313.03,232.2,311.92,231.87 M,8,87881,88181,311.92,231.87,310.88,232.33 M,8,88181,88781,310.88,232.33,311.55,234.19 M,8,88781,89081,311.55,234.19,312.58,233.69 M,8,89081,89381,312.58,233.69,313.18,234.67 M,8,89381,89981,313.18,234.67,314.58,233.74 M,8,89981,90581,314.58,233.74,315.53,234.38 M,8,90581,91031,315.53,234.38,315.5,232.79 M,8,91031,91181,315.5,232.79 M,8,91181,91781,315.5,232.79,314.69,231.96 M,8,91781,92381,314.69,231.96,312.58,232.71 M,8,92381,92981,312.58,232.71,313.6,233.24 M,8,92981,93581,313.6,233.24,313.24,235.24 M,8,93581,93881,313.24,235.24,312.22,234.69 M,8,93881,94181,312.22,234.69,311.22,235.25 M,8,94181,94781,311.22,235.25,311.97,233.39 M,8,94781,95081,311.97,233.39,311.6,232.31 M,8,95081,95381,311.6,232.31,312.74,232.11 M,8,95381,95831,312.74,232.11,314.36,232.15 M,8,95831,95981,314.36,232.15 M,8,95981,96581,314.36,232.15,315.38,232.68 M,8,96581,96881,315.38,232.68 M,8,96881,97481,315.38,232.68,314.37,233.21 M,8,97481,97781,314.37,233.21,313.45,233.69 M,8,97781,98231,313.45,233.69,313.56,235.32 M,8,98231,98381,313.56,235.32 M,8,98381,98981,313.56,235.32,311.44,235.59 M,8,98981,99581,311.44,235.59,311.71,233.67 M,8,99581,99881,311.71,233.67,310.83,232.92 M,8,99881,100181,310.83,232.92,311.69,232.16 M,8,100181,100631,311.69,232.16,313.35,232.19 M,8,100631,100781,313.35,232.19 M,8,100781,101081,313.35,232.19,312.9,233.22 M,8,101081,101381,312.9,233.22,312.81,234.32 M,8,101381,101981,312.81,234.32,314.64,235.54 M,8,101981,102581,314.64,235.54,315.81,233.65 M,8,102581,103181,315.81,233.65,313.97,232.42 M,8,103181,103781,313.97,232.42,312.81,234.32 M,8,103781,104381,312.81,234.32,310.87,235.39 M,8,104381,104831,310.87,235.39,311.19,233.95 M,8,104831,104981,311.19,233.95 M,8,104981,105581,311.19,233.95,311.76,231.99 M,8,105581,105881,311.76,231.99,312.76,232.44
Sprite,Background,Centre,"sb/b/vbz.jpg",0,0 S,0,0,,0.462963 F,0,0,,0 M,8,0,67781,307,229,310.77,234.88 M,8,67781,68231,310.77,234.88,310.71,233.22 M,8,68231,68681,310.71,233.22,312.28,233.35 M,8,68681,68981,312.28,233.35,312.97,232.43 M,8,68981,69431,312.97,232.43,314.55,232.6 M,8,69431,69881,314.55,232.6,313.76,234.05 M,8,69881,70181,313.76,234.05,314.01,235.17 M,8,70181,71381,314.01,235.17,315.05,235.65 M,8,71381,71981,315.05,235.65,314.68,233.83 M,8,71981,72281,314.68,233.83,315.46,232.99 M,8,72281,72581,315.46,232.99,314.86,232.08 M,8,72581,73031,314.86,232.08,313.26,232.62 M,8,73031,73481,313.26,232.62,311.7,232.59 M,8,73481,73781,311.7,232.59,310.77,233.26 M,8,73781,74231,310.77,233.26,312.3,233.41 M,8,74231,74681,312.3,233.41,311.48,234.82 M,8,74681,74981,311.48,234.82,312.37,235.54 M,8,74981,75431,312.37,235.54,313.7,234.65 M,8,75431,76181,313.7,234.65,314.88,234 M,8,76181,76481,314.88,234,315.81,233.33 M,8,76481,76781,315.81,233.33,315.12,232.4 M,8,76781,77081,315.12,232.4,314.18,233.06 M,8,77081,77381,314.18,233.06,313.22,233.59 M,8,77381,77831,313.22,233.59,312.67,232.13 M,8,77831,78281,312.67,232.13,310.98,232.15 M,8,78281,78581,310.98,232.15,311.69,233.04 M,8,78581,79031,311.69,233.04,311.13,234.37 M,8,79031,79481,311.13,234.37,312.49,235.13 M,8,79481,79781,312.49,235.13,313.5,235.67 M,8,79781,80381,313.5,235.67,314.02,233.54 M,8,80381,80981,314.02,233.54,314.96,231.9 M,8,80981,81881,314.96,231.9,314.41,234.47 M,8,81881,82181,314.41,234.47,313.35,234.01 M,8,82181,82631,313.35,234.01,311.83,234.18 M,8,82631,83081,311.83,234.18,311.92,232.73 M,8,83081,83381,311.92,232.73,312.81,232.01 M,8,83381,83831,312.81,232.01,314.43,231.98 M,8,83831,84281,314.43,231.98,314.68,233.41 M,8,84281,84581,314.68,233.41,315.5,234.2 M,8,84581,84731,315.5,234.2 M,8,84731,85181,315.5,234.2,314.8,235.56 M,8,85181,85481,314.8,235.56,313.8,235.01 M,8,85481,85781,313.8,235.01,312.82,235.58 M,8,85781,86081,312.82,235.58,312.16,234.63 M,8,86081,86381,312.16,234.63,313.14,234.03 M,8,86381,86681,313.14,234.03,312.73,233.18 M,8,86681,86981,312.73,233.18,313.03,232.2 M,8,86981,87881,313.03,232.2,311.92,231.87 M,8,87881,88181,311.92,231.87,310.88,232.33 M,8,88181,88781,310.88,232.33,311.55,234.19 M,8,88781,89081,311.55,234.19,312.58,233.69 M,8,89081,89381,312.58,233.69,313.18,234.67 M,8,89381,89981,313.18,234.67,314.58,233.74 M,8,89981,90581,314.58,233.74,315.53,234.38 M,8,90581,91031,315.53,234.38,315.5,232.79 M,8,91031,91181,315.5,232.79 M,8,91181,91781,315.5,232.79,314.69,231.96 M,8,91781,92381,314.69,231.96,312.58,232.71 M,8,92381,92981,312.58,232.71,313.6,233.24 M,8,92981,93581,313.6,233.24,313.24,235.24 M,8,93581,93881,313.24,235.24,312.22,234.69 M,8,93881,94181,312.22,234.69,311.22,235.25 M,8,94181,94781,311.22,235.25,311.97,233.39 M,8,94781,95081,311.97,233.39,311.6,232.31 M,8,95081,95381,311.6,232.31,312.74,232.11 M,8,95381,95831,312.74,232.11,314.36,232.15 M,8,95831,95981,314.36,232.15 M,8,95981,96581,314.36,232.15,315.38,232.68 M,8,96581,96881,315.38,232.68 M,8,96881,97481,315.38,232.68,314.37,233.21 M,8,97481,97781,314.37,233.21,313.45,233.69 M,8,97781,98231,313.45,233.69,313.56,235.32 M,8,98231,98381,313.56,235.32 M,8,98381,98981,313.56,235.32,311.44,235.59 M,8,98981,99581,311.44,235.59,311.71,233.67 M,8,99581,99881,311.71,233.67,310.83,232.92 M,8,99881,100181,310.83,232.92,311.69,232.16 M,8,100181,100631,311.69,232.16,313.35,232.19 M,8,100631,100781,313.35,232.19 M,8,100781,101081,313.35,232.19,312.9,233.22 M,8,101081,101381,312.9,233.22,312.81,234.32 M,8,101381,101981,312.81,234.32,314.64,235.54 M,8,101981,102581,314.64,235.54,315.81,233.65 M,8,102581,103181,315.81,233.65,313.97,232.42 M,8,103181,103781,313.97,232.42,312.81,234.32 M,8,103781,104381,312.81,234.32,310.87,235.39 M,8,104381,104831,310.87,235.39,311.19,233.95 M,8,104831,104981,311.19,233.95 M,8,104981,105581,311.19,233.95,311.76,231.99 M,8,105581,105881,311.76,231.99,312.76,232.44 F,0,77380,77680,1,0 F,0,96880,97180,1,0 F,0,98980,99280,1,0 F,0,101080,101380,1,0 F,0,101380,101680,1,0 F,0,102580,102880,1,0 F,0,103780,104080,1,0 F,0,104380,104680,1,0 F,0,104980,105280,1,0
Sprite,Background,Centre,"sb/b/br.jpg",0,0 S,0,0,,0.462963 F,0,0,,0 M,8,0,67781,307,229,310.77,234.88 M,8,67781,68231,310.77,234.88,310.71,233.22 M,8,68231,68681,310.71,233.22,312.28,233.35 M,8,68681,68981,312.28,233.35,312.97,232.43 M,8,68981,69431,312.97,232.43,314.55,232.6 M,8,69431,69881,314.55,232.6,313.76,234.05 M,8,69881,70181,313.76,234.05,314.01,235.17 M,8,70181,71381,314.01,235.17,315.05,235.65 M,8,71381,71981,315.05,235.65,314.68,233.83 M,8,71981,72281,314.68,233.83,315.46,232.99 M,8,72281,72581,315.46,232.99,314.86,232.08 M,8,72581,73031,314.86,232.08,313.26,232.62 M,8,73031,73481,313.26,232.62,311.7,232.59 M,8,73481,73781,311.7,232.59,310.77,233.26 M,8,73781,74231,310.77,233.26,312.3,233.41 M,8,74231,74681,312.3,233.41,311.48,234.82 M,8,74681,74981,311.48,234.82,312.37,235.54 M,8,74981,75431,312.37,235.54,313.7,234.65 M,8,75431,76181,313.7,234.65,314.88,234 M,8,76181,76481,314.88,234,315.81,233.33 M,8,76481,76781,315.81,233.33,315.12,232.4 M,8,76781,77081,315.12,232.4,314.18,233.06 M,8,77081,77381,314.18,233.06,313.22,233.59 M,8,77381,77831,313.22,233.59,312.67,232.13 M,8,77831,78281,312.67,232.13,310.98,232.15 M,8,78281,78581,310.98,232.15,311.69,233.04 M,8,78581,79031,311.69,233.04,311.13,234.37 M,8,79031,79481,311.13,234.37,312.49,235.13 M,8,79481,79781,312.49,235.13,313.5,235.67 M,8,79781,80381,313.5,235.67,314.02,233.54 M,8,80381,80981,314.02,233.54,314.96,231.9 M,8,80981,81881,314.96,231.9,314.41,234.47 M,8,81881,82181,314.41,234.47,313.35,234.01 M,8,82181,82631,313.35,234.01,311.83,234.18 M,8,82631,83081,311.83,234.18,311.92,232.73 M,8,83081,83381,311.92,232.73,312.81,232.01 M,8,83381,83831,312.81,232.01,314.43,231.98 M,8,83831,84281,314.43,231.98,314.68,233.41 M,8,84281,84581,314.68,233.41,315.5,234.2 M,8,84581,84731,315.5,234.2 M,8,84731,85181,315.5,234.2,314.8,235.56 M,8,85181,85481,314.8,235.56,313.8,235.01 M,8,85481,85781,313.8,235.01,312.82,235.58 M,8,85781,86081,312.82,235.58,312.16,234.63 M,8,86081,86381,312.16,234.63,313.14,234.03 M,8,86381,86681,313.14,234.03,312.73,233.18 M,8,86681,86981,312.73,233.18,313.03,232.2 M,8,86981,87881,313.03,232.2,311.92,231.87 M,8,87881,88181,311.92,231.87,310.88,232.33 M,8,88181,88781,310.88,232.33,311.55,234.19 M,8,88781,89081,311.55,234.19,312.58,233.69 M,8,89081,89381,312.58,233.69,313.18,234.67 M,8,89381,89981,313.18,234.67,314.58,233.74 M,8,89981,90581,314.58,233.74,315.53,234.38 M,8,90581,91031,315.53,234.38,315.5,232.79 M,8,91031,91181,315.5,232.79 M,8,91181,91781,315.5,232.79,314.69,231.96 M,8,91781,92381,314.69,231.96,312.58,232.71 M,8,92381,92981,312.58,232.71,313.6,233.24 M,8,92981,93581,313.6,233.24,313.24,235.24 M,8,93581,93881,313.24,235.24,312.22,234.69 M,8,93881,94181,312.22,234.69,311.22,235.25 M,8,94181,94781,311.22,235.25,311.97,233.39 M,8,94781,95081,311.97,233.39,311.6,232.31 M,8,95081,95381,311.6,232.31,312.74,232.11 M,8,95381,95831,312.74,232.11,314.36,232.15 M,8,95831,95981,314.36,232.15 M,8,95981,96581,314.36,232.15,315.38,232.68 M,8,96581,96881,315.38,232.68 M,8,96881,97481,315.38,232.68,314.37,233.21 M,8,97481,97781,314.37,233.21,313.45,233.69 M,8,97781,98231,313.45,233.69,313.56,235.32 M,8,98231,98381,313.56,235.32 M,8,98381,98981,313.56,235.32,311.44,235.59 M,8,98981,99581,311.44,235.59,311.71,233.67 M,8,99581,99881,311.71,233.67,310.83,232.92 M,8,99881,100181,310.83,232.92,311.69,232.16 M,8,100181,100631,311.69,232.16,313.35,232.19 M,8,100631,100781,313.35,232.19 M,8,100781,101081,313.35,232.19,312.9,233.22 M,8,101081,101381,312.9,233.22,312.81,234.32 M,8,101381,101981,312.81,234.32,314.64,235.54 M,8,101981,102581,314.64,235.54,315.81,233.65 M,8,102581,103181,315.81,233.65,313.97,232.42 M,8,103181,103781,313.97,232.42,312.81,234.32 M,8,103781,104381,312.81,234.32,310.87,235.39 M,8,104381,104831,310.87,235.39,311.19,233.95 M,8,104831,104981,311.19,233.95 M,8,104981,105581,311.19,233.95,311.76,231.99 M,8,105581,105881,311.76,231.99,312.76,232.44 F,0,86980,87130,0,1 F,0,87130,87580,1,0
Sprite,Background,Centre,"sb/b/planet-nm.jpg",0,0 S,0,0,,0.6 F,0,0,,0 F,0,106180,125380,1 M,0,106180,125380,540,320,300,290
Sprite,Background,Centre,"sb/b/planet-br.jpg",0,0 S,0,0,,0.6 F,0,0,,0 M,0,106180,125380,540,320,300,290 F,0,122980,123280,1,0 F,0,123580,123880,1,0 F,0,124180,124480,1,0
Sprite,Background,Centre,"sb/b/nm.jpg",0,0 S,0,0,,0.462963 F,0,0,,0 F,0,125380,144580,1 M,8,0,125381,307,229,313.1,235.64 M,8,125381,125831,313.1,235.64,313.33,234.09 M,8,125831,126281,313.33,234.09,311.85,234.82 M,8,126281,126581,311.85,234.82,310.87,234.23 M,8,126581,127031,310.87,234.23,310.82,232.52 M,8,127031,127481,310.82,232.52,312.32,232.47 M,8,127481,127781,312.32,232.47,313.24,233.12 M,8,127781,128381,313.24,233.12,314.17,232.23 M,8,128381,128981,314.17,232.23,315.78,233.52 M,8,128981,129281,315.78,233.52,314.77,234.04 M,8,129281,129581,314.77,234.04,313.8,233.43 M,8,129581,129881,313.8,233.43,312.79,233.95 M,8,129881,130181,312.79,233.95,311.94,233.19 M,8,130181,130631,311.94,233.19,311.32,234.64 M,8,130631,131081,311.32,234.64,312.8,235.33 M,8,131081,131381,312.8,235.33,313.91,234.86 M,8,131381,131831,313.91,234.86,315.3,235.09 M,8,131831,132281,315.3,235.09,315.11,233.65 M,8,132281,132581,315.11,233.65,315.63,232.56 M,8,132581,133031,315.63,232.56,314.17,233.28 M,8,133031,133781,314.17,233.28,311.99,231.89 M,8,133781,134081,311.99,231.89,311.2,232.71 M,8,134081,134381,311.2,232.71,312.26,233.09 M,8,134381,134981,312.26,233.09,310.99,234.91 M,8,134981,135431,310.99,234.91,312.33,235.13 M,8,135431,135881,312.33,235.13,314.02,235.27 M,8,135881,136181,314.02,235.27,315.1,235.45 M,8,136181,136631,315.1,235.45,315.66,233.88 M,8,136631,137081,315.66,233.88,313.95,234.11 M,8,137081,137381,313.95,234.11,314.15,233.11 M,8,137381,137681,314.15,233.11,313.71,232.06 M,8,137681,137831,313.71,232.06 M,8,137831,138281,313.71,232.06,312.04,231.98 M,8,138281,138581,312.04,231.98,311.76,233.08 M,8,138581,138881,311.76,233.08,310.75,232.55 M,8,138881,139181,310.75,232.55,310.93,233.67 M,8,139181,139781,310.93,233.67,311.7,234.32 M,8,139781,140231,311.7,234.32,313.2,234.33 M,8,140231,140681,313.2,234.33,314.71,234.41 M,8,140681,140981,314.71,234.41,315.65,233.77 M,8,140981,141431,315.65,233.77,315.24,232.07 M,8,141431,141881,315.24,232.07,313.69,232.73 M,8,141881,142181,313.69,232.73,312.82,231.99 M,8,142181,142331,312.82,231.99 M,8,142331,142781,312.82,231.99,313,233.51 M,8,142781,143081,313,233.51,312.04,234.12 M,8,143081,143231,312.04,234.12 M,8,143231,143381,312.04,234.12 M,8,143381,143981,312.04,234.12,311.7,235.18 M,8,143981,144281,311.7,235.18,312.72,235.01
Sprite,Background,Centre,"sb/b/vb.jpg",0,0 S,0,0,,0.4675926 F,0,0,,0 M,8,0,125381,307,229,313.1,235.64 M,8,125381,125831,313.1,235.64,313.33,234.09 M,8,125831,126281,313.33,234.09,311.85,234.82 M,8,126281,126581,311.85,234.82,310.87,234.23 M,8,126581,127031,310.87,234.23,310.82,232.52 M,8,127031,127481,310.82,232.52,312.32,232.47 M,8,127481,127781,312.32,232.47,313.24,233.12 M,8,127781,128381,313.24,233.12,314.17,232.23 M,8,128381,128981,314.17,232.23,315.78,233.52 M,8,128981,129281,315.78,233.52,314.77,234.04 M,8,129281,129581,314.77,234.04,313.8,233.43 M,8,129581,129881,313.8,233.43,312.79,233.95 M,8,129881,130181,312.79,233.95,311.94,233.19 M,8,130181,130631,311.94,233.19,311.32,234.64 M,8,130631,131081,311.32,234.64,312.8,235.33 M,8,131081,131381,312.8,235.33,313.91,234.86 M,8,131381,131831,313.91,234.86,315.3,235.09 M,8,131831,132281,315.3,235.09,315.11,233.65 M,8,132281,132581,315.11,233.65,315.63,232.56 M,8,132581,133031,315.63,232.56,314.17,233.28 M,8,133031,133781,314.17,233.28,311.99,231.89 M,8,133781,134081,311.99,231.89,311.2,232.71 M,8,134081,134381,311.2,232.71,312.26,233.09 M,8,134381,134981,312.26,233.09,310.99,234.91 M,8,134981,135431,310.99,234.91,312.33,235.13 M,8,135431,135881,312.33,235.13,314.02,235.27 M,8,135881,136181,314.02,235.27,315.1,235.45 M,8,136181,136631,315.1,235.45,315.66,233.88 M,8,136631,137081,315.66,233.88,313.95,234.11 M,8,137081,137381,313.95,234.11,314.15,233.11 M,8,137381,137681,314.15,233.11,313.71,232.06 M,8,137681,137831,313.71,232.06 M,8,137831,138281,313.71,232.06,312.04,231.98 M,8,138281,138581,312.04,231.98,311.76,233.08 M,8,138581,138881,311.76,233.08,310.75,232.55 M,8,138881,139181,310.75,232.55,310.93,233.67 M,8,139181,139781,310.93,233.67,311.7,234.32 M,8,139781,140231,311.7,234.32,313.2,234.33 M,8,140231,140681,313.2,234.33,314.71,234.41 M,8,140681,140981,314.71,234.41,315.65,233.77 M,8,140981,141431,315.65,233.77,315.24,232.07 M,8,141431,141881,315.24,232.07,313.69,232.73 M,8,141881,142181,313.69,232.73,312.82,231.99 M,8,142181,142331,312.82,231.99 M,8,142331,142781,312.82,231.99,313,233.51 M,8,142781,143081,313,233.51,312.04,234.12 M,8,143081,143231,312.04,234.12 M,8,143231,143381,312.04,234.12 M,8,143381,143981,312.04,234.12,311.7,235.18 M,8,143981,144281,311.7,235.18,312.72,235.01 F,0,125380,125680,1,0 F,0,125680,125980,1,0 F,0,125980,126280,1,0 F,0,126280,126580,1,0 F,0,126580,126880,1,0 F,0,126880,127180,1,0 F,0,127180,127480,1,0 F,0,127480,127780,1,0 F,0,127780,128080,1,0 F,0,128080,128380,1,0 F,0,128380,128680,1,0 F,0,128680,128980,1,0 F,0,128980,129280,1,0 F,0,129280,129580,1,0 F,0,129580,129880,1,0 F,0,129880,130180,1,0 F,0,130180,130480,1,0 F,0,130480,130780,1,0 F,0,130780,131080,1,0 F,0,131080,131380,1,0 F,0,131380,131680,1,0 F,0,131680,131980,1,0 F,0,131980,132280,1,0 F,0,132280,132580,1,0 F,0,132580,132880,1,0 F,0,132880,133180,1,0 F,0,133180,133480,1,0 F,0,133480,133780,1,0 F,0,133780,134080,1,0 F,0,134080,134380,1,0 F,0,134380,134680,1,0 F,0,134680,134980,1,0 F,0,134980,135280,1,0 F,0,135280,135580,1,0 F,0,135580,135880,1,0 F,0,135880,136180,1,0 F,0,136180,136480,1,0 F,0,136480,136780,1,0 F,0,136780,137080,1,0 F,0,137080,137380,1,0 F,0,137380,137680,1,0 F,0,137680,137980,1,0 F,0,137980,138280,1,0 F,0,138280,138580,1,0 F,0,138580,138880,1,0 F,0,138880,139180,1,0 F,0,139180,139480,1,0 F,0,139480,139780,1,0 F,0,139780,140080,1,0 F,0,140080,140380,1,0 F,0,140380,140680,1,0 F,0,140680,140980,1,0 F,0,140980,141280,1,0 F,0,141280,141580,1,0 F,0,141580,141880,1,0 F,0,141880,142180,1,0 F,0,142180,142480,1,0 F,0,142480,142780,1,0 F,0,142780,143080,1,0 F,0,143080,143380,1,0 F,0,143380,143680,1,0 F,0,143680,143980,1,0 F,0,143980,144280,1,0 F,0,144280,144580,1,0
Sprite,Background,Centre,"sb/b/vbz.jpg",0,0 S,0,0,,0.462963 F,0,0,,0 M,8,0,125381,307,229,313.1,235.64 M,8,125381,125831,313.1,235.64,313.33,234.09 M,8,125831,126281,313.33,234.09,311.85,234.82 M,8,126281,126581,311.85,234.82,310.87,234.23 M,8,126581,127031,310.87,234.23,310.82,232.52 M,8,127031,127481,310.82,232.52,312.32,232.47 M,8,127481,127781,312.32,232.47,313.24,233.12 M,8,127781,128381,313.24,233.12,314.17,232.23 M,8,128381,128981,314.17,232.23,315.78,233.52 M,8,128981,129281,315.78,233.52,314.77,234.04 M,8,129281,129581,314.77,234.04,313.8,233.43 M,8,129581,129881,313.8,233.43,312.79,233.95 M,8,129881,130181,312.79,233.95,311.94,233.19 M,8,130181,130631,311.94,233.19,311.32,234.64 M,8,130631,131081,311.32,234.64,312.8,235.33 M,8,131081,131381,312.8,235.33,313.91,234.86 M,8,131381,131831,313.91,234.86,315.3,235.09 M,8,131831,132281,315.3,235.09,315.11,233.65 M,8,132281,132581,315.11,233.65,315.63,232.56 M,8,132581,133031,315.63,232.56,314.17,233.28 M,8,133031,133781,314.17,233.28,311.99,231.89 M,8,133781,134081,311.99,231.89,311.2,232.71 M,8,134081,134381,311.2,232.71,312.26,233.09 M,8,134381,134981,312.26,233.09,310.99,234.91 M,8,134981,135431,310.99,234.91,312.33,235.13 M,8,135431,135881,312.33,235.13,314.02,235.27 M,8,135881,136181,314.02,235.27,315.1,235.45 M,8,136181,136631,315.1,235.45,315.66,233.88 M,8,136631,137081,315.66,233.88,313.95,234.11 M,8,137081,137381,313.95,234.11,314.15,233.11 M,8,137381,137681,314.15,233.11,313.71,232.06 M,8,137681,137831,313.71,232.06 M,8,137831,138281,313.71,232.06,312.04,231.98 M,8,138281,138581,312.04,231.98,311.76,233.08 M,8,138581,138881,311.76,233.08,310.75,232.55 M,8,138881,139181,310.75,232.55,310.93,233.67 M,8,139181,139781,310.93,233.67,311.7,234.32 M,8,139781,140231,311.7,234.32,313.2,234.33 M,8,140231,140681,313.2,234.33,314.71,234.41 M,8,140681,140981,314.71,234.41,315.65,233.77 M,8,140981,141431,315.65,233.77,315.24,232.07 M,8,141431,141881,315.24,232.07,313.69,232.73 M,8,141881,142181,313.69,232.73,312.82,231.99 M,8,142181,142331,312.82,231.99 M,8,142331,142781,312.82,231.99,313,233.51 M,8,142781,143081,313,233.51,312.04,234.12 M,8,143081,143231,312.04,234.12 M,8,143231,143381,312.04,234.12 M,8,143381,143981,312.04,234.12,311.7,235.18 M,8,143981,144281,311.7,235.18,312.72,235.01 F,0,134980,135280,1,0 F,0,142180,142480,1,0 F,0,142780,143080,1,0 F,0,143380,143680,1,0
Sprite,Background,Centre,"sb/p.png",0,0 M,0,0,,230,172.5 C,0,0,,0,0,0 F,0,0,,0 F,0,24580,29380,0.5 V,0,24580,24680,0,45,217.5,45
Sprite,Background,Centre,"sb/letters/24580\0042.png",134.25,172.5 S,30,24580,,0,0.5 F,0,24580,,0,1 F,0,29380,,1,0
Sprite,Background,Centre,"sb/letters/24580\0065.png",148,172.5 S,30,24580,,0,0.5 F,0,24580,,0,1 F,0,29380,,1,0
Sprite,Background,Centre,"sb/letters/24580\0061.png",160.5,172.5 S,30,24580,,0,0.5 F,0,24580,,0,1 F,0,29380,,1,0
Sprite,Background,Centre,"sb/letters/24580\0074.png",172,172.5 S,30,24580,,0,0.5 F,0,24580,,0,1 F,0,29380,,1,0
Sprite,Background,Centre,"sb/letters/24580\006d.png",187,172.5 S,30,24580,,0,0.5 F,0,24580,,0,1 F,0,29380,,1,0
Sprite,Background,Centre,"sb/letters/24580\0061.png",204,172.5 S,30,24580,,0,0.5 F,0,24580,,0,1 F,0,29380,,1,0
Sprite,Background,Centre,"sb/letters/24580\0070.png",217,172.5 S,30,24580,,0,0.5 F,0,24580,,0,1 F,0,29380,,1,0
Sprite,Background,Centre,"sb/letters/24580\003a.png",227.5,172.5 S,30,24580,,0,0.5 F,0,24580,,0,1 F,0,29380,,1,0
Sprite,Background,Centre,"sb/letters/24580\0052.png",250.5,172.5 S,30,24580,,0,0.5 F,0,24580,,0,1 F,0,29380,,1,0
Sprite,Background,Centre,"sb/letters/24580\0065.png",265,172.5 S,30,24580,,0,0.5 F,0,24580,,0,1 F,0,29380,,1,0
Sprite,Background,Centre,"sb/letters/24580\0061.png",277.5,172.5 S,30,24580,,0,0.5 F,0,24580,,0,1 F,0,29380,,1,0
Sprite,Background,Centre,"sb/letters/24580\006c.png",287.5,172.5 S,30,24580,,0,0.5 F,0,24580,,0,1 F,0,29380,,1,0
Sprite,Background,Centre,"sb/letters/24580\0061.png",297.5,172.5 S,30,24580,,0,0.5 F,0,24580,,0,1 F,0,29380,,1,0
Sprite,Background,Centre,"sb/letters/24580\007a.png",311.75,172.5 S,30,24580,,0,0.5 F,0,24580,,0,1 F,0,29380,,1,0
Sprite,Background,Centre,"sb/letters/24580\0079.png",326.5,172.5 S,30,24580,,0,0.5 F,0,24580,,0,1 F,0,29380,,1,0
Sprite,Background,Centre,"sb/p.png",0,0 M,0,0,,420,232.5 C,0,0,,0,0,0 F,0,0,,0 F,0,25780,29380,0.5 V,0,25780,25880,0,45,189.5,45
Sprite,Background,Centre,"sb/letters/25780\004b.png",339,232.5 S,30,25780,,0,0.5 F,0,25780,,0,1 F,0,29380,,1,0
Sprite,Background,Centre,"sb/letters/25780\0061.png",354.5,232.5 S,30,25780,,0,0.5 F,0,25780,,0,1 F,0,29380,,1,0
Sprite,Background,Centre,"sb/letters/25780\006c.png",364.5,232.5 S,30,25780,,0,0.5 F,0,25780,,0,1 F,0,29380,,1,0
Sprite,Background,Centre,"sb/letters/25780\0069.png",371.75,232.5 S,30,25780,,0,0.5 F,0,25780,,0,1 F,0,29380,,1,0
Sprite,Background,Centre,"sb/letters/25780\0062.png",382,232.5 S,30,25780,,0,0.5 F,0,25780,,0,1 F,0,29380,,1,0
Sprite,Background,Centre,"sb/letters/25780\0065.png",394,232.5 S,30,25780,,0,0.5 F,0,25780,,0,1 F,0,29380,,1,0
Sprite,Background,Centre,"sb/letters/25780\0027.png",402.5,232.5 S,30,25780,,0,0.5 F,0,25780,,0,1 F,0,29380,,1,0
Sprite,Background,Centre,"sb/letters/25780\0073.png",411,232.5 S,30,25780,,0,0.5 F,0,25780,,0,1 F,0,29380,,1,0
Sprite,Background,Centre,"sb/letters/25780\004e.png",435.75,232.5 S,30,25780,,0,0.5 F,0,25780,,0,1 F,0,29380,,1,0
Sprite,Background,Centre,"sb/letters/25780\006f.png",451,232.5 S,30,25780,,0,0.5 F,0,25780,,0,1 F,0,29380,,1,0
Sprite,Background,Centre,"sb/letters/25780\0072.png",463.25,232.5 S,30,25780,,0,0.5 F,0,25780,,0,1 F,0,29380,,1,0
Sprite,Background,Centre,"sb/letters/25780\006d.png",479.5,232.5 S,30,25780,,0,0.5 F,0,25780,,0,1 F,0,29380,,1,0
Sprite,Background,Centre,"sb/letters/25780\0061.png",496.5,232.5 S,30,25780,,0,0.5 F,0,25780,,0,1 F,0,29380,,1,0
Sprite,Background,Centre,"sb/letters/25780\006c.png",506.5,232.5 S,30,25780,,0,0.5 F,0,25780,,0,1 F,0,29380,,1,0
Sprite,Background,Centre,"sb/p.png",0,0 M,0,0,,290,292.5 C,0,0,,0,0,0 F,0,0,,0 F,0,26980,29380,0.5 V,0,26980,27080,0,45,277.5,45
Sprite,Background,Centre,"sb/letters/26980\0053.png",164.5,292.5 S,30,26980,,0,0.5 F,0,26980,,0,1 F,0,29380,,1,0
Sprite,Background,Centre,"sb/letters/26980\0074.png",177.5,292.5 S,30,26980,,0,0.5 F,0,26980,,0,1 F,0,29380,,1,0
Sprite,Background,Centre,"sb/letters/26980\006f.png",188.5,292.5 S,30,26980,,0,0.5 F,0,26980,,0,1 F,0,29380,,1,0
Sprite,Background,Centre,"sb/letters/26980\0072.png",200.75,292.5 S,30,26980,,0,0.5 F,0,26980,,0,1 F,0,29380,,1,0
Sprite,Background,Centre,"sb/letters/26980\0079.png",214,292.5 S,30,26980,,0,0.5 F,0,26980,,0,1 F,0,29380,,1,0
Sprite,Background,Centre,"sb/letters/26980\0062.png",227.5,292.5 S,30,26980,,0,0.5 F,0,26980,,0,1 F,0,29380,,1,0
Sprite,Background,Centre,"sb/letters/26980\006f.png",240,292.5 S,30,26980,,0,0.5 F,0,26980,,0,1 F,0,29380,,1,0
Sprite,Background,Centre,"sb/letters/26980\0061.png",253,292.5 S,30,26980,,0,0.5 F,0,26980,,0,1 F,0,29380,,1,0
Sprite,Background,Centre,"sb/letters/26980\0072.png",265.75,292.5 S,30,26980,,0,0.5 F,0,26980,,0,1 F,0,29380,,1,0
Sprite,Background,Centre,"sb/letters/26980\0064.png",278.5,292.5 S,30,26980,,0,0.5 F,0,26980,,0,1 F,0,29380,,1,0
Sprite,Background,Centre,"sb/letters/26980\003a.png",289.5,292.5 S,30,26980,,0,0.5 F,0,26980,,0,1 F,0,29380,,1,0
Sprite,Background,Centre,"sb/letters/26980\0045.png",310.5,292.5 S,30,26980,,0,0.5 F,0,26980,,0,1 F,0,29380,,1,0
Sprite,Background,Centre,"sb/letters/26980\006e.png",325.25,292.5 S,30,26980,,0,0.5 F,0,26980,,0,1 F,0,29380,,1,0
Sprite,Background,Centre,"sb/letters/26980\006b.png",340,292.5 S,30,26980,,0,0.5 F,0,26980,,0,1 F,0,29380,,1,0
Sprite,Background,Centre,"sb/letters/26980\0072.png",352.75,292.5 S,30,26980,,0,0.5 F,0,26980,,0,1 F,0,29380,,1,0
Sprite,Background,Centre,"sb/letters/26980\0079.png",366,292.5 S,30,26980,,0,0.5 F,0,26980,,0,1 F,0,29380,,1,0
Sprite,Background,Centre,"sb/letters/26980\0070.png",379.5,292.5 S,30,26980,,0,0.5 F,0,26980,,0,1 F,0,29380,,1,0
Sprite,Background,Centre,"sb/letters/26980\0074.png",390.5,292.5 S,30,26980,,0,0.5 F,0,26980,,0,1 F,0,29380,,1,0
Sprite,Background,Centre,"sb/letters/26980\006f.png",401.5,292.5 S,30,26980,,0,0.5 F,0,26980,,0,1 F,0,29380,,1,0
Sprite,Background,Centre,"sb/letters/26980\006e.png",415.75,292.5 S,30,26980,,0,0.5 F,0,26980,,0,1 F,0,29380,,1,0
//Storyboard Layer 1 (Fail)
//Storyboard Layer 2 (Pass)
//Storyboard Layer 3 (Foreground)
//Storyboard Sound Samples

[TimingPoints]
581,300,4,2,1,85,1,0
13781,-100,4,2,1,90,0,0
14981,-100,4,2,1,85,0,0
18581,-100,4,2,1,90,0,0
19781,-100,4,2,1,85,0,0
23381,-100,4,2,1,90,0,0
24581,-100,4,2,1,85,0,0
29381,-100,4,2,1,55,0,0
38981,-100,4,2,1,60,0,0
47381,-100,4,2,1,70,0,0
47981,-100,4,2,1,80,0,0
48581,-100,4,2,1,90,0,0
76481,-100,4,2,1,95,0,0
77381,-100,4,2,1,90,0,0
86981,-100,4,2,1,70,0,0
87581,-100,4,2,1,85,0,0
106181,-100,4,2,1,60,0,0
115781,-100,4,2,1,70,0,0
122981,-100,4,2,1,80,0,0
125081,-100,4,2,1,90,0,0
125381,-95.2380952380952,4,2,1,100,0,0
144581,-95.2380952380952,4,2,1,60,0,0

[Colours]
Combo1 : 203,99,138
Combo2 : 227,187,224
Combo3 : 123,124,185
Combo4 : 138,203,227

[HitObjects]
256,192,6581,12,0,8981,0:0:0:0:
29,60,10181,6,0,P|71:68|171:80,1,115,6|8,1:2|0:2,0:0:0:0:
229,152,10781,2,0,L|235:212,2,57.5,2|0|10,1:2|0:0|0:2,0:0:0:0:
126,204,11381,1,2,1:2:0:0:
200,291,11681,1,8,0:2:0:0:
107,359,11981,2,0,L|42:378,2,57.5,2|0|10,1:2|0:0|0:2,0:0:0:0:
200,291,12581,6,0,P|239:304|328:313,1,115,2|8,1:2|0:2,0:0:0:0:
409,374,13181,2,0,P|423:334|423:304,1,57.5,2|0,1:2|0:0,0:0:0:0:
394,269,13481,1,10,0:2:0:0:
470,182,13781,2,0,P|413:175|370:120,1,115,2|8,1:2|0:2,0:0:0:0:
355,80,14231,1,2,0:0:0:0:
355,80,14381,2,0,L|370:10,2,57.5,2|2|10,1:2|0:0|0:2,0:0:0:0:
253,25,14981,6,0,P|193:35|121:44,1,115,2|8,1:2|0:2,0:0:0:0:
56,122,15581,2,0,P|51:92|39:55,2,57.5,2|0|10,1:2|0:0|0:2,0:0:0:0:
150,187,16181,1,2,1:2:0:0:
253,135,16481,1,8,0:2:0:0:
354,188,16781,2,0,P|381:179|429:171,2,57.5,2|0|10,1:2|0:0|0:2,0:0:0:0:
265,261,17381,6,0,P|259:314|246:395,1,115,2|8,1:2|0:2,0:0:0:0:
177,285,17981,2,0,P|173:314|164:356,1,57.5,2|0,1:2|0:0,0:0:0:0:
121,375,18281,1,10,0:2:0:0:
14,332,18581,2,0,P|1:290|30:222,1,115,2|8,1:2|0:2,0:0:0:0:
77,200,19031,1,2,0:0:0:0:
77,200,19181,2,0,L|64:134,1,57.5,4|0,1:2|0:0,0:0:0:0:
113,111,19481,2,0,L|126:45,1,57.5,8|8,0:2|0:2,0:0:0:0:
150,3,19781,6,0,B|103:12|103:12|88:22|88:22|29:34,2,115,2|0|6,1:1|0:1|1:2,0:0:0:0:
250,58,20681,2,0,P|279:62|349:78,1,57.5,10|0,0:2|0:0,0:0:0:0:
356,38,20981,2,0,P|383:66|372:159,1,115,2|8,1:2|0:2,0:0:0:0:
320,233,21581,1,2,1:2:0:0:
214,188,21881,1,10,0:2:0:0:
111,240,22181,6,0,P|76:276|86:381,1,115,2|8,1:2|0:2,0:0:0:0:
177,309,22781,2,0,P|208:301|254:298,1,57.5,2|0,1:2|0:0,0:0:0:0:
284,326,23081,1,10,0:2:0:0:
386,377,23381,2,0,P|410:299|398:258,1,115,2|8,1:2|0:2,0:0:0:0:
365,225,23831,1,2,0:0:0:0:
365,225,23981,2,0,L|286:207,2,57.5,2|2|10,1:2|0:0|0:2,0:0:0:0:
466,171,24581,6,0,B|484:118|484:118|460:63,1,115,6|8,1:2|0:2,0:0:0:0:
361,4,25181,1,2,1:2:0:0:
265,68,25481,1,10,0:2:0:0:
167,7,25781,2,0,P|146:33|155:137,1,115,6|8,1:2|0:2,0:0:0:0:
228,185,26381,2,0,L|299:165,2,57.5,2|0|10,1:2|0:0|0:2,0:0:0:0:
122,230,26981,6,0,P|178:222|245:343,1,172.5,4|0,1:2|1:2,0:0:0:0:
268,355,27581,1,12,0:2:0:0:
160,313,27881,2,0,P|126:320|65:342,1,57.5,0|0,1:2|1:2,0:0:0:0:
56,359,28181,1,12,0:2:0:0:
3,256,28481,1,4,1:2:0:0:
102,198,28781,2,0,L|116:120,1,57.5,4|0,1:2|1:2,0:0:0:0:
64,109,29081,2,0,L|50:31,1,57.5,0|0,1:2|1:2,0:0:0:0:
96,13,29381,1,4,0:2:0:0:
325,113,38981,6,0,B|414:96|379:45|492:24,2,172.5,6|2|2,1:2|0:0|0:0,0:0:0:0:
222,60,40181,1,0,0:0:0:0:
222,60,40331,2,0,L|95:42,1,115,2|2,0:0|0:0,0:0:0:0:
57,17,40781,2,0,P|22:46|37:133,1,115,2|2,0:0|0:0,0:0:0:0:
84,207,41381,6,0,P|87:271|7:346,2,172.5,2|2|2,0:0|0:0|0:0,0:0:0:0:
203,332,42731,2,0,L|352:344,1,115,2|0,0:0|0:0,0:0:0:0:
363,375,43181,1,2,0:0:0:0:
460,314,43481,1,2,0:0:0:0:
392,221,43781,6,0,B|405:160|405:160|386:110|386:110|402:34,2,172.5,6|2|2,0:0|0:0|0:0,0:0:0:0:
290,165,44981,1,0,0:0:0:0:
290,165,45131,2,0,L|166:182,1,115,2|2,0:0|0:0,0:0:0:0:
131,216,45581,2,0,P|107:176|136:96,1,115,2|2,0:0|0:0,0:0:0:0:
227,68,46181,5,6,0:0:0:0:
381,145,46631,1,2,0:0:0:0:
265,272,47081,1,2,0:0:0:0:
326,369,47381,1,0,1:2:0:0:
326,369,47531,2,0,P|365:339|446:345,1,115,0|0,0:0|0:0,0:0:0:0:
477,368,47981,2,0,L|458:242,1,115,0|0,1:2|1:2,0:0:0:0:
363,191,48581,6,0,B|253:182|274:297|150:282,1,230,6|0,1:2|1:2,0:0:0:0:
74,356,49481,1,10,0:2:0:0:
74,356,49631,1,0,0:0:0:0:
74,356,49781,2,0,P|68:287|56:228,1,115,2|8,1:2|0:2,0:0:0:0:
8,215,50231,2,0,P|55:212|106:158,1,115,2|0,0:0|0:0,0:0:0:0:
129,115,50681,2,0,P|97:109|63:97,1,57.5,10|0,0:2|0:0,0:0:0:0:
28,65,50981,5,6,1:2:0:0:
126,5,51281,1,8,0:2:0:0:
233,46,51581,2,0,L|367:60,1,115,0|10,1:0|0:2,0:0:0:0:
453,104,52181,2,0,P|370:93|331:240,1,230,6|2,1:2|1:2,0:0:0:0:
376,306,53081,2,0,P|397:278|403:244,1,57.5,10|0,0:2|0:0,0:0:0:0:
439,212,53381,6,0,B|345:198|329:311|208:283,1,230,6|0,1:2|1:2,0:0:0:0:
203,174,54281,1,10,0:2:0:0:
203,174,54431,1,0,0:0:0:0:
203,174,54581,2,0,L|56:204,1,115,2|8,1:2|0:0,0:0:0:0:
38,173,55031,2,0,P|10:202|18:283,1,115,2|0,0:0|0:0,0:0:0:0:
44,320,55481,2,0,P|66:325|133:348,1,57.5,10|0,0:2|0:0,0:0:0:0:
147,367,55781,5,2,1:2:0:0:
228,286,56081,1,8,0:2:0:0:
309,367,56381,2,0,P|345:356|399:352,1,57.5,4|0,1:2|0:0,0:0:0:0:
385,299,56681,2,0,P|417:308|457:309,1,57.5,12|0,0:2|0:0,0:0:0:0:
486,345,56981,2,0,P|474:273|472:184,1,115,6|10,1:2|0:2,0:0:0:0:
372,172,57581,1,2,1:2:0:0:
463,101,57881,2,0,L|400:89,1,57.5,10|2,0:2|0:0,0:0:0:0:
375,42,58181,6,0,B|323:49|272:2|272:2|256:69|195:91,1,230,6|0,1:2|1:2,0:0:0:0:
98,38,59081,1,10,0:2:0:0:
98,38,59231,1,0,0:0:0:0:
98,38,59381,2,0,P|71:68|81:162,1,115,2|8,1:2|0:2,0:0:0:0:
45,193,59831,2,0,B|87:172|87:172|165:192,1,115,2|0,0:0|0:0,0:0:0:0:
196,226,60281,2,0,L|179:296,1,57.5,10|0,0:2|0:0,0:0:0:0:
139,320,60581,5,6,1:2:0:0:
236,381,60881,1,8,0:2:0:0:
301,286,61181,2,0,P|355:276|427:270,1,115,0|10,1:0|0:2,0:0:0:0:
474,369,61781,2,0,P|435:264|510:191,1,230,6|2,1:2|1:2,0:0:0:0:
402,151,62681,2,0,L|322:134,1,57.5,10|0,0:2|0:0,0:0:0:0:
295,110,62981,6,0,B|213:120|213:120|177:176|177:176|98:197,1,230,6|0,1:2|1:2,0:0:0:0:
5,128,63881,1,10,0:2:0:0:
5,128,64031,1,0,0:0:0:0:
5,128,64181,2,0,L|126:100,1,115,6|8,1:2|0:2,0:0:0:0:
129,45,64631,2,0,L|266:28,1,115,2|0,0:0|0:0,0:0:0:0:
292,1,65081,1,10,0:2:0:0:
395,50,65381,6,0,P|418:78|409:164,1,115,6|0,1:2|0:0,0:0:0:0:
371,189,65831,1,0,1:2:0:0:
371,189,65981,2,0,L|492:216,1,115,12|0,0:2|1:2,0:0:0:0:
436,319,66581,2,0,P|407:326|354:347,1,57.5,12|0,0:2|1:2,0:0:0:0:
331,305,66881,2,0,P|303:311|275:320,1,57.5,4|0,1:2|1:2,0:0:0:0:
231,356,67181,1,4,1:2:0:0:
118,333,67481,1,0,1:2:0:0:
6,303,67781,6,0,P|23:226|23:174,1,115,6|8,1:2|0:2,0:0:0:0:
0,137,68231,2,0,P|47:153|121:96,1,115,2|0,0:0|0:0,0:0:0:0:
157,150,68681,1,10,0:2:0:0:
226,58,68981,2,0,P|275:55|329:91,1,115,2|8,1:2|0:2,0:0:0:0:
384,75,69431,2,0,P|367:109|350:203,1,115,2|0,0:0|0:0,0:0:0:0:
305,220,69881,1,10,0:2:0:0:
330,332,70181,6,0,B|270:320|270:320|238:284|238:284|171:268,2,172.5,2|2|10,1:2|0:0|0:2,0:0:0:0:
434,380,71381,2,0,P|478:322|461:253,1,115,2|10,1:2|0:2,0:0:0:0:
397,198,71981,1,2,1:2:0:0:
475,114,72281,1,10,0:2:0:0:
415,23,72581,6,0,P|357:35|296:45,1,115,2|8,1:2|0:2,0:0:0:0:
255,77,73031,2,0,P|208:46|144:52,1,115,2|0,0:0|0:0,0:0:0:0:
99,74,73481,1,10,0:2:0:0:
6,141,73781,2,0,P|35:170|129:163,1,115,2|8,1:2|0:2,0:0:0:0:
159,156,74231,2,0,P|142:194|125:285,1,115,2|0,0:0|0:0,0:0:0:0:
77,297,74681,1,10,0:2:0:0:
166,369,74981,6,0,P|230:358|262:295,1,115,2|8,1:2|0:2,0:0:0:0:
299,280,75431,2,0,L|491:325,1,172.5,2|10,0:0|0:2,0:0:0:0:
417,215,76181,1,2,1:2:0:0:
510,148,76481,1,10,0:0:0:0:
441,55,76781,1,2,1:2:0:0:
347,121,77081,2,0,L|247:142,1,57.5,10|0,0:0|0:0,0:0:0:0:
251,174,77381,6,0,P|227:134|242:62,1,115,6|8,1:2|0:2,0:0:0:0:
196,28,77831,2,0,P|128:20|70:9,1,115,2|0,0:0|0:0,0:0:0:0:
27,30,78281,1,10,0:2:0:0:
98,119,78581,2,0,B|116:170|116:170|92:232,1,115,2|8,1:2|0:2,0:0:0:0:
42,252,79031,2,0,L|167:279,1,115,2|0,0:0|0:0,0:0:0:0:
178,328,79481,1,10,0:2:0:0:
279,382,79781,6,0,B|297:317|297:317|284:271|284:271|296:214,1,172.5,2|2,1:2|0:0,0:0:0:0:
331,169,80381,2,0,L|320:42,1,115,0|10,1:2|0:2,0:0:0:0:
425,5,80981,2,0,P|469:32|459:191,1,230,2|2,1:2|1:2,0:0:0:0:
370,262,81881,1,8,0:2:0:0:
264,216,82181,6,0,P|211:193|136:201,1,115,2|8,1:2|0:2,0:0:0:0:
112,233,82631,2,0,P|82:194|89:117,1,115,2|0,0:0|0:0,0:0:0:0:
121,88,83081,1,10,0:2:0:0:
210,16,83381,2,0,P|256:31|344:42,1,115,2|8,1:2|0:2,0:0:0:0:
372,13,83831,2,0,P|350:48|368:143,1,115,2|0,0:0|0:0,0:0:0:0:
397,156,84281,1,10,0:2:0:0:
479,235,84581,5,6,1:2:0:0:
479,235,84731,2,0,P|461:292|464:358,1,115,0|0,0:0|1:2,0:0:0:0:
409,371,85181,2,0,P|379:357|326:347,1,57.5,14|0,0:2|0:0,0:0:0:0:
309,316,85481,2,0,P|281:324|255:336,1,57.5,0|0,1:2|1:2,0:0:0:0:
211,373,85781,1,14,0:2:0:0:
145,278,86081,1,4,1:2:0:0:
243,218,86381,2,0,P|249:174|258:141,1,57.5,6|2,1:2|1:2,0:0:0:0:
202,133,86681,2,0,P|195:89|187:56,1,57.5,6|2,1:2|1:2,0:0:0:0:
232,35,86981,6,0,B|281:39|281:39|296:52|296:52|351:59,2,115,2|0|4,0:1|0:0|1:2,0:0:0:0:
121,2,87881,2,0,L|31:25,1,57.5,10|0,0:2|0:0,0:0:0:0:
17,48,88181,2,0,P|-6:88|3:158,1,115,2|8,1:2|0:2,0:0:0:0:
84,234,88781,1,2,1:2:0:0:
187,184,89081,1,10,0:2:0:0:
247,282,89381,6,0,L|377:304,1,115,2|8,1:2|0:2,0:0:0:0:
387,189,89981,2,0,L|375:112,2,57.5,2|0|10,1:2|0:0|0:2,0:0:0:0:
482,253,90581,2,0,P|510:205|486:136,1,115,2|8,1:2|0:2,0:0:0:0:
479,94,91031,1,2,0:0:0:0:
479,94,91181,2,0,L|492:27,2,57.5,2|2|10,1:2|0:0|0:2,0:0:0:0:
398,11,91781,6,0,P|334:18|251:26,1,115,2|8,1:2|0:2,0:0:0:0:
187,86,92381,2,0,P|158:77|103:73,2,57.5,2|0|10,1:2|0:0|0:2,0:0:0:0:
289,139,92981,2,0,P|317:171|306:248,1,115,2|8,1:2|0:2,0:0:0:0:
253,339,93581,1,2,1:2:0:0:
151,284,93881,1,10,0:2:0:0:
51,340,94181,6,0,P|32:303|54:216,1,115,2|8,1:2|0:2,0:0:0:0:
126,154,94781,2,0,P|116:105|115:77,1,57.5,2|0,1:2|0:0,0:0:0:0:
89,46,95081,1,10,0:2:0:0:
203,26,95381,2,0,B|266:31|251:52|326:55,1,115,2|8,1:2|0:2,0:0:0:0:
365,30,95831,1,2,0:0:0:0:
365,30,95981,2,0,L|370:107,2,57.5,2|2|10,1:2|0:0|0:2,0:0:0:0:
467,83,96581,5,2,1:1:0:0:
467,83,96881,2,0,P|488:119|466:190,1,115,4|2,1:2|1:2,0:0:0:0:
366,136,97481,1,10,0:2:0:0:
274,184,97781,2,0,P|269:234|252:316,1,115,2|0,1:2|1:2,0:0:0:0:
285,347,98231,1,0,1:2:0:0:
285,347,98381,2,0,P|240:322|149:354,1,115,8|0,0:2|1:2,0:0:0:0:
73,374,98981,6,0,P|42:335|70:207,1,172.5,4|0,1:2|0:0,0:0:0:0:
100,182,99581,1,8,0:2:0:0:
12,107,99881,1,0,1:2:0:0:
98,31,100181,2,0,P|170:19|246:6,1,115,0|0,1:2|1:2,0:0:0:0:
264,34,100631,1,0,1:2:0:0:
264,34,100781,2,0,L|253:94,1,57.5,8|0,0:2|0:0,0:0:0:0:
219,137,101081,2,0,L|230:197,1,57.5,4|0,1:2|1:2,0:0:0:0:
210,247,101381,6,0,P|261:257|323:283,1,115,4|8,1:2|0:2,0:0:0:0:
393,369,101981,2,0,P|403:318|429:256,1,115,2|8,1:2|0:2,0:0:0:0:
510,180,102581,2,0,P|459:170|397:144,1,115,4|8,1:2|0:2,0:0:0:0:
326,57,103181,2,0,P|316:108|290:170,1,115,2|8,1:2|0:2,0:0:0:0:
210,247,103781,6,0,B|153:258|153:258|114:300|114:300|56:316,1,172.5,4|0,1:2|1:2,0:0:0:0:
16,354,104381,2,0,P|-7:320|16:244,1,115,12|0,0:2|1:2,0:0:0:0:
48,210,104831,1,0,1:2:0:0:
48,210,104981,2,0,L|23:87,1,115,12|4,0:2|1:2,0:0:0:0:
105,14,105581,2,0,L|198:26,1,57.5,4|0,1:2|1:2,0:0:0:0:
205,59,105881,2,0,L|291:48,1,57.5,0|0,1:2|1:2,0:0:0:0:
313,23,106181,6,0,B|411:20|378:64|489:70,2,172.5,6|0|2,0:2|0:0|0:0,0:0:0:0:
213,81,107381,2,0,P|184:112|189:207,1,115,2|0,0:0|0:0,0:0:0:0:
148,232,107831,2,0,P|212:210|324:194,1,172.5,0|0,0:0|0:0,0:0:0:0:
418,143,108581,2,0,P|452:169|436:315,2,172.5,2|2|2,0:0|0:0|0:0,0:0:0:0:
344,53,109781,2,0,B|286:96|286:96|318:257,1,230,2|0,0:0|0:0,0:0:0:0:
277,359,110681,1,0,0:0:0:0:
171,313,110981,6,0,B|102:326|102:326|76:362|76:362|2:383,2,172.5,2|0|2,0:0|0:0|0:0,0:0:0:0:
253,232,112181,2,0,P|202:198|126:210,1,115,2|0,0:0|0:0,0:0:0:0:
108,238,112631,2,0,P|68:208|96:87,1,172.5,0|0,0:0|0:0,0:0:0:0:
180,39,113381,2,0,B|239:42|286:78|286:78|346:51,2,172.5,2|2|2,0:0|0:0|0:0,0:0:0:0:
98,120,114581,1,2,0:0:0:0:
189,190,114881,1,2,0:0:0:0:
301,166,115181,2,0,P|349:170|407:217,1,115,2|2,0:0|0:0,0:0:0:0:
438,317,115781,6,0,P|450:218|480:126,2,172.5,6|0|2,0:2|0:0|0:0,0:0:0:0:
330,275,116981,2,0,P|291:296|215:315,1,115,2|0,0:0|0:0,0:0:0:0:
197,365,117431,2,0,P|150:340|157:231,1,172.5,0|0,0:0|0:0,0:0:0:0:
212,134,118181,2,0,P|171:184|38:195,2,172.5,2|2|2,0:0|0:0|0:0,0:0:0:0:
322,166,119381,2,0,B|206:136|260:59|120:35,1,230,2|0,0:0|0:0,0:0:0:0:
43,103,120281,1,0,0:0:0:0:
43,103,120581,6,0,P|36:147|3:318,2,172.5,2|0|0,0:0|0:0|0:0,0:0:0:0:
128,180,121781,2,0,P|139:231|158:373,2,172.5,2|0|0,0:0|0:0|0:0,0:0:0:0:
203,92,122981,6,0,P|250:92|312:47,1,115,4|0,1:2|0:0,0:0:0:0:
344,13,123431,1,0,1:2:0:0:
344,13,123581,2,0,L|360:136,1,115,12|0,0:2|1:2,0:0:0:0:
469,156,124181,2,0,L|456:234,1,57.5,12|0,0:2|1:2,0:0:0:0:
405,231,124481,2,0,L|418:312,1,57.5,4|0,1:2|1:2,0:0:0:0:
453,330,124781,1,2,0:1:0:0:
348,377,125081,2,0,P|318:363|274:367,1,57.5,8|8,0:2|0:2,0:0:0:0:
239,379,125381,6,0,P|211:318|244:253,1,120.749996315003,6|8,1:2|0:2,0:0:0:0:
262,224,125831,2,0,P|195:241|122:251,1,120.749996315003,2|0,0:0|0:0,0:0:0:0:
114,297,126281,1,10,0:2:0:0:
16,238,126581,2,0,P|30:179|37:100,1,120.749996315003,2|8,1:2|0:2,0:0:0:0:
11,67,127031,2,0,P|49:97|139:92,1,120.749996315003,2|2,0:0|0:0,0:0:0:0:
161,62,127481,1,10,0:2:0:0:
253,127,127781,6,0,B|306:129|347:151|347:151|400:116|378:62,1,181.124994472504,2|2,1:2|0:0,0:0:0:0:
346,38,128381,2,0,L|481:66,1,120.749996315003,0|10,1:2|0:2,0:0:0:0:
507,167,128981,1,2,1:2:0:0:
406,219,129281,1,8,0:2:0:0:
309,158,129581,1,0,1:2:0:0:
208,210,129881,1,10,0:2:0:0:
123,134,130181,6,0,P|122:182|109:268,1,120.749996315003,2|8,1:2|0:2,0:0:0:0:
61,279,130631,2,0,P|108:282|200:308,1,120.749996315003,2|0,0:0|0:0,0:0:0:0:
209,348,131081,1,10,0:2:0:0:
320,301,131381,2,0,P|358:271|437:278,1,120.749996315003,2|8,1:2|0:2,0:0:0:0:
459,324,131831,2,0,P|471:267|502:192,1,120.749996315003,2|2,0:0|0:0,0:0:0:0:
440,180,132281,1,10,0:2:0:0:
492,71,132581,6,0,P|431:86|346:96,1,120.749996315003,2|8,1:2|0:2,0:0:0:0:
346,143,133031,2,0,P|250:105|239:31,1,181.124994472504,2|10,0:0|0:2,0:0:0:0:
128,4,133781,1,2,1:2:0:0:
49,86,134081,1,10,0:0:0:0:
155,124,134381,2,0,B|137:168|137:168|138:193|138:193|120:239,1,120.749996315003,2|10,1:2|0:0,0:0:0:0:
28,306,134981,6,0,P|47:344|131:359,1,120.749996315003,6|8,1:2|0:2,0:0:0:0:
162,328,135431,2,0,P|215:317|314:320,1,120.749996315003,2|0,0:0|0:0,0:0:0:0:
331,342,135881,2,0,P|360:335|390:330,1,60.3749981575013,10|0,0:2|0:0,0:0:0:0:
439,360,136181,2,0,P|480:283|455:230,1,120.749996315003,2|8,1:2|0:2,0:0:0:0:
495,203,136631,2,0,P|429:227|366:241,1,120.749996315003,2|2,0:0|0:0,0:0:0:0:
324,226,137081,2,0,P|307:185|310:156,1,60.3749981575013,10|0,0:2|0:0,0:0:0:0:
344,126,137381,5,2,1:2:0:0:
300,21,137681,1,8,0:2:0:0:
300,21,137831,2,0,P|229:37|173:45,1,120.749996315003,2|2,0:0|0:0,0:0:0:0:
133,13,138281,1,10,0:2:0:0:
105,123,138581,1,2,1:2:0:0:
4,70,138881,1,10,0:2:0:0:
22,182,139181,2,0,L|-3:308,1,120.749996315003,2|10,1:2|0:2,0:0:0:0:
99,247,139781,6,0,P|140:215|234:224,1,120.749996315003,2|8,1:2|0:2,0:0:0:0:
249,248,140231,2,0,P|281:280|372:280,1,120.749996315003,2|2,0:0|0:0,0:0:0:0:
400,256,140681,1,10,0:2:0:0:
494,192,140981,2,0,P|485:132|482:57,1,120.749996315003,2|8,1:2|0:2,0:0:0:0:
453,22,141431,2,0,P|392:37|303:45,1,120.749996315003,2|0,0:0|0:0,0:0:0:0:
298,88,141881,1,10,0:2:0:0:
211,14,142181,5,6,1:2:0:0:
211,14,142331,2,0,P|190:53|190:138,1,120.749996315003,0|0,0:0|1:2,0:0:0:0:
229,166,142781,1,12,0:2:0:0:
133,227,143081,1,0,1:2:0:0:
133,227,143231,1,0,1:2:0:0:
133,227,143381,2,0,L|-2:262,1,120.749996315003,12|4,0:2|1:2,0:0:0:0:
99,333,143981,2,0,P|131:347|169:350,1,60.3749981575013,4|0,1:2|1:2,0:0:0:0:
201,316,144281,2,0,P|232:303|278:294,1,60.3749981575013,0|0,1:2|1:2,0:0:0:0:
309,320,144581,5,0,0:0:0:0:
