osu file format v14

[General]
AudioFilename: audio.mp3
AudioLeadIn: 0
PreviewTime: 72641
Countdown: 0
SampleSet: Soft
StackLeniency: 0.7
Mode: 2
LetterboxInBreaks: 0
WidescreenStoryboard: 1

[Editor]
Bookmarks: 735,12735,36735,48735,60735,72735,96735,108735,120735,132735,156735,168735,180735
DistanceSpacing: 1
BeatDivisor: 4
GridSize: 4
TimelineZoom: 2.5

[Metadata]
Title:Fallen Angel
TitleUnicode:Fallen Angel
Artist:HyuN feat. JeeE
ArtistUnicode:HyuN feat. JeeE
Creator:autofanboy
Version:Salad
Source:osu!
Tags:hyunesis ft. FA featured artist Mappers' Guild Video Game Korean AFB alienflybot AJamez Jemzuu Spectator Nelly Daletto
BeatmapID:2621372
BeatmapSetID:1141049

[Difficulty]
HPDrainRate:4
CircleSize:3
OverallDifficulty:6.7
ApproachRate:6.7
SliderMultiplier:1.44
SliderTickRate:1

[Events]
//Background and Video events
0,0,"Angel.jpg",0,0
//Break Periods
2,39935,41790
//Storyboard Layer 0 (Background)
//Storyboard Layer 1 (Fail)
//Storyboard Layer 2 (Pass)
//Storyboard Layer 3 (Foreground)
//Storyboard Layer 4 (Overlay)
//Storyboard Sound Samples

[TimingPoints]
735,375,4,2,1,40,1,0
735,-100,4,2,1,40,0,0
3360,-100,4,2,1,5,0,0
3735,-100,4,2,1,40,0,0
4485,-100,4,2,1,40,0,0
5235,-100,4,2,1,40,0,0
6360,-100,4,2,1,5,0,0
6735,-100,4,2,1,40,0,0
8797,-100,4,2,1,5,0,0
8985,-100,4,2,1,40,0,0
9547,-100,4,2,1,5,0,0
9735,-100,4,2,1,40,0,0
9922,-100,4,2,1,30,0,0
10110,-100,4,2,1,22,0,0
10297,-100,4,2,1,16,0,0
10485,-100,4,2,1,12,0,0
10672,-100,4,2,1,18,0,0
10860,-100,4,2,1,26,0,0
11000,-100,4,2,1,36,0,0
11235,-100,4,2,1,48,0,0
11610,-100,4,2,1,46,0,0
11703,-100,4,2,1,44,0,0
11797,-100,4,2,1,42,0,0
11891,-100,4,2,1,40,0,0
11985,-100,4,2,1,38,0,0
12078,-100,4,2,1,36,0,0
12172,-100,4,2,1,5,0,0
12360,-100,4,2,2,40,0,0
12735,-100,4,2,2,60,0,0
13297,-100,4,2,3,60,0,0
13391,-100,4,2,2,60,0,0
14047,-100,4,2,3,60,0,0
14141,-100,4,2,2,60,0,0
14797,-100,4,2,3,60,0,0
14891,-100,4,2,2,60,0,0
16297,-100,4,2,3,60,0,0
16391,-100,4,2,2,60,0,0
19297,-100,4,2,3,60,0,0
19391,-100,4,2,2,60,0,0
20422,-100,4,2,3,60,0,0
20610,-100,4,2,2,60,0,0
20797,-100,4,2,3,60,0,0
20891,-100,4,2,2,60,0,0
22297,-100,4,2,3,60,0,0
22391,-100,4,2,2,60,0,0
25297,-100,4,2,3,60,0,0
25391,-100,4,2,2,60,0,0
26422,-100,4,2,3,60,0,0
26610,-100,4,2,2,60,0,0
28297,-100,4,2,3,60,0,0
28391,-100,4,2,2,60,0,0
29047,-100,4,2,3,60,0,0
29141,-100,4,2,2,60,0,0
31297,-100,4,2,3,60,0,0
31391,-100,4,2,2,60,0,0
32047,-100,4,2,3,60,0,0
32141,-100,4,2,2,60,0,0
32797,-100,4,2,3,60,0,0
32891,-100,4,2,2,60,0,0
36735,-100,4,2,2,60,0,0
37110,-100,4,2,3,40,0,0
37485,-100,4,2,3,20,0,0
38235,-100,4,2,3,22,0,0
38985,-100,4,2,3,25,0,0
39735,-100,4,2,3,28,0,0
39922,-100,4,2,2,28,0,0
40485,-100,4,2,3,30,0,0
40672,-100,4,2,2,30,0,0
41235,-100,4,2,3,32,0,0
41422,-100,4,2,2,32,0,0
41985,-100,4,2,3,35,0,0
42172,-100,4,2,2,35,0,0
42360,-100,4,2,3,35,0,0
42547,-100,4,2,2,40,0,0
42735,-100,4,2,2,60,0,0
48735,-100,4,2,1,40,0,0
59610,-100,4,2,1,5,0,0
59797,-100,4,2,1,40,0,0
60547,-100,4,2,1,5,0,0
60735,-100,4,2,2,50,0,0
72735,-100,4,2,2,60,0,0
73860,-100,4,2,3,60,0,0
74235,-100,4,2,2,60,0,0
76860,-100,4,2,3,60,0,0
77235,-100,4,2,2,60,0,0
79860,-100,4,2,3,60,0,0
80235,-100,4,2,2,60,0,0
83422,-100,4,2,3,60,0,0
83516,-100,4,2,2,60,0,0
83797,-100,4,2,3,60,0,0
83891,-100,4,2,2,60,0,0
84172,-100,4,2,3,60,0,0
84266,-100,4,2,2,60,0,0
88110,-100,4,2,3,60,0,0
88485,-100,4,2,2,60,0,0
88766,-100,4,2,3,60,0,0
88860,-100,4,2,2,60,0,0
89047,-100,4,2,3,60,0,0
89235,-100,4,2,2,60,0,0
90266,-100,4,2,3,60,0,0
90360,-100,4,2,2,60,0,0
90547,-100,4,2,3,60,0,0
90735,-100,4,2,2,60,0,0
93266,-100,4,2,3,60,0,0
93360,-100,4,2,2,60,0,0
93547,-100,4,2,3,60,0,0
93735,-100,4,2,2,60,0,0
94766,-100,4,2,3,60,0,0
94860,-100,4,2,2,60,0,0
95047,-100,4,2,3,60,0,0
95235,-100,4,2,2,40,0,0
97297,-100,4,2,3,40,0,0
97485,-100,4,2,2,40,0,0
98422,-100,4,2,3,40,0,0
98610,-100,4,2,2,40,0,0
100297,-100,4,2,3,40,0,0
100485,-100,4,2,2,40,0,0
101422,-100,4,2,3,40,0,0
101610,-100,4,2,2,40,0,0
102735,-100,4,2,2,60,0,0
105735,-100,4,2,2,70,0,0
107235,-100,4,2,2,72,0,0
107985,-100,4,2,2,75,0,0
108360,-100,4,2,2,78,0,0
108735,-100,4,2,2,80,0,0
110985,-100,4,2,2,60,0,1
111735,-100,4,2,2,80,0,0
114360,-100,4,2,2,60,0,1
114735,-100,4,2,2,80,0,0
116985,-100,4,2,2,60,0,1
117735,-100,4,2,2,80,0,0
119422,-100,4,2,2,80,0,0
119797,-100,4,2,2,80,0,0
122985,-100,4,2,2,60,0,1
123735,-100,4,2,2,80,0,0
126360,-100,4,2,2,60,0,1
126735,-100,4,2,2,80,0,0
128985,-100,4,2,2,60,0,1
129735,-100,4,2,2,80,0,0
132735,-100,4,2,2,60,0,0
133860,-100,4,2,3,60,0,0
134235,-100,4,2,2,60,0,0
136860,-100,4,2,3,60,0,0
137235,-100,4,2,2,60,0,0
139860,-100,4,2,3,60,0,0
140235,-100,4,2,2,60,0,0
143422,-100,4,2,3,60,0,0
143516,-100,4,2,2,60,0,0
143797,-100,4,2,3,60,0,0
143891,-100,4,2,2,60,0,0
144172,-100,4,2,3,60,0,0
144266,-100,4,2,2,60,0,0
148110,-100,4,2,3,60,0,0
148485,-100,4,2,2,60,0,0
148766,-100,4,2,3,60,0,0
148860,-100,4,2,2,60,0,0
149047,-100,4,2,3,60,0,0
149235,-100,4,2,2,60,0,0
150266,-100,4,2,3,60,0,0
150360,-100,4,2,2,60,0,0
150547,-100,4,2,3,60,0,0
150735,-100,4,2,2,60,0,0
153266,-100,4,2,3,60,0,0
153360,-100,4,2,2,60,0,0
153547,-100,4,2,3,60,0,0
153735,-100,4,2,2,60,0,0
154766,-100,4,2,3,60,0,0
154860,-100,4,2,2,60,0,0
155047,-100,4,2,3,60,0,0
155235,-100,4,2,2,60,0,0
156735,-100,4,2,2,40,0,0
157297,-100,4,2,3,40,0,0
157485,-100,4,2,2,40,0,0
158422,-100,4,2,3,40,0,0
158516,-100,4,2,2,40,0,0
160297,-100,4,2,3,40,0,0
160485,-100,4,2,2,40,0,0
161422,-100,4,2,3,40,0,0
161516,-100,4,2,2,40,0,0
162735,-100,4,2,2,60,0,0
165735,-100,4,2,2,70,0,0
167235,-100,4,2,2,72,0,0
167985,-100,4,2,2,75,0,0
168360,-100,4,2,2,78,0,0
168735,-100,4,2,2,80,0,0

[Colours]
Combo1 : 255,227,170
Combo2 : 97,41,22
Combo3 : 203,168,116
Combo4 : 230,93,44

[HitObjects]
144,336,735,6,0,L|136:192,1,144,4|0,0:0|0:0,0:0:0:0:
280,120,1485,2,0,L|424:112,1,144,2|2,0:0|0:0,0:0:0:0:
280,36,2235,2,0,P|216:108|280:188,1,216,2|0,0:0|0:0,0:0:0:0:
352,224,2985,2,0,L|360:368,1,144,2|0,0:0|0:0,0:0:0:0:
192,196,3735,6,0,L|48:188,1,144,2|2,0:0|0:0,0:0:0:0:
192,152,4485,2,0,L|200:44,1,108,0|2,0:0|0:0,0:0:0:0:
92,8,5047,1,2,0:0:0:0:
20,12,5235,2,0,L|236:24,1,216,2|0,0:0|0:0,0:0:0:0:
308,100,5985,2,0,L|164:108,1,144,2|0,0:0|0:0,0:0:0:0:
332,148,6735,6,0,L|340:292,1,144,2|0,0:0|0:0,0:0:0:0:
196,208,7485,2,0,L|188:351,1,144,2|0,0:0|0:0,0:0:0:0:
332,280,8235,6,0,L|44:264,2,288,2|2|2,0:0|0:0|0:0,0:0:0:0:
256,192,10110,12,2,12360,0:0:0:0:
456,364,12735,6,0,P|484:324|456:240,1,144,6|0,0:0|0:0,0:0:0:0:
384,236,13297,1,2,0:0:0:0:
292,164,13485,2,0,L|436:156,1,144,8|0,0:0|0:0,0:0:0:0:
364,152,14047,1,2,0:0:0:0:
272,76,14235,6,0,L|128:84,1,144,2|0,0:0|0:0,0:0:0:0:
200,88,14797,1,2,0:0:0:0:
292,92,14985,1,8,0:0:0:0:
148,168,15360,1,0,0:0:0:0:
428,244,15735,6,0,L|436:100,1,144,2|0,0:0|0:0,0:0:0:0:
364,96,16297,1,2,0:0:0:0:
272,20,16485,2,0,L|416:12,2,144,8|2|2,0:0|0:0|0:0,0:0:0:0:
92,56,17422,6,0,P|64:96|92:180,1,144,8|2,0:0|0:0,0:0:0:0:
164,184,17985,1,8,0:0:0:0:
308,260,18360,2,0,L|236:264,1,72,2|8,0:0|0:0,0:0:0:0:
56,340,18735,6,0,P|28:300|56:216,1,144,6|2,0:0|0:0,0:0:0:0:
128,216,19297,1,2,0:0:0:0:
220,140,19485,2,0,P|248:112|236:16,1,144,8|0,0:0|0:0,0:0:0:0:
148,96,20047,2,0,L|144:24,1,72,2|2,0:0|0:0,0:0:0:0:
236,60,20422,6,0,L|92:64,1,144,2|2,0:0|0:0,0:0:0:0:
20,188,20985,1,8,0:0:0:0:
164,264,21360,2,0,L|236:268,1,72,2|8,0:0|0:0,0:0:0:0:
416,344,21735,6,0,P|444:304|416:220,1,144,2|0,0:0|0:0,0:0:0:0:
344,216,22297,1,2,0:0:0:0:
252,144,22485,2,0,L|108:136,2,144,8|2|2,0:0|0:0|0:0,0:0:0:0:
432,68,23422,6,0,P|460:108|432:192,1,144,8|2,0:0|0:0,0:0:0:0:
360,228,23985,2,0,L|504:236,1,144,10|8,0:0|0:0,0:0:0:0:
432,348,24547,1,8,0:0:0:0:
252,276,24735,6,0,P|216:272|164:188,1,144,6|0,0:0|0:0,0:0:0:0:
236,184,25297,1,2,0:0:0:0:
328,112,25485,2,0,L|184:104,1,144,8|0,0:0|0:0,0:0:0:0:
40,32,26235,1,2,0:0:0:0:
36,104,26422,6,0,L|180:108,1,144,2|2,0:0|0:0,0:0:0:0:
252,144,26985,2,0,L|108:152,1,144,8|2,0:0|0:0,0:0:0:0:
180,272,27547,1,8,0:0:0:0:
360,344,27735,6,0,P|396:340|448:256,1,144,0|2,0:0|0:0,0:0:0:0:
376,252,28297,1,2,0:0:0:0:
284,180,28485,2,0,L|428:172,2,144,8|2|2,0:0|0:0|0:0,0:0:0:0:
104,216,29422,6,0,P|76:176|104:92,1,144,8|2,0:0|0:0,0:0:0:0:
176,20,29985,2,0,L|32:12,1,144,8|2,0:0|0:0,0:0:0:0:
104,8,30547,1,8,0:0:0:0:
284,80,30735,6,0,P|320:84|372:168,1,144,6|0,0:0|0:0,0:0:0:0:
300,172,31297,1,2,0:0:0:0:
208,208,31485,2,0,P|172:212|120:296,1,144,8|0,0:0|0:0,0:0:0:0:
192,300,32047,1,2,0:0:0:0:
284,336,32235,6,0,L|428:328,1,144,2|0,0:0|0:0,0:0:0:0:
356,324,32797,1,2,0:0:0:0:
264,248,32985,2,0,L|408:240,1,144,8|2,0:0|0:0,0:0:0:0:
336,236,33547,1,8,0:0:0:0:
156,164,33735,6,0,P|128:124|156:40,1,144,2|0,0:0|0:0,0:0:0:0:
228,44,34297,1,2,0:0:0:0:
320,120,34485,2,0,L|176:128,2,144,8|2|2,0:0|0:0|0:0,0:0:0:0:
140,56,35422,5,8,0:0:0:0:
92,108,35609,1,2,0:0:0:0:
76,180,35797,1,2,0:0:0:0:
92,252,35984,1,10,0:0:0:0:
140,304,36171,1,0,0:0:0:0:
208,328,36360,2,0,L|244:324,2,36,10|10|10,0:0|0:0|0:0,0:0:0:0:
28,256,36735,5,4,0:0:0:0:
256,192,37110,12,2,39735,0:0:0:0:
120,328,42735,6,0,P|56:256|120:176,1,216,6|2,0:0|0:0,0:0:0:0:
192,172,43485,1,8,0:0:0:0:
392,248,44235,2,0,P|456:176|392:96,1,216,2|2,0:0|0:0,0:0:0:0:
320,92,44985,1,8,0:0:0:0:
120,20,45735,6,0,L|336:32,1,216,2|2,0:0|0:0,0:0:0:0:
264,36,46485,1,8,0:0:0:0:
64,112,47235,2,0,L|280:124,1,216,2|2,0:0|0:0,0:0:0:0:
208,128,47985,1,8,0:0:0:0:
64,204,48360,2,0,L|28:200,2,36,10|0|10,0:0|0:0|0:0,0:0:0:0:
244,280,48735,6,0,L|252:136,1,144,4|2,0:0|0:0,0:0:0:0:
108,208,49485,2,0,L|100:64,1,144,0|2,0:0|0:0,0:0:0:0:
244,28,50235,6,0,L|460:40,1,216,2|2,0:0|0:0,0:0:0:0:
388,44,50985,1,2,0:0:0:0:
244,120,51360,2,0,L|240:192,1,72,0|0,0:0|0:0,0:0:0:0:
332,228,51735,6,0,P|396:300|332:380,1,216,2|2,0:0|0:0,0:0:0:0:
296,376,52391,1,0,0:0:0:0:
260,372,52485,1,2,0:0:0:0:
404,300,52860,2,0,L|332:296,1,72
240,224,53235,5,2,0:0:0:0:
204,156,53422,1,0,0:0:0:0:
240,88,53610,1,2,0:0:0:0:
312,136,53797,2,0,L|316:64,1,72,0|2,0:0|0:0,0:0:0:0:
172,28,54360,2,0,L|244:24,1,72,2|0,0:0|0:0,0:0:0:0:
424,96,54735,6,0,L|432:240,1,144,2|2,0:0|0:0,0:0:0:0:
288,316,55485,2,0,L|144:308,1,144,0|2,0:0|0:0,0:0:0:0:
288,232,56235,6,0,L|72:220,1,216,2|0,0:0|0:0,0:0:0:0:
108,216,56891,1,0,0:0:0:0:
144,212,56985,1,2,0:0:0:0:
288,140,57360,2,0,L|292:68,1,72,0|0,0:0|0:0,0:0:0:0:
200,32,57735,6,0,P|136:104|200:184,1,216,2|0,0:0|0:0,0:0:0:0:
236,188,58391,1,0,0:0:0:0:
272,192,58485,1,2,0:0:0:0:
128,264,58860,1,0,0:0:0:0:
272,336,59235,6,0,P|300:296|272:212,1,144,2|0,0:0|0:0,0:0:0:0:
200,248,59797,2,0,P|108:184|200:76,1,288,2|0,0:0|0:0,0:0:0:0:
380,40,60735,6,0,L|388:184,1,144,6|2,0:0|0:3,0:0:0:0:
244,112,61485,2,0,L|236:256,1,144,8|2,0:0|0:3,0:0:0:0:
380,328,62235,6,0,P|408:288|380:204,1,144,2|2,0:0|0:3,0:0:0:0:
308,200,62797,1,2,0:0:0:0:
216,128,62985,2,0,L|360:120,1,144,8|2,0:0|0:3,0:0:0:0:
288,116,63547,1,0,0:0:0:0:
108,40,63735,6,0,L|252:32,1,144,2|2,0:0|0:3,0:0:0:0:
180,28,64297,1,0,0:0:0:0:
88,100,64485,2,0,P|60:140|88:224,1,144,8|2,0:0|0:3,0:0:0:0:
160,228,65047,1,0,0:0:0:0:
252,304,65235,5,2,0:0:0:0:
288,236,65422,1,0,0:0:0:0:
252,168,65610,1,2,0:3:0:0:
180,156,65797,1,2,0:0:0:0:
272,80,65985,1,10,0:0:0:0:
344,76,66172,2,0,L|348:40,2,36,0|0|2,0:0|0:0|0:0,0:0:0:0:
52,148,66735,6,0,L|44:292,1,144,2|2,0:0|0:3,0:0:0:0:
188,368,67485,2,0,L|332:360,1,144,8|2,0:0|0:3,0:0:0:0:
188,288,68235,6,0,P|152:284|100:200,1,144,2|2,0:0|0:3,0:0:0:0:
172,196,68797,1,2,0:0:0:0:
264,120,68985,2,0,L|120:112,1,144,8|2,0:0|0:3,0:0:0:0:
192,108,69547,1,0,0:0:0:0:
372,32,69735,6,0,P|320:116|284:120,1,144,2|2,0:0|0:3,0:0:0:0:
212,124,70297,1,0,0:0:0:0:
304,196,70485,2,0,L|448:204,1,144,8|2,0:0|0:3,0:0:0:0:
168,280,71235,6,0,P|219:195|255:191,1,144,2|2,0:0|0:3,0:0:0:0:
328,188,71797,1,2,0:0:0:0:
420,112,71985,2,0,P|369:27|333:23,1,144,8|8,0:0|0:0,0:0:0:0:
244,20,72547,1,8,0:0:0:0:
60,24,72735,6,0,P|32:64|60:148,1,144,4|2,0:0|0:3,0:0:0:0:
132,152,73297,1,0,0:0:0:0:
224,224,73485,2,0,L|152:228,1,72,8|0,0:0|0:0,0:0:0:0:
60,296,73860,1,2,0:0:0:0:
58,331,73953,1,0,0:0:0:0:
56,367,74047,1,2,0:0:0:0:
236,296,74235,6,0,P|272:292|324:208,1,144,2|2,0:0|0:3,0:0:0:0:
252,204,74797,1,2,0:0:0:0:
160,276,74985,2,0,L|152:132,1,144,8|2,0:0|0:0,0:0:0:0:
432,60,75735,6,0,P|460:100|432:184,1,144,6|2,0:0|0:3,0:0:0:0:
360,188,76297,1,2,0:0:0:0:
268,264,76485,1,8,0:0:0:0:
412,344,76860,2,0,L|416:308,2,36,2|0|2,0:0|0:0|0:0,0:0:0:0:
232,272,77235,6,0,P|196:268|144:184,1,144,2|2,0:0|0:3,0:0:0:0:
216,180,77797,1,0,0:0:0:0:
308,252,77985,2,0,L|316:108,1,144,8|2,0:0|0:0,0:0:0:0:
28,36,78735,6,0,P|80:120|116:124,1,144,6|2,0:0|0:3,0:0:0:0:
188,128,79297,1,0,0:0:0:0:
280,204,79485,2,0,L|208:208,1,72,8|0,0:0|0:0,0:0:0:0:
116,280,79860,1,2,0:0:0:0:
114,245,79953,1,0,0:0:0:0:
112,209,80047,1,2,0:0:0:0:
292,352,80235,6,0,P|320:312|292:228,1,144,2|2,0:0|0:3,0:0:0:0:
220,224,80797,1,2,0:0:0:0:
312,152,80985,2,0,L|456:144,1,144,8|2,0:0|0:0,0:0:0:0:
176,72,81735,6,0,L|32:64,1,144,6|2,0:0|0:3,0:0:0:0:
104,60,82297,1,2,0:0:0:0:
196,24,82485,2,0,L|204:168,1,144,8|2,0:0|0:3,0:0:0:0:
296,208,83047,2,0,L|300:280,1,72,2|2,0:0|0:0,0:0:0:0:
20,352,83610,6,0,L|16:280,1,72,0|2,0:0|0:0,0:0:0:0:
108,208,83985,2,0,L|252:200,1,144,8|2,0:0|0:0,0:0:0:0:
160,196,84547,1,8,0:0:0:0:
340,272,84735,6,0,P|376:268|428:184,1,144,6|2,0:0|0:3,0:0:0:0:
356,180,85297,1,0,0:0:0:0:
264,104,85485,1,8,0:0:0:0:
408,28,85860,2,0,L|412:100,1,72,2|0,0:3|0:0,0:0:0:0:
232,176,86235,6,0,P|204:216|232:300,1,144,2|2,0:0|0:3,0:0:0:0:
304,304,86797,1,2,0:0:0:0:
396,376,86985,2,0,L|404:232,1,144,8|2,0:0|0:0,0:0:0:0:
124,304,87735,6,0,L|120:232,1,72,6|0,0:0|0:0,0:0:0:0:
192,160,88110,1,2,0:0:0:0:
228,156,88203,1,0,0:0:0:0:
264,152,88297,1,2,0:0:0:0:
172,80,88485,2,0,L|64:76,2,108,8|2|2,0:0|0:0|0:0,0:0:0:0:
352,4,89235,6,0,P|380:44|352:128,1,144,2|2,0:0|0:3,0:0:0:0:
280,132,89797,1,2,0:0:0:0:
372,204,89985,2,0,L|480:200,2,108,8|2|2,0:0|0:0|0:0,0:0:0:0:
192,280,90735,6,0,L|184:136,1,144,6|2,0:0|0:3,0:0:0:0:
256,132,91297,1,0,0:0:0:0:
348,208,91485,2,0,L|356:64,1,144,8|2,0:0|0:3,0:0:0:0:
76,28,92235,6,0,L|220:36,1,144,2|2,0:0|0:3,0:0:0:0:
148,40,92797,1,2,0:0:0:0:
56,112,92985,2,0,P|44:152|56:216,1,108,8|2,0:0|0:0,0:0:0:0:
164,252,93547,1,2,0:0:0:0:
344,324,93735,6,0,L|352:180,1,144,6|2,0:0|0:3,0:0:0:0:
280,176,94297,1,2,0:0:0:0:
188,100,94485,2,0,L|296:96,2,108,8|2|2,0:0|0:0|0:0,0:0:0:0:
96,96,95235,1,2,0:0:0:0:
276,24,95422,6,0,P|304:64|276:148,1,144,8|2,0:0|0:0,0:0:0:0:
240,152,95891,1,2,0:0:0:0:
204,156,95985,1,8,0:0:0:0:
296,232,96172,2,0,L|368:236,2,72,0|8|8,0:0|0:0|0:0,0:0:0:0:
116,308,96735,6,0,P|88:268|116:184,1,144,6|2,0:0|0:0,0:0:0:0:
188,180,97297,1,2,0:0:0:0:
260,176,97485,1,2,0:0:0:0:
116,104,97860,1,2,0:0:0:0:
260,32,98235,1,2,0:0:0:0:
332,36,98422,6,0,L|188:44,1,144,2|2,0:0|0:3,0:0:0:0:
96,80,98985,2,0,L|88:224,1,144,2|2,0:0|0:0,0:0:0:0:
368,296,99735,6,0,L|376:152,1,144,2|2,0:0|0:0,0:0:0:0:
304,116,100297,2,0,L|300:44,1,72,2|2,0:0|0:0,0:0:0:0:
444,116,100860,1,2,0:0:0:0:
300,188,101235,1,2,0:0:0:0:
228,192,101422,6,0,L|372:200,1,144,2|2,0:0|0:3,0:0:0:0:
444,276,101985,2,0,L|300:284,1,144,2|2,0:0|0:0,0:0:0:0:
392,288,102547,1,8,0:0:0:0:
212,360,102735,6,0,L|208:288,1,72,14|2,0:0|0:0,0:0:0:0:
280,284,103110,1,2,0:0:0:0:
188,212,103297,2,0,L|44:204,1,144,10|2,0:0|0:0,0:0:0:0:
116,128,103860,2,0,L|260:120,1,144,10|2,0:0|0:0,0:0:0:0:
168,44,104422,6,0,L|164:80,2,36,10|0|2,0:0|0:0|0:0,0:0:0:0:
240,40,104797,1,2,0:0:0:0:
332,112,104985,2,0,L|188:120,1,144,10|10,0:0|0:0,0:0:0:0:
468,200,105735,6,0,L|472:272,1,72,6|2,0:0|0:0,0:0:0:0:
400,276,106110,1,10,0:0:0:0:
308,348,106297,2,0,P|272:344|220:260,1,144,2|2,0:0|0:0,0:0:0:0:
292,224,106860,2,0,L|296:152,1,72,10|2,0:0|0:0,0:0:0:0:
116,80,107235,5,6,0:0:0:0:
44,76,107422,2,0,L|188:68,1,144,10|2,0:0|0:0,0:0:0:0:
368,144,107985,2,0,L|372:216,1,72,14|2,0:0|0:0,0:0:0:0:
280,252,108360,2,0,L|276:324,1,72,14|10,0:0|0:0,0:0:0:0:
456,360,108735,5,4,0:0:0:0:
456,360,109297,1,0,0:0:0:0:
276,288,109485,1,8,0:0:0:0:
256,220,109672,1,0,0:0:0:0:
276,152,109860,1,0,0:0:0:0:
336,108,110047,1,0,0:0:0:0:
428,36,110235,6,0,L|284:28,1,144,2|0,0:0|0:0,0:0:0:0:
356,24,110797,1,2,0:0:0:0:
176,100,110985,2,0,L|172:172,1,72,8|8,0:3|0:3,0:3:0:0:
264,208,111360,1,8,0:3:0:0:
266,244,111453,1,8,0:3:0:0:
268,280,111547,1,8,0:3:0:0:
88,352,111735,5,6,0:0:0:0:
88,352,112297,1,2,0:0:0:0:
268,280,112485,1,8,0:0:0:0:
288,212,112672,1,0,0:0:0:0:
268,144,112860,1,0,0:0:0:0:
208,100,113047,1,2,0:0:0:0:
136,96,113235,1,2,0:0:0:0:
228,24,113422,6,0,L|372:32,1,144,8|2,0:0|0:0,0:0:0:0:
280,72,113985,2,0,L|276:144,1,72,10|2,0:0|0:0,0:0:0:0:
456,180,114360,1,8,0:3:0:0:
458,216,114453,1,8,0:3:0:0:
460,252,114547,1,8,0:3:0:0:
280,324,114735,5,6,0:0:0:0:
280,324,115297,1,0,0:0:0:0:
100,252,115485,1,8,0:0:0:0:
80,184,115672,1,0,0:0:0:0:
100,116,115860,1,0,0:0:0:0:
160,72,116047,1,0,0:0:0:0:
252,144,116235,6,0,L|108:152,1,144,2|0,0:0|0:0,0:0:0:0:
180,156,116797,1,2,0:0:0:0:
360,228,116985,2,0,L|364:300,1,72,8|8,0:3|0:3,0:3:0:0:
272,372,117360,1,8,0:3:0:0:
236,368,117453,1,8,0:3:0:0:
200,364,117547,1,8,0:3:0:0:
380,288,117735,5,6,0:0:0:0:
380,288,118297,1,2,0:0:0:0:
200,364,118485,1,8,0:0:0:0:
180,296,118672,1,0,0:0:0:0:
200,228,118860,1,0,0:0:0:0:
260,184,119047,1,2,0:0:0:0:
332,180,119235,1,2,0:0:0:0:
152,108,119422,6,0,L|8:100,1,144,4|2,0:0|0:0,0:0:0:0:
188,24,119985,2,0,L|260:28,2,72,4|4|4,0:0|0:0|0:0,0:0:0:0:
96,28,120547,1,8,0:0:0:0:
276,104,120735,6,0,P|312:108|364:192,1,144,6|8,0:0|0:0,0:0:0:0:
292,196,121297,1,0,0:0:0:0:
200,268,121485,2,0,L|196:196,1,72,2|0,0:0|0:0,0:0:0:0:
268,160,121860,2,0,L|196:156,1,72,8|0,0:0|0:0,0:0:0:0:
104,12,122235,6,0,P|76:52|104:136,1,144,2|8,0:0|0:0,0:0:0:0:
176,140,122797,1,0,0:0:0:0:
356,216,122985,2,0,L|360:288,1,72,8|8,0:3|0:3,0:3:0:0:
268,360,123360,2,0,L|232:364,2,36,8|8|8,0:3|0:3|0:3,0:3:0:0:
448,288,123735,6,0,P|476:248|448:164,1,144,6|8,0:0|0:0,0:0:0:0:
376,160,124297,1,0,0:0:0:0:
284,232,124485,2,0,L|280:160,1,72,2|0,0:0|0:0,0:0:0:0:
352,88,124860,2,0,L|356:16,1,72,8|0,0:0|0:0,0:0:0:0:
264,8,125235,6,0,P|228:12|176:96,1,144,2|8,0:0|0:0,0:0:0:0:
248,100,125797,1,0,0:0:0:0:
340,176,125985,2,0,L|268:180,1,72,2|0,0:0|0:0,0:0:0:0:
88,256,126360,2,0,L|52:252,2,36,8|8|8,0:3|0:3|0:3,0:3:0:0:
268,332,126735,6,0,P|304:328|356:244,1,144,6|8,0:0|0:0,0:0:0:0:
284,240,127297,1,0,0:0:0:0:
376,168,127485,2,0,L|380:96,1,72,2|0,0:0|0:0,0:0:0:0:
472,20,127860,2,0,L|400:16,1,72,8|0,0:0|0:0,0:0:0:0:
308,56,128235,6,0,L|164:64,1,144,2|8,0:0|0:0,0:0:0:0:
236,68,128797,1,0,0:0:0:0:
56,144,128985,2,0,L|52:216,1,72,8|8,0:3|0:3,0:3:0:0:
140,292,129360,1,8,0:3:0:0:
104,296,129453,1,8,0:3:0:0:
68,300,129547,1,8,0:3:0:0:
248,376,129735,5,6,0:0:0:0:
268,308,129922,1,2,0:0:0:0:
248,240,130110,1,2,0:0:0:0:
188,196,130297,1,2,0:0:0:0:
96,156,130485,2,0,L|92:84,1,72,10|2,0:0|0:0,0:0:0:0:
184,12,130860,2,0,L|256:16,1,72,2|2,0:0|0:0,0:0:0:0:
220,20,131141,1,2,0:0:0:0:
184,24,131235,1,6,0:0:0:0:
364,96,131422,6,0,P|392:136|364:220,1,144,4|6,0:0|0:0,0:0:0:0:
184,296,131985,2,0,L|112:292,2,72,4|4|8,0:0|0:0|0:0,0:0:0:0:
276,292,132547,1,8,0:0:0:0:
96,368,132735,6,0,P|60:364|8:280,1,144,4|2,0:0|0:3,0:0:0:0:
80,276,133297,1,0,0:0:0:0:
172,236,133485,2,0,L|176:164,1,72,8|0,0:0|0:0,0:0:0:0:
268,128,133860,1,2,0:0:0:0:
270,93,133953,1,0,0:0:0:0:
272,57,134047,1,2,0:0:0:0:
92,20,134235,6,0,P|64:60|92:144,1,144,2|2,0:0|0:3,0:0:0:0:
164,148,134797,1,2,0:0:0:0:
256,220,134985,2,0,L|112:228,1,144,8|2,0:0|0:0,0:0:0:0:
392,304,135735,6,0,P|428:300|480:216,1,144,6|2,0:0|0:3,0:0:0:0:
408,212,136297,1,2,0:0:0:0:
316,136,136485,1,8,0:0:0:0:
460,60,136860,2,0,L|464:24,2,36,2|0|2,0:0|0:0|0:0,0:0:0:0:
280,136,137235,6,0,P|244:140|192:224,1,144,2|2,0:0|0:3,0:0:0:0:
264,228,137797,1,2,0:0:0:0:
356,300,137985,2,0,L|364:156,1,144,8|2,0:0|0:0,0:0:0:0:
84,376,138735,6,0,P|56:336|84:252,1,144,6|2,0:0|0:3,0:0:0:0:
156,248,139297,1,2,0:0:0:0:
64,176,139485,2,0,L|60:104,1,72,8|0,0:0|0:0,0:0:0:0:
132,32,139860,1,2,0:0:0:0:
168,28,139953,1,0,0:0:0:0:
208,24,140047,1,2,0:0:0:0:
388,96,140235,6,0,L|244:104,1,144,2|2,0:0|0:3,0:0:0:0:
316,108,140797,1,2,0:0:0:0:
408,184,140985,2,0,P|444:188|496:272,1,144,8|2,0:0|0:0,0:0:0:0:
216,360,141735,6,0,P|268:276|304:272,1,144,6|2,0:0|0:3,0:0:0:0:
376,268,142297,1,2,0:0:0:0:
284,192,142485,2,0,L|140:184,1,144,8|2,0:0|0:3,0:0:0:0:
64,148,143047,2,0,L|60:72,1,72,2|2,0:0|0:0,0:0:0:0:
340,32,143610,6,0,L|344:104,1,72,2|2,0:3|0:0,0:0:0:0:
252,140,143985,2,0,L|396:148,1,144,8|2,0:0|0:3,0:0:0:0:
304,152,144547,1,8,0:0:0:0:
124,228,144735,6,0,P|96:268|124:352,1,144,6|2,0:0|0:3,0:0:0:0:
196,348,145297,1,0,0:0:0:0:
288,272,145485,1,8,0:0:0:0:
144,196,145860,2,0,L|140:160,2,36,2|0|0,0:3|0:0|0:0,0:0:0:0:
324,88,146235,6,0,P|360:92|412:176,1,144,2|2,0:0|0:3,0:0:0:0:
340,180,146797,1,2,0:0:0:0:
248,256,146985,2,0,L|104:264,1,144,8|2,0:0|0:0,0:0:0:0:
384,340,147735,6,0,L|388:268,1,72,6|0,0:0|0:0,0:0:0:0:
316,196,148110,1,2,0:0:0:0:
280,192,148203,1,0,0:0:0:0:
244,188,148297,1,2,0:0:0:0:
336,112,148485,2,0,L|444:108,2,108,8|2|0,0:0|0:0|0:0,0:0:0:0:
156,36,149235,6,0,P|128:76|156:160,1,144,2|2,0:0|0:3,0:0:0:0:
228,164,149797,1,2,0:0:0:0:
320,240,149985,2,0,L|212:244,1,108,8|2,0:0|0:0,0:0:0:0:
104,248,150547,1,2,0:0:0:0:
284,324,150735,6,0,L|292:180,1,144,6|2,0:0|0:3,0:0:0:0:
220,176,151297,1,2,0:0:0:0:
128,248,151485,2,0,L|120:104,1,144,8|2,0:0|0:3,0:0:0:0:
400,32,152235,6,0,P|436:36|488:120,1,144,2|2,0:0|0:3,0:0:0:0:
416,124,152797,1,2,0:0:0:0:
324,196,152985,2,0,L|216:192,2,108,8|2|2,0:0|0:0|0:0,0:0:0:0:
144,272,153735,6,0,L|136:128,1,144,6|2,0:0|0:3,0:0:0:0:
208,124,154297,1,2,0:0:0:0:
300,48,154485,2,0,L|192:44,1,108,8|2,0:0|0:0,0:0:0:0:
84,120,155047,1,2,0:0:0:0:
176,124,155235,1,2,0:0:0:0:
356,200,155422,6,0,P|392:204|444:288,1,144,8|2,0:0|0:0,0:0:0:0:
408,292,155891,1,2,0:0:0:0:
372,296,155985,1,8,0:0:0:0:
280,368,156172,1,0,0:0:0:0:
352,364,156360,2,0,L|356:292,1,72,8|8,0:0|0:0,0:0:0:0:
176,216,156735,6,0,P|140:212|88:128,1,144,6|2,0:0|0:0,0:0:0:0:
160,124,157297,1,2,0:0:0:0:
232,120,157485,1,2,0:0:0:0:
376,44,157860,1,2,0:0:0:0:
232,120,158235,1,2,0:0:0:0:
160,124,158422,6,0,L|304:132,1,144,2|2,0:0|0:3,0:0:0:0:
396,168,158985,2,0,L|404:312,1,144,2|2,0:0|0:0,0:0:0:0:
124,348,159735,6,0,L|116:204,1,144,2|2,0:0|0:0,0:0:0:0:
188,168,160297,2,0,L|192:96,1,72,2|2,0:0|0:0,0:0:0:0:
48,20,160860,1,2,0:0:0:0:
192,96,161235,1,2,0:0:0:0:
264,100,161422,6,0,L|120:108,1,144,2|2,0:0|0:3,0:0:0:0:
192,184,161985,2,0,L|48:192,1,144,2|2,0:0|0:0,0:0:0:0:
140,196,162547,1,8,0:0:0:0:
320,272,162735,6,0,L|324:200,1,72,6|2,0:0|0:0,0:0:0:0:
252,196,163110,1,2,0:0:0:0:
344,120,163297,2,0,L|488:112,1,144,10|2,0:0|0:0,0:0:0:0:
416,40,163860,2,0,L|272:32,1,144,10|2,0:0|0:0,0:0:0:0:
180,104,164422,6,0,L|176:68,2,36,10|0|2,0:0|0:0|0:0,0:0:0:0:
252,108,164797,1,2,0:0:0:0:
160,184,164985,2,0,L|304:192,1,144,10|10,0:0|0:0,0:0:0:0:
24,268,165735,6,0,L|20:196,1,72,6|2,0:0|0:0,0:0:0:0:
92,192,166110,1,10,0:0:0:0:
184,116,166297,2,0,P|132:32|96:28,1,144,2|2,0:0|0:0,0:0:0:0:
24,104,166860,2,0,L|96:108,1,72,10|2,0:0|0:0,0:0:0:0:
276,184,167235,5,6,0:0:0:0:
348,188,167422,2,0,L|204:196,1,144,10|2,0:0|0:0,0:0:0:0:
384,272,167985,2,0,L|380:200,1,72,14|2,0:0|0:0,0:0:0:0:
288,164,168360,2,0,L|216:160,1,72,14|10,0:0|0:0,0:0:0:0:
396,84,168735,1,4,0:0:0:0:
