osu file format v14

[General]
AudioFilename: audio.mp3
AudioLeadIn: 0
PreviewTime: 72641
Countdown: 0
SampleSet: Soft
StackLeniency: 0.7
Mode: 2
LetterboxInBreaks: 0
WidescreenStoryboard: 0

[Editor]
Bookmarks: 735,12735,36735,48735,60735,72735,96735,108735,120735,132735,156735,168735,180735
DistanceSpacing: 0.9
BeatDivisor: 4
GridSize: 4
TimelineZoom: 2.5

[Metadata]
Title:Fallen Angel
TitleUnicode:Fallen Angel
Artist:HyuN feat. JeeE
ArtistUnicode:HyuN feat. JeeE
Creator:autofanboy
Version:Obsession
Source:osu!
Tags:hyunesis ft. FA featured artist Mappers' Guild Video Game Korean AFB alienflybot AJamez Jemzuu Spectator Nelly Daletto
BeatmapID:2468075
BeatmapSetID:1141049

[Difficulty]
HPDrainRate:6
CircleSize:5
OverallDifficulty:9.5
ApproachRate:9.5
SliderMultiplier:2.24
SliderTickRate:2

[Events]
//Background and Video events
0,0,"Angel.jpg",0,0
//Break Periods
//Storyboard Layer 0 (Background)
//Storyboard Layer 1 (Fail)
//Storyboard Layer 2 (Pass)
//Storyboard Layer 3 (Foreground)
//Storyboard Layer 4 (Overlay)
//Storyboard Sound Samples

[TimingPoints]
735,375,4,2,1,40,1,0
735,-133.333333333333,4,2,1,40,0,0
3547,-133.333333333333,4,2,1,5,0,0
3735,-133.333333333333,4,2,1,40,0,0
6547,-133.333333333333,4,2,1,5,0,0
6735,-133.333333333333,4,2,1,40,0,0
8797,-133.333333333333,4,2,1,5,0,0
8985,-133.333333333333,4,2,1,40,0,0
9547,-133.333333333333,4,2,1,5,0,0
9735,-133.333333333333,4,2,1,40,0,0
9922,-133.333333333333,4,2,1,30,0,0
10110,-133.333333333333,4,2,1,22,0,0
10297,-133.333333333333,4,2,1,16,0,0
10485,-133.333333333333,4,2,1,12,0,0
10672,-133.333333333333,4,2,1,18,0,0
10860,-133.333333333333,4,2,1,26,0,0
11000,-133.333333333333,4,2,1,36,0,0
11235,-133.333333333333,4,2,1,48,0,0
11610,-133.333333333333,4,2,1,46,0,0
11703,-133.333333333333,4,2,1,44,0,0
11797,-133.333333333333,4,2,1,42,0,0
11891,-133.333333333333,4,2,1,40,0,0
11985,-133.333333333333,4,2,1,38,0,0
12078,-133.333333333333,4,2,1,36,0,0
12172,-133.333333333333,4,2,1,5,0,0
12360,-133.333333333333,4,2,2,40,0,0
12735,-100,4,2,2,60,0,0
13297,-100,4,2,3,60,0,0
13391,-100,4,2,2,60,0,0
14047,-100,4,2,3,60,0,0
14141,-100,4,2,2,60,0,0
14797,-100,4,2,3,60,0,0
14891,-100,4,2,2,60,0,0
16297,-100,4,2,3,60,0,0
16391,-100,4,2,2,60,0,0
19297,-100,4,2,3,60,0,0
19391,-100,4,2,2,60,0,0
20422,-100,4,2,3,60,0,0
20610,-100,4,2,2,60,0,0
20797,-100,4,2,3,60,0,0
20891,-100,4,2,2,60,0,0
22297,-100,4,2,3,60,0,0
22391,-100,4,2,2,60,0,0
25297,-100,4,2,3,60,0,0
25391,-100,4,2,2,60,0,0
26422,-100,4,2,3,60,0,0
26610,-100,4,2,2,60,0,0
28297,-100,4,2,3,60,0,0
28391,-100,4,2,2,60,0,0
29047,-100,4,2,3,60,0,0
29141,-100,4,2,2,60,0,0
31297,-100,4,2,3,60,0,0
31391,-100,4,2,2,60,0,0
32047,-100,4,2,3,60,0,0
32141,-100,4,2,2,60,0,0
32797,-100,4,2,3,60,0,0
32891,-100,4,2,2,60,0,0
36735,-66.6666666666667,4,2,2,60,0,0
37485,-66.6666666666667,4,2,88,20,0,0
37672,-66.6666666666667,4,2,2,20,0,0
38235,-66.6666666666667,4,2,88,22,0,0
38422,-66.6666666666667,4,2,2,22,0,0
38985,-66.6666666666667,4,2,88,25,0,0
39172,-66.6666666666667,4,2,2,25,0,0
39735,-66.6666666666667,4,2,88,28,0,0
39922,-66.6666666666667,4,2,2,28,0,0
40485,-66.6666666666667,4,2,88,30,0,0
40672,-66.6666666666667,4,2,2,30,0,0
41235,-66.6666666666667,4,2,88,32,0,0
41422,-66.6666666666667,4,2,2,32,0,0
41985,-66.6666666666667,4,2,88,35,0,0
42172,-66.6666666666667,4,2,2,35,0,0
42360,-66.6666666666667,4,2,88,35,0,0
42547,-66.6666666666667,4,2,2,40,0,0
42735,-100,4,2,2,60,0,0
48735,-133.333333333333,4,2,1,40,0,0
59610,-133.333333333333,4,2,1,5,0,0
59797,-133.333333333333,4,2,1,40,0,0
60547,-133.333333333333,4,2,1,5,0,0
60735,-100,4,2,2,50,0,0
72735,-100,4,2,2,60,0,0
73860,-100,4,2,3,60,0,0
74235,-100,4,2,2,60,0,0
76860,-100,4,2,3,60,0,0
77235,-100,4,2,2,60,0,0
79860,-100,4,2,3,60,0,0
80235,-100,4,2,2,60,0,0
83422,-100,4,2,3,60,0,0
83516,-100,4,2,2,60,0,0
83797,-100,4,2,3,60,0,0
83891,-100,4,2,2,60,0,0
84172,-100,4,2,3,60,0,0
84266,-100,4,2,2,60,0,0
88110,-100,4,2,3,60,0,0
88485,-100,4,2,2,60,0,0
88766,-100,4,2,3,60,0,0
88860,-100,4,2,2,60,0,0
89047,-100,4,2,3,60,0,0
89235,-100,4,2,2,60,0,0
90266,-100,4,2,3,60,0,0
90360,-100,4,2,2,60,0,0
90547,-100,4,2,3,60,0,0
90735,-100,4,2,2,60,0,0
93266,-100,4,2,3,60,0,0
93360,-100,4,2,2,60,0,0
93547,-100,4,2,3,60,0,0
93735,-100,4,2,2,60,0,0
94766,-100,4,2,3,60,0,0
94860,-100,4,2,2,60,0,0
95047,-100,4,2,3,60,0,0
95235,-100,4,2,2,40,0,0
97297,-100,4,2,3,40,0,0
97485,-100,4,2,2,40,0,0
98422,-100,4,2,3,40,0,0
98610,-100,4,2,2,40,0,0
100297,-100,4,2,3,40,0,0
100485,-100,4,2,2,40,0,0
101422,-100,4,2,3,40,0,0
101610,-100,4,2,2,40,0,0
102735,-100,4,2,2,60,0,0
105735,-100,4,2,2,70,0,0
107235,-100,4,2,2,72,0,0
107985,-100,4,2,2,75,0,0
108360,-100,4,2,2,78,0,0
108735,-100,4,2,2,80,0,0
110985,-100,4,2,2,60,0,1
111735,-100,4,2,2,80,0,0
114360,-100,4,2,2,60,0,1
114735,-100,4,2,2,80,0,0
116985,-100,4,2,2,60,0,1
117735,-100,4,2,2,80,0,0
119422,-46.7289719626168,4,2,2,80,0,0
119797,-100,4,2,2,80,0,0
119985,-46.7289719626168,4,2,2,80,0,0
120547,-100,4,2,2,80,0,0
122985,-100,4,2,2,60,0,1
123735,-100,4,2,2,80,0,0
126360,-100,4,2,2,60,0,1
126735,-100,4,2,2,80,0,0
128985,-100,4,2,2,60,0,1
129735,-100,4,2,2,80,0,0
131422,-46.7289719626168,4,2,2,80,0,0
131797,-100,4,2,2,80,0,0
131985,-46.7289719626168,4,2,2,80,0,0
132360,-100,4,2,2,80,0,0
132735,-100,4,2,2,60,0,0
133860,-100,4,2,3,60,0,0
134235,-100,4,2,2,60,0,0
136860,-100,4,2,3,60,0,0
137235,-100,4,2,2,60,0,0
139860,-100,4,2,3,60,0,0
140235,-100,4,2,2,60,0,0
143422,-100,4,2,3,60,0,0
143516,-100,4,2,2,60,0,0
143797,-100,4,2,3,60,0,0
143891,-100,4,2,2,60,0,0
144172,-100,4,2,3,60,0,0
144266,-100,4,2,2,60,0,0
148110,-100,4,2,3,60,0,0
148485,-100,4,2,2,60,0,0
148766,-100,4,2,3,60,0,0
148860,-100,4,2,2,60,0,0
149047,-100,4,2,3,60,0,0
149235,-100,4,2,2,60,0,0
150266,-100,4,2,3,60,0,0
150360,-100,4,2,2,60,0,0
150547,-100,4,2,3,60,0,0
150735,-100,4,2,2,60,0,0
153266,-100,4,2,3,60,0,0
153360,-100,4,2,2,60,0,0
153547,-100,4,2,3,60,0,0
153735,-100,4,2,2,60,0,0
154766,-100,4,2,3,60,0,0
154860,-100,4,2,2,60,0,0
155047,-100,4,2,3,60,0,0
155235,-100,4,2,2,60,0,0
156735,-100,4,2,2,40,0,0
157297,-100,4,2,3,40,0,0
157485,-100,4,2,2,40,0,0
158422,-100,4,2,3,40,0,0
158516,-100,4,2,2,40,0,0
160297,-100,4,2,3,40,0,0
160485,-100,4,2,2,40,0,0
161422,-100,4,2,3,40,0,0
161516,-100,4,2,2,40,0,0
162735,-100,4,2,2,60,0,0
165735,-100,4,2,2,70,0,0
167235,-100,4,2,2,72,0,0
167985,-100,4,2,2,75,0,0
168360,-100,4,2,2,78,0,0
168735,-66.6666666666667,4,2,2,80,0,0
169485,-66.6666666666667,4,2,88,30,0,0
169672,-66.6666666666667,4,2,2,30,0,0
170235,-66.6666666666667,4,2,88,28,0,0
170422,-66.6666666666667,4,2,2,28,0,0
170610,-66.6666666666667,4,2,88,28,0,0
170797,-66.6666666666667,4,2,2,28,0,0
170985,-66.6666666666667,4,2,88,25,0,0
171172,-66.6666666666667,4,2,2,25,0,0
171360,-66.6666666666667,4,2,88,25,0,0
171547,-66.6666666666667,4,2,2,25,0,0
171735,-66.6666666666667,4,2,88,25,0,0
171922,-66.6666666666667,4,2,2,25,0,0
172860,-66.6666666666667,4,2,88,22,0,0
173422,-66.6666666666667,4,2,2,22,0,0
173985,-66.6666666666667,4,2,88,20,0,0
174172,-66.6666666666667,4,2,2,20,0,0
174360,-66.6666666666667,4,2,88,20,0,0
174547,-66.6666666666667,4,2,2,20,0,0
174735,-66.6666666666667,4,2,88,18,0,0
174922,-66.6666666666667,4,2,2,18,0,0
175297,-66.6666666666667,4,2,88,18,0,0
175485,-66.6666666666667,4,2,2,18,0,0
175860,-66.6666666666667,4,2,88,18,0,0
176047,-66.6666666666667,4,2,2,18,0,0
176235,-66.6666666666667,4,2,88,15,0,0
176422,-66.6666666666667,4,2,2,15,0,0
176610,-66.6666666666667,4,2,88,15,0,0
176797,-66.6666666666667,4,2,2,15,0,0
176985,-66.6666666666667,4,2,88,12,0,0
177172,-66.6666666666667,4,2,2,12,0,0
177360,-66.6666666666667,4,2,88,12,0,0
177547,-66.6666666666667,4,2,2,12,0,0
177735,-66.6666666666667,4,2,88,10,0,0
177922,-66.6666666666667,4,2,2,10,0,0
178485,-66.6666666666667,4,2,88,10,0,0
178672,-66.6666666666667,4,2,2,10,0,0
179235,-66.6666666666667,4,2,88,10,0,0
179422,-66.6666666666667,4,2,2,10,0,0
179610,-66.6666666666667,4,2,88,12,0,0
179797,-66.6666666666667,4,2,2,12,0,0
179985,-66.6666666666667,4,2,88,15,0,0
180172,-66.6666666666667,4,2,2,15,0,0
180360,-66.6666666666667,4,2,88,18,0,0
180547,-66.6666666666667,4,2,2,5,0,0
180735,-100,4,2,3,20,0,0
181485,-100,4,2,40,10,0,0
182235,-100,4,2,40,8,0,0
182985,-100,4,2,40,5,0,0

[Colours]
Combo1 : 255,227,170
Combo2 : 97,41,22
Combo3 : 203,168,116
Combo4 : 230,93,44

[HitObjects]
96,368,641,6,0,L|88:312,1,56,0|4,0:0|0:0,0:0:0:0:
256,252,1110,1,0,0:0:0:0:
16,192,1485,2,0,L|8:24,1,168.000006408692,2|2,0:0|0:0,0:0:0:0:
256,80,2235,6,0,P|336:160|256:240,1,252.000009613037,2|0,0:0|0:0,0:0:0:0:
364,212,2891,1,2,0:0:0:0:
256,180,2985,2,0,P|176:260|256:340,1,252.000009613037,2|0,0:0|0:0,0:0:0:0:
496,284,3735,6,0,L|504:116,1,168.000006408692,2|2,0:0|0:0,0:0:0:0:
256,52,4485,2,0,L|132:36,2,126.000004806519,0|2|2,0:0|0:0|0:0,0:0:0:0:
96,296,5235,6,0,P|140:184|256:140,1,252.000009613037,2|0,0:0|0:0,0:0:0:0:
148,168,5891,1,2,0:0:0:0:
256,140,5985,2,0,P|371:182|417:295,1,252.000009613037,2|0,0:0|0:0,0:0:0:0:
96,352,6735,6,0,L|88:184,1,168.000006408692,2|0,0:0|0:0,0:0:0:0:
340,128,7485,1,2,0:0:0:0:
172,72,7860,2,0,L|256:68,1,84.0000032043458
416,12,8235,6,0,P|496:92|416:172,1,252.000009613037,2|0,0:0|0:0,0:0:0:0:
256,116,8985,2,0,P|371:158|417:271,1,252.000009613037,2|0,0:0|0:0,0:0:0:0:
96,328,9735,5,2,0:0:0:0:
256,192,9828,12,0,12172,0:0:0:0:
324,312,12360,6,0,L|336:272,2,42.0000016021729,2|0|0,0:0|0:0|0:0,0:0:0:0:
176,244,12641,1,2,0:0:0:0:
436,368,12735,6,0,P|508:300|436:228,1,224,6|0,0:0|0:0,0:0:0:0:
324,172,13297,1,2,0:0:0:0:
408,168,13391,1,0,0:0:0:0:
212,224,13485,2,0,P|140:156|212:84,1,224,8|0,0:0|0:0,0:0:0:0:
100,144,14047,1,2,0:0:0:0:
16,140,14141,1,0,0:0:0:0:
256,32,14235,6,0,P|360:60|404:160,1,224,2|0,0:0|0:0,0:0:0:0:
292,188,14797,1,2,0:0:0:0:
208,192,14891,1,0,0:0:0:0:
448,220,14985,2,0,P|404:320|300:348,1,224,8|0,0:0|0:0,0:0:0:0:
32,292,15735,6,0,L|256:276,1,224,2|0,0:0|0:0,0:0:0:0:
144,220,16297,1,2,0:0:0:0:
228,216,16391,1,0,0:0:0:0:
424,160,16485,1,8,0:0:0:0:
200,300,16860,2,0,P|220:192|312:136,1,224,2|2,0:0|0:0,0:0:0:0:
72,192,17422,6,0,L|64:80,1,112,8|0,0:0|0:0,0:0:0:0:
304,24,17797,1,2,0:0:0:0:
56,88,17985,2,0,P|64:172|124:224,1,168,8|0,0:0|0:0,0:0:0:0:
208,228,18360,1,2,0:0:0:0:
376,308,18547,1,8,0:0:0:0:
228,312,18641,1,8,0:0:0:0:
376,308,18735,6,0,P|468:252|488:144,1,224,6|2,0:0|0:0,0:0:0:0:
376,116,19297,1,2,0:0:0:0:
292,112,19391,1,0,0:0:0:0:
96,56,19485,2,0,L|320:40,1,224,8|0,0:0|0:0,0:0:0:0:
152,208,20047,2,0,L|144:96,1,112,2|2,0:0|0:0,0:0:0:0:
440,264,20422,6,0,L|328:272,1,112,2|0,0:0|0:0,0:0:0:0:
160,332,20797,1,2,0:0:0:0:
308,336,20891,1,2,0:0:0:0:
160,332,20985,2,0,P|180:224|272:168,1,224,8|2,0:0|0:0,0:0:0:0:
32,112,21547,1,8,0:0:0:0:
280,176,21735,6,0,P|372:120|392:12,1,224,2|0,0:0|0:0,0:0:0:0:
280,68,22297,1,2,0:0:0:0:
196,72,22391,1,0,0:0:0:0:
480,128,22485,1,8,0:0:0:0:
256,236,22860,2,0,L|32:252,1,224,2|2,0:0|0:0,0:0:0:0:
280,308,23422,5,8,0:0:0:0:
112,252,23610,2,0,L|104:140,1,112,2|2,0:0|0:0,0:0:0:0:
364,176,23985,2,0,L|372:64,1,112,10|2,0:0|0:0,0:0:0:0:
288,60,24266,1,0,0:0:0:0:
204,52,24360,1,8,0:0:0:0:
452,24,24547,1,8,0:0:0:0:
204,52,24735,6,0,P|132:120|204:192,1,224,6|0,0:0|0:0,0:0:0:0:
92,252,25297,1,2,0:0:0:0:
176,256,25391,1,0,0:0:0:0:
380,200,25485,2,0,P|452:268|380:340,1,224,8|0,0:0|0:0,0:0:0:0:
156,284,26235,5,2,0:0:0:0:
324,228,26422,2,0,L|332:116,1,112,2|0,0:0|0:0,0:0:0:0:
164,60,26797,1,2,0:0:0:0:
16,56,26891,1,2,0:0:0:0:
164,60,26985,2,0,P|268:88|312:188,1,224,8|2,0:0|0:0,0:0:0:0:
56,244,27547,1,8,0:0:0:0:
296,304,27735,6,0,L|308:136,1,168
224,132,28110,1,2,0:0:0:0:
392,76,28297,1,2,0:0:0:0:
476,80,28391,1,0,0:0:0:0:
280,136,28485,2,0,P|288:220|348:272,1,168,8|0,0:0|0:0,0:0:0:0:
432,276,28860,1,2,0:0:0:0:
264,300,29047,1,2,0:0:0:0:
180,304,29141,1,0,0:0:0:0:
376,248,29235,5,2,0:0:0:0:
136,192,29422,2,0,L|128:80,1,112,8|0,0:0|0:0,0:0:0:0:
296,24,29797,1,2,0:0:0:0:
56,136,29985,1,8,0:0:0:0:
64,192,30078,1,0,0:0:0:0:
96,236,30172,1,0,0:0:0:0:
144,260,30266,1,0,0:0:0:0:
348,308,30360,2,0,L|404:312,2,56,2|0|8,0:0|0:0|0:0,0:0:0:0:
200,360,30641,1,8,0:0:0:0:
356,316,30735,6,0,P|448:260|468:152,1,224,6|0,0:0|0:0,0:0:0:0:
356,96,31297,1,2,0:0:0:0:
272,92,31391,1,0,0:0:0:0:
76,36,31485,2,0,P|96:144|188:200,1,224,8|0,0:0|0:0,0:0:0:0:
76,256,32047,2,0,L|72:312,1,56,2|0,0:0|0:0,0:0:0:0:
272,336,32235,6,0,P|344:268|272:196,1,224,2|0,0:0|0:0,0:0:0:0:
384,140,32797,1,2,0:0:0:0:
236,136,32891,1,2,0:0:0:0:
384,140,32985,2,0,P|448:196|452:276,1,168,8|0,0:0|0:0,0:0:0:0:
352,280,33360,1,2,0:0:0:0:
112,336,33547,1,8,0:0:0:0:
352,280,33735,6,0,L|128:264,1,224,2|0,0:0|0:0,0:0:0:0:
240,208,34297,1,2,0:0:0:0:
324,204,34391,1,0,0:0:0:0:
128,148,34485,2,0,P|136:64|196:12,1,168,8|0,0:0|0:0,0:0:0:0:
296,8,34860,2,0,L|304:120,1,112,2|0,0:0|0:0,0:0:0:0:
136,176,35235,1,2,0:0:0:0:
376,232,35422,5,8,0:0:0:0:
208,288,35610,2,0,L|96:296,1,112,2|2,0:0|0:0,0:0:0:0:
392,352,35985,2,0,L|400:240,1,112,10|2,0:0|0:0,0:0:0:0:
232,184,36360,1,10,0:0:0:0:
84,180,36453,1,10,0:0:0:0:
232,184,36547,1,10,0:0:0:0:
380,188,36641,1,10,0:0:0:0:
88,24,36735,6,0,B|88:276|88:276|88:24|88:24|256:24|256:24|256:276|256:276|256:24|256:24|424:24|424:24|424:276|424:276|424:24|424:24|256:24|256:24|184:176|184:176|184:260|184:260|184:176|184:176|256:24|256:24|424:24|424:24|424:276|424:276|424:24|424:24|256:24|256:24|256:276|256:276|256:24|256:24|88:24|88:24|16:176|16:176|16:260|16:260|16:176|16:176|88:24|88:24|256:24|256:24|256:192|256:192|88:192|88:192|88:24,1,5208.00019866944,4|2,0:0|0:0,0:0:0:0:
424,24,42735,6,0,P|416:108|356:160,1,168,6|2,0:0|0:3,0:0:0:0:
256,188,43110,2,0,L|368:196,1,112,0|2,0:0|0:0,0:0:0:0:
128,252,43485,2,0,L|120:140,1,112,8|2,0:0|0:3,0:0:0:0:
232,84,43860,1,0,0:0:0:0:
64,28,44047,1,2,0:0:0:0:
304,196,44235,6,0,P|368:252|372:332,1,168,2|2,0:0|0:3,0:0:0:0:
288,360,44610,2,0,L|176:352,1,112,0|2,0:0|0:0,0:0:0:0:
416,296,44985,2,0,L|424:184,1,112,8|2,0:0|0:3,0:0:0:0:
312,128,45360,1,0,0:0:0:0:
480,72,45547,1,2,0:0:0:0:
240,128,45735,6,0,P|176:184|172:264,1,168,2|2,0:0|0:3,0:0:0:0:
256,292,46110,2,0,L|368:300,1,112,0|2,0:0|0:0,0:0:0:0:
128,356,46485,2,0,L|16:348,2,112,8|2|0,0:0|0:3|0:0,0:0:0:0:
296,300,47047,1,2,0:0:0:0:
56,244,47235,6,0,P|64:160|124:108,1,168,2|2,0:0|0:3,0:0:0:0:
224,80,47610,2,0,L|112:72,1,112,0|2,0:0|0:0,0:0:0:0:
352,16,47985,2,0,L|360:128,1,112,8|2,0:0|0:3,0:0:0:0:
192,184,48360,2,0,L|188:212,2,28,10|0|0,0:0|0:0|0:0,0:0:0:0:
340,240,48547,2,0,L|368:244,1,28,10|0,0:0|0:0,0:0:0:0:
256,296,48641,2,0,L|228:299,1,28,10|0,0:0|0:0,0:0:0:0:
340,352,48735,6,0,P|392:296|340:240,1,168.000006408692,4|2,0:0|0:0,0:0:0:0:
172,184,49485,1,0,0:0:0:0:
340,128,49860,1,2,0:0:0:0:
88,184,50235,6,0,P|8:104|88:24,1,252.000009613037,2|2,0:0|0:0,0:0:0:0:
196,52,50891,1,0,0:0:0:0:
88,80,50985,2,0,P|120:152|200:176,1,168.000006408692,2|0,0:0|0:0,0:0:0:0:
116,204,51547,1,0,0:0:0:0:
276,148,51735,6,0,P|391:190|437:303,1,252.000009613037,2|2,0:0|0:0,0:0:0:0:
328,332,52391,1,0,0:0:0:0:
436,360,52485,2,0,P|488:304|436:248,1,168.000006408692,2|0,0:0|0:0,0:0:0:0:
352,220,53047,1,0,0:0:0:0:
192,276,53235,6,0,L|184:192,1,84.0000032043458,2|0,0:0|0:0,0:0:0:0:
268,164,53610,2,0,L|276:80,1,84.0000032043458,2|0,0:0|0:0,0:0:0:0:
116,136,53985,1,2,0:0:0:0:
200,24,54172,1,0,0:0:0:0:
116,28,54266,1,0,0:0:0:0:
32,32,54360,2,0,L|24:116,1,84.0000032043458,2|0,0:0|0:0,0:0:0:0:
184,172,54735,6,0,P|264:196|296:268,1,168.000006408692,2|2,0:0|0:0,0:0:0:0:
128,324,55485,1,0,0:0:0:0:
296,380,55860,1,2,0:0:0:0:
44,324,56235,6,0,P|88:212|204:168,1,252.000009613037,2|0,0:0|0:0,0:0:0:0:
96,140,56891,1,0,0:0:0:0:
204,112,56985,2,0,P|284:136|316:208,1,168.000006408692,2|0,0:0|0:0,0:0:0:0:
232,236,57547,1,0,0:0:0:0:
392,152,57735,6,0,P|348:264|232:308,1,252.000009613037,2|0,0:0|0:0,0:0:0:0:
340,336,58391,1,0,0:0:0:0:
232,364,58485,2,0,P|152:340|120:268,1,168.000006408692,2|0,0:0|0:0,0:0:0:0:
372,212,59235,6,0,P|424:156|372:100,1,168.000006408692,2|0,0:0|0:0,0:0:0:0:
212,44,59797,2,0,B|192:64|180:92|180:132|212:164|256:168|256:168|300:172|328:204|328:232|332:260|300:292,1,336.000012817383,2|0,0:0|0:0,0:0:0:0:
16,348,60735,6,0,P|36:240|128:184,1,224,6|2,0:0|0:3,0:0:0:0:
368,128,61485,2,0,L|144:112,1,224,8|2,0:0|0:3,0:0:0:0:
384,56,62235,6,0,P|476:112|496:220,1,224,2|2,0:0|0:3,0:0:0:0:
384,248,62797,1,2,0:0:0:0:
300,220,62891,1,0,0:0:0:0:
384,192,62985,2,0,P|364:300|272:356,1,224,8|2,0:0|0:3,0:0:0:0:
384,328,63547,1,0,0:0:0:0:
144,300,63735,6,0,P|72:232|144:160,1,224,2|2,0:0|0:3,0:0:0:0:
256,132,64297,1,0,0:0:0:0:
340,104,64391,1,0,0:0:0:0:
256,132,64485,2,0,L|144:124,2,112,8|0|2,0:0|0:0|0:3,0:0:0:0:
424,188,65047,1,0,0:0:0:0:
256,132,65235,6,0,L|248:244,1,112,2|0,0:0|0:0,0:0:0:0:
360,300,65610,1,2,0:3:0:0:
192,356,65797,1,2,0:0:0:0:
360,300,65985,2,0,L|472:292,1,112,10|0,0:0|0:0,0:0:0:0:
388,264,66266,1,0,0:0:0:0:
304,260,66360,1,2,0:0:0:0:
472,204,66547,1,0,0:0:0:0:
232,316,66735,6,0,P|160:248|232:176,1,224,2|2,0:0|0:3,0:0:0:0:
472,120,67485,2,0,L|248:104,1,224,8|2,0:0|0:3,0:0:0:0:
20,48,68235,6,0,L|244:32,1,224,2|2,0:0|0:3,0:0:0:0:
132,144,68797,1,2,0:0:0:0:
216,172,68891,1,0,0:0:0:0:
132,200,68985,2,0,P|40:256|20:364,1,224,8|2,0:0|0:3,0:0:0:0:
132,336,69547,1,0,0:0:0:0:
372,308,69735,6,0,P|444:240|372:168,1,224,2|2,0:0|0:3,0:0:0:0:
260,140,70297,1,0,0:0:0:0:
176,112,70391,1,0,0:0:0:0:
260,140,70485,2,0,L|268:28,1,112,8|0,0:0|0:0,0:0:0:0:
100,196,70860,2,0,L|92:84,1,112,2|0,0:3|0:0,0:0:0:0:
332,252,71235,6,0,L|108:268,1,224,2|2,0:0|0:3,0:0:0:0:
276,328,71797,1,2,0:0:0:0:
108,384,71985,2,0,L|100:272,1,112,8|0,0:0|0:0,0:0:0:0:
268,216,72360,1,8,0:0:0:0:
28,160,72547,1,8,0:0:0:0:
276,224,72735,5,4,0:0:0:0:
320,200,72828,1,0,0:0:0:0:
352,160,72922,1,0,0:0:0:0:
360,112,73016,1,0,0:0:0:0:
352,64,73110,1,2,0:3:0:0:
320,24,73204,1,0,0:0:0:0:
276,0,73297,2,0,L|220:4,1,56
68,64,73485,5,8,0:0:0:0:
52,112,73579,1,0,0:0:0:0:
68,160,73673,1,0,0:0:0:0:
108,188,73766,1,0,0:0:0:0:
192,216,73860,2,0,L|248:220,1,56,2|0,0:0|0:0,0:0:0:0:
96,276,74047,2,0,L|40:280,1,56,2|0,0:0|0:0,0:0:0:0:
248,336,74235,6,0,P|352:308|396:208,1,224,2|2,0:0|0:3,0:0:0:0:
284,180,74797,1,2,0:0:0:0:
432,176,74891,1,2,0:0:0:0:
284,180,74985,2,0,L|276:68,1,112,8|0,0:0|0:0,0:0:0:0:
444,12,75360,2,0,L|332:4,1,112,2|0,0:0|0:0,0:0:0:0:
92,116,75735,6,0,L|316:100,1,224,6|2,0:0|0:3,0:0:0:0:
204,268,76297,2,0,L|200:212,1,56,2|0,0:0|0:0,0:0:0:0:
396,156,76485,2,0,P|468:224|396:296,1,224,8|2,0:0|0:0,0:0:0:0:
328,292,76953,1,0,0:0:0:0:
396,264,77047,1,2,0:0:0:0:
328,260,77141,1,0,0:0:0:0:
132,232,77235,6,0,P|60:164|132:92,1,224,2|2,0:0|0:3,0:0:0:0:
244,64,77797,1,0,0:0:0:0:
96,60,77891,1,0,0:0:0:0:
244,64,77985,2,0,L|356:72,1,112,8|0,0:0|0:0,0:0:0:0:
188,132,78360,2,0,L|180:244,1,112,2|0,0:0|0:0,0:0:0:0:
420,188,78735,5,6,0:0:0:0:
460,216,78828,1,0,0:0:0:0:
476,264,78922,1,0,0:0:0:0:
460,312,79016,1,0,0:0:0:0:
392,316,79110,1,2,0:3:0:0:
460,312,79203,1,0,0:0:0:0:
312,372,79297,1,0,0:0:0:0:
244,368,79391,1,0,0:0:0:0:
96,260,79485,5,8,0:0:0:0:
136,232,79578,1,0,0:0:0:0:
152,184,79672,1,0,0:0:0:0:
136,136,79766,1,0,0:0:0:0:
96,108,79860,1,2,0:0:0:0:
28,104,79953,1,0,0:0:0:0:
96,76,80047,1,2,0:0:0:0:
28,72,80141,1,0,0:0:0:0:
264,44,80235,6,0,P|368:72|412:172,1,224,2|2,0:0|0:3,0:0:0:0:
300,200,80797,1,2,0:0:0:0:
152,204,80891,1,2,0:0:0:0:
300,200,80985,2,0,L|308:312,1,112,8|0,0:0|0:0,0:0:0:0:
68,228,81360,2,0,L|60:340,1,112,2|0,0:0|0:0,0:0:0:0:
300,368,81735,6,0,P|256:268|152:240,1,224,6|2,0:0|0:3,0:0:0:0:
320,184,82297,1,2,0:0:0:0:
80,128,82485,2,0,L|84:72,1,56,8|0,0:0|0:0,0:0:0:0:
168,100,82672,2,0,L|172:44,1,56
256,72,82860,2,0,L|260:16,1,56,2|0,0:3|0:0,0:0:0:0:
80,128,83047,1,2,0:0:0:0:
320,184,83235,1,2,0:0:0:0:
208,240,83422,5,2,0:0:0:0:
140,244,83516,1,0,0:0:0:0:
208,240,83610,1,0,0:0:0:0:
320,296,83797,1,2,0:0:0:0:
468,296,83891,1,2,0:0:0:0:
320,296,83985,2,0,L|312:184,1,112,8|2,0:0|0:0,0:0:0:0:
396,180,84266,1,0,0:0:0:0:
480,176,84360,1,2,0:0:0:0:
312,120,84547,1,8,0:0:0:0:
164,116,84641,1,8,0:0:0:0:
312,120,84735,6,0,P|384:188|312:260,1,224,6|2,0:0|0:3,0:0:0:0:
144,316,85297,1,0,0:0:0:0:
384,372,85485,2,0,L|392:260,1,112,8|0,0:0|0:0,0:0:0:0:
224,204,85860,2,0,L|216:92,1,112,2|0,0:3|0:0,0:0:0:0:
456,36,86235,6,0,L|232:20,1,224,2|2,0:0|0:3,0:0:0:0:
120,132,86797,1,2,0:0:0:0:
268,136,86891,1,2,0:0:0:0:
120,132,86985,2,0,L|8:140,1,112,8|0,0:0|0:0,0:0:0:0:
176,252,87360,2,0,L|64:260,1,112,2|0,0:0|0:0,0:0:0:0:
304,372,87735,6,0,L|312:260,1,112,6|0,0:0|0:0,0:0:0:0:
144,204,88110,2,0,L|200:200,1,56,2|0,0:0|0:0,0:0:0:0:
396,144,88297,2,0,L|452:140,1,56,2|0,0:0|0:0,0:0:0:0:
256,196,88485,2,0,L|248:84,1,112,8|0,0:0|0:0,0:0:0:0:
332,56,88766,2,0,L|336:112,1,56,2|2,0:0|0:3,0:0:0:0:
168,168,89047,1,2,0:0:0:0:
480,224,89235,6,0,L|488:336,1,112,2|0,0:0|0:0,0:0:0:0:
320,364,89610,1,2,0:3:0:0:
208,308,89797,1,2,0:0:0:0:
356,304,89891,1,2,0:0:0:0:
208,308,89985,2,0,L|96:300,1,112,8|0,0:0|0:0,0:0:0:0:
180,272,90266,2,0,L|184:216,1,56,2|2,0:0|0:2,0:0:0:0:
16,160,90547,1,2,0:0:0:0:
256,104,90735,6,0,P|360:132|404:232,1,224,6|2,0:0|0:3,0:0:0:0:
236,288,91297,1,0,0:0:0:0:
476,344,91485,2,0,L|484:232,1,112,8|0,0:0|0:0,0:0:0:0:
316,176,91860,2,0,L|428:168,1,112,2|0,0:3|0:0,0:0:0:0:
188,280,92235,6,0,P|116:212|188:140,1,224,2|2,0:0|0:3,0:0:0:0:
76,84,92797,1,2,0:0:0:0:
224,80,92891,1,2,0:0:0:0:
76,84,92985,2,0,L|68:196,1,112,8|0,0:0|0:0,0:0:0:0:
152,200,93266,1,2,0:0:0:0:
236,204,93360,1,2,0:0:0:0:
68,260,93547,1,2,0:0:0:0:
308,316,93735,6,0,P|380:248|308:176,1,224,6|2,0:0|0:3,0:0:0:0:
196,120,94297,1,2,0:0:0:0:
280,116,94391,1,0,0:0:0:0:
476,60,94485,2,0,L|484:172,1,112,8|0,0:0|0:0,0:0:0:0:
400,176,94766,1,2,0:0:0:0:
316,180,94860,1,2,0:3:0:0:
148,240,95047,1,2,0:0:0:0:
316,296,95235,1,2,0:0:0:0:
76,352,95422,5,8,0:0:0:0:
60,304,95516,1,0,0:0:0:0:
76,256,95610,1,2,0:3:0:0:
116,228,95703,1,0,0:0:0:0:
200,200,95797,1,2,0:0:0:0:
52,172,95891,1,2,0:0:0:0:
200,200,95985,2,0,L|312:192,1,112,8|0,0:0|0:0,0:0:0:0:
316,164,96219,1,2,0:0:0:0:
188,108,96360,1,8,0:0:0:0:
184,80,96406,1,2,0:0:0:0:
312,24,96547,1,8,0:0:0:0:
164,20,96641,1,8,0:0:0:0:
312,24,96735,6,0,P|416:52|460:152,1,224,6|2,0:0|0:0,0:0:0:0:
292,208,97297,1,2,0:0:0:0:
32,264,97485,2,0,L|24:376,1,112,2|2,0:0|0:3,0:0:0:0:
192,320,97860,2,0,L|304:312,1,112,2|2,0:0|0:3,0:0:0:0:
136,256,98235,1,2,0:0:0:0:
376,200,98422,5,2,0:0:0:0:
264,140,98610,2,0,L|256:28,1,112,2|2,0:0|0:3,0:0:0:0:
496,84,98985,2,0,L|384:92,1,112,2|2,0:0|0:3,0:0:0:0:
216,148,99360,2,0,L|104:156,1,112,2|2,0:0|0:3,0:0:0:0:
344,212,99735,6,0,P|416:280|344:352,1,224,2|2,0:0|0:0,0:0:0:0:
232,324,100297,1,2,0:0:0:0:
488,296,100485,2,0,L|496:184,1,112,2|2,0:0|0:3,0:0:0:0:
328,128,100860,2,0,L|216:120,1,112,2|2,0:0|0:3,0:0:0:0:
384,64,101235,1,2,0:0:0:0:
144,12,101422,6,0,L|256:4,2,112,2|2|2,0:0|0:0|0:3,0:0:0:0:
312,124,101985,2,0,L|320:236,1,112,2|2,0:0|0:3,0:0:0:0:
152,292,102360,1,2,0:0:0:0:
392,348,102547,1,8,0:0:0:0:
152,292,102735,5,14,0:0:0:0:
264,236,102922,1,2,0:0:0:0:
268,180,103016,1,0,0:0:0:0:
272,124,103110,1,2,0:0:0:0:
32,68,103297,1,10,0:0:0:0:
144,60,103485,1,2,0:0:0:0:
256,52,103672,1,2,0:0:0:0:
16,180,103860,6,0,L|128:172,2,112,10|2|2,0:0|0:0|0:0,0:0:0:0:
256,284,104422,2,0,L|260:340,1,56,10|0,0:0|0:0,0:0:0:0:
176,368,104610,2,0,L|168:256,1,112,2|2,0:0|0:0,0:0:0:0:
408,200,104985,6,0,L|296:192,1,112,10|2,0:0|0:0,0:0:0:0:
56,136,105360,2,0,L|168:128,1,112,10|2,0:0|0:0,0:0:0:0:
464,72,105735,5,6,0:0:0:0:
480,120,105829,1,2,0:0:0:0:
464,168,105923,1,2,0:0:0:0:
424,196,106016,1,2,0:0:0:0:
340,200,106110,1,10,0:0:0:0:
424,196,106203,1,2,0:0:0:0:
228,256,106297,6,0,L|224:200,1,56,2|2,0:0|0:0,0:0:0:0:
308,284,106485,2,0,L|312:340,1,56,10|2,0:0|0:0,0:0:0:0:
228,368,106672,1,2,0:0:0:0:
312,368,106766,1,2,0:0:0:0:
116,340,106860,5,10,0:0:0:0:
100,292,106954,1,2,0:0:0:0:
116,244,107048,1,2,0:0:0:0:
156,216,107141,1,2,0:0:0:0:
304,160,107235,1,6,0:0:0:0:
64,104,107422,5,10,0:0:0:0:
60,160,107516,1,2,0:0:0:0:
56,216,107610,1,2,0:0:0:0:
224,272,107797,1,2,0:0:0:0:
464,328,107985,6,0,L|472:216,1,112,14|2,0:0|0:0,0:0:0:0:
304,160,108360,1,14,0:0:0:0:
156,156,108453,1,10,0:0:0:0:
304,160,108547,1,10,0:0:0:0:
156,156,108641,1,10,0:0:0:0:
400,100,108735,6,0,P|472:168|400:240,1,224,4|0,0:0|0:0,0:0:0:0:
288,296,109297,1,0,0:0:0:0:
380,300,109391,1,0,0:0:0:0:
176,356,109485,5,8,0:0:0:0:
136,328,109578,1,0,0:0:0:0:
120,280,109672,1,0,0:0:0:0:
136,232,109766,1,0,0:0:0:0:
228,204,109860,1,0,0:0:0:0:
268,176,109953,1,0,0:0:0:0:
284,128,110047,1,0,0:0:0:0:
268,80,110141,1,0,0:0:0:0:
64,52,110235,6,0,L|120:56,1,56,2|0,0:0|0:0,0:0:0:0:
212,112,110422,2,0,L|156:116,1,56
64,172,110610,2,0,L|60:116,1,56
256,228,110797,2,0,L|260:172,1,56,2|0,0:0|0:0,0:0:0:0:
456,284,110985,5,8,0:3:0:0:
216,312,111172,1,8,0:3:0:0:
456,340,111360,1,8,0:3:0:0:
304,344,111453,1,8,0:3:0:0:
456,340,111547,1,8,0:3:0:0:
216,312,111735,6,0,P|144:244|216:172,1,224,6|0,0:0|0:0,0:0:0:0:
384,116,112297,1,2,0:0:0:0:
144,60,112485,5,8,0:0:0:0:
128,108,112579,1,0,0:0:0:0:
144,156,112673,1,0,0:0:0:0:
184,184,112766,1,0,0:0:0:0:
252,188,112860,1,0,0:0:0:0:
184,184,112953,1,0,0:0:0:0:
384,216,113047,6,0,L|388:272,1,56,2|0,0:0|0:0,0:0:0:0:
296,300,113235,2,0,L|292:356,1,56,2|0,0:0|0:0,0:0:0:0:
492,384,113422,5,8,0:0:0:0:
480,336,113516,1,0,0:0:0:0:
444,300,113610,1,0,0:0:0:0:
396,288,113703,1,0,0:0:0:0:
304,260,113797,1,2,0:0:0:0:
452,232,113891,1,2,0:0:0:0:
304,260,113985,6,0,L|192:252,1,112,10|2,0:0|0:0,0:0:0:0:
360,168,114360,1,8,0:3:0:0:
212,164,114453,1,8,0:3:0:0:
64,160,114547,1,8,0:3:0:0:
304,76,114735,6,0,P|408:104|452:204,1,224,6|0,0:0|0:0,0:0:0:0:
340,260,115297,1,0,0:0:0:0:
248,264,115391,1,0,0:0:0:0:
452,376,115485,5,8,0:0:0:0:
440,328,115579,1,0,0:0:0:0:
404,292,115673,1,0,0:0:0:0:
356,280,115766,1,0,0:0:0:0:
264,224,115860,1,0,0:0:0:0:
216,212,115953,1,0,0:0:0:0:
180,176,116047,1,0,0:0:0:0:
168,128,116141,1,0,0:0:0:0:
372,72,116235,6,0,L|376:128,1,56,2|0,0:0|0:0,0:0:0:0:
284,156,116422,2,0,L|284:212,1,56
192,240,116610,2,0,L|188:296,1,56
384,272,116797,2,0,L|328:276,1,56,2|0,0:0|0:0,0:0:0:0:
132,360,116985,5,8,0:3:0:0:
372,332,117172,1,8,0:3:0:0:
132,360,117360,1,8,0:3:0:0:
280,364,117453,1,8,0:3:0:0:
132,360,117547,1,8,0:3:0:0:
372,332,117735,6,0,P|328:232|224:204,1,224,6|0,0:0|0:0,0:0:0:0:
392,148,118297,1,2,0:0:0:0:
152,92,118485,5,8,0:0:0:0:
136,140,118579,1,0,0:0:0:0:
152,188,118673,1,0,0:0:0:0:
192,216,118766,1,0,0:0:0:0:
100,244,118860,2,0,L|96:300,1,56
300,244,119047,6,0,L|244:248,1,56,2|0,0:0|0:0,0:0:0:0:
152,304,119235,2,0,L|208:308,1,56,2|0,0:0|0:0,0:0:0:0:
412,368,119422,6,0,B|172:360|172:360|164:240,1,359.519989028321,4|0,0:0|0:0,0:0:0:0:
256,212,119797,2,0,L|260:156,1,56,2|2,0:0|0:0,0:0:0:0:
108,100,119985,6,0,L|348:92,2,239.679992685547,4|4|4,0:0|0:0|0:0,0:0:0:0:
408,36,120547,1,8,0:0:0:0:
260,32,120641,1,8,0:0:0:0:
408,36,120735,6,0,L|416:148,1,112,6|0,0:0|0:0,0:0:0:0:
248,204,121110,1,8,0:0:0:0:
360,288,121297,1,0,0:0:0:0:
452,292,121391,1,0,0:0:0:0:
248,376,121485,5,2,0:0:0:0:
208,348,121578,1,0,0:0:0:0:
192,300,121672,1,0,0:0:0:0:
208,252,121766,1,0,0:0:0:0:
356,196,121860,2,0,L|352:140,1,56,8|0,0:0|0:0,0:0:0:0:
260,168,122047,2,0,L|256:112,1,56
408,56,122235,5,2,0:0:0:0:
476,52,122328,1,0,0:0:0:0:
408,56,122422,1,0,0:0:0:0:
260,28,122516,1,2,0:0:0:0:
408,56,122610,2,0,L|416:168,1,112,8|0,0:0|0:0,0:0:0:0:
348,172,122891,1,0,0:0:0:0:
200,228,122985,5,8,0:3:0:0:
440,256,123172,1,8,0:3:0:0:
200,284,123360,1,8,0:3:0:0:
52,288,123453,1,8,0:3:0:0:
200,284,123547,1,8,0:3:0:0:
440,256,123735,6,0,L|448:368,1,112,6|0,0:0|0:0,0:0:0:0:
356,340,124016,1,0,0:0:0:0:
264,312,124110,2,0,L|376:304,1,112,8|0,0:0|0:0,0:0:0:0:
136,248,124485,5,2,0:0:0:0:
148,200,124579,1,0,0:0:0:0:
184,164,124673,1,0,0:0:0:0:
232,152,124766,1,0,0:0:0:0:
380,96,124860,1,8,0:0:0:0:
312,92,124953,1,0,0:0:0:0:
244,88,125047,1,0,0:0:0:0:
176,84,125141,1,0,0:0:0:0:
324,28,125235,5,2,0:0:0:0:
392,24,125328,1,0,0:0:0:0:
324,28,125422,1,0,0:0:0:0:
472,88,125516,1,2,0:0:0:0:
324,148,125610,2,0,L|212:156,1,112,8|0,0:0|0:0,0:0:0:0:
280,184,125891,1,0,0:0:0:0:
132,212,125985,6,0,L|124:324,1,112,2|0,0:0|0:0,0:0:0:0:
292,352,126360,1,8,0:3:0:0:
440,356,126453,1,8,0:3:0:0:
292,352,126547,1,8,0:3:0:0:
52,296,126735,6,0,L|44:184,1,112,6|0,0:0|0:0,0:0:0:0:
212,128,127110,1,8,0:0:0:0:
324,44,127297,1,0,0:0:0:0:
232,40,127391,1,0,0:0:0:0:
28,96,127485,5,2,0:0:0:0:
12,144,127579,1,0,0:0:0:0:
28,192,127673,1,0,0:0:0:0:
68,220,127766,1,0,0:0:0:0:
216,276,127860,1,8,0:0:0:0:
284,280,127953,1,0,0:0:0:0:
216,308,128047,1,0,0:0:0:0:
284,312,128141,1,0,0:0:0:0:
136,368,128235,5,2,0:0:0:0:
68,364,128328,1,0,0:0:0:0:
136,368,128422,1,0,0:0:0:0:
284,340,128516,1,2,0:0:0:0:
136,368,128610,2,0,L|128:256,1,112,8|0,0:0|0:0,0:0:0:0:
196,252,128891,1,0,0:0:0:0:
344,196,128985,5,8,0:3:0:0:
104,140,129172,1,8,0:3:0:0:
344,196,129360,1,8,0:3:0:0:
492,192,129453,1,8,0:3:0:0:
344,196,129547,1,8,0:3:0:0:
104,140,129735,6,0,L|96:252,1,112,6|2,0:0|0:0,0:0:0:0:
188,256,130016,1,0,0:0:0:0:
336,312,130110,2,0,L|224:320,1,112,2|2,0:0|0:0,0:0:0:0:
464,376,130485,6,0,L|468:320,1,56,10|0,0:0|0:0,0:0:0:0:
376,292,130672,1,2,0:0:0:0:
468,264,130766,1,0,0:0:0:0:
264,208,130860,1,2,0:0:0:0:
196,204,130953,1,0,0:0:0:0:
264,208,131047,1,2,0:0:0:0:
412,180,131141,1,2,0:0:0:0:
264,208,131235,1,6,0:0:0:0:
96,40,131422,6,0,B|336:48|336:48|344:168,1,359.519989028321,4|0,0:0|0:0,0:0:0:0:
196,196,131797,2,0,L|192:252,1,56,6|2,0:0|0:0,0:0:0:0:
344,280,131985,6,0,L|104:288,1,239.679992685547,4|4,0:0|0:0,0:0:0:0:
344,344,132360,1,8,0:0:0:0:
196,348,132453,1,8,0:0:0:0:
344,344,132547,1,8,0:0:0:0:
492,340,132641,1,8,0:0:0:0:
228,288,132735,5,4,0:0:0:0:
184,264,132828,1,0,0:0:0:0:
152,224,132922,1,0,0:0:0:0:
144,176,133016,1,0,0:0:0:0:
152,128,133110,1,2,0:3:0:0:
184,88,133204,1,0,0:0:0:0:
228,64,133297,2,0,L|284:68,1,56
436,124,133485,5,8,0:0:0:0:
452,172,133579,1,0,0:0:0:0:
436,220,133673,1,0,0:0:0:0:
396,248,133766,1,0,0:0:0:0:
312,276,133860,2,0,L|256:280,1,56,2|0,0:0|0:0,0:0:0:0:
408,336,134047,2,0,L|352:340,1,56,2|0,0:0|0:0,0:0:0:0:
156,368,134235,6,0,P|84:300|156:228,1,224,2|2,0:0|0:3,0:0:0:0:
268,200,134797,1,2,0:0:0:0:
120,196,134891,1,2,0:0:0:0:
268,200,134985,2,0,L|380:192,1,112,8|0,0:0|0:0,0:0:0:0:
212,136,135360,2,0,L|204:24,1,112,2|0,0:0|0:0,0:0:0:0:
456,80,135735,6,0,P|412:180|308:208,1,224,6|2,0:0|0:3,0:0:0:0:
420,264,136297,1,2,0:0:0:0:
352,268,136391,1,0,0:0:0:0:
156,152,136485,2,0,P|52:180|8:280,1,224,8|2,0:0|0:0,0:0:0:0:
76,284,136953,1,0,0:0:0:0:
8,312,137047,1,2,0:0:0:0:
76,316,137141,1,0,0:0:0:0:
272,372,137235,6,0,P|344:304|272:232,1,224,2|2,0:0|0:3,0:0:0:0:
160,204,137797,1,2,0:0:0:0:
308,200,137891,1,2,0:0:0:0:
160,204,137985,2,0,L|152:92,1,112,8|0,0:0|0:0,0:0:0:0:
320,36,138360,2,0,L|432:44,1,112,2|0,0:0|0:0,0:0:0:0:
192,156,138735,5,6,0:0:0:0:
152,184,138828,1,0,0:0:0:0:
136,232,138922,1,0,0:0:0:0:
152,280,139016,1,0,0:0:0:0:
236,308,139110,2,0,L|240:364,1,56,2|0,0:3|0:0,0:0:0:0:
92,308,139297,1,2,0:0:0:0:
160,304,139391,1,0,0:0:0:0:
308,248,139485,5,8,0:0:0:0:
268,220,139578,1,0,0:0:0:0:
252,172,139672,1,0,0:0:0:0:
268,124,139766,1,0,0:0:0:0:
308,96,139860,1,2,0:0:0:0:
376,92,139953,1,0,0:0:0:0:
308,64,140047,1,2,0:0:0:0:
376,60,140141,1,0,0:0:0:0:
168,32,140235,6,0,P|64:60|20:160,1,224,2|2,0:0|0:3,0:0:0:0:
132,188,140797,1,2,0:0:0:0:
280,192,140891,1,2,0:0:0:0:
132,188,140985,2,0,L|124:300,1,112,8|0,0:0|0:0,0:0:0:0:
292,356,141360,2,0,L|180:364,1,112,2|0,0:0|0:0,0:0:0:0:
420,308,141735,6,0,P|376:208|272:180,1,224,6|2,0:0|0:3,0:0:0:0:
104,124,142297,1,2,0:0:0:0:
344,68,142485,2,0,L|288:64,1,56,8|0,0:0|0:0,0:0:0:0:
204,8,142672,2,0,L|260:4,1,56
344,68,142860,2,0,L|288:64,1,56,2|0,0:3|0:0,0:0:0:0:
104,124,143047,1,2,0:0:0:0:
344,180,143235,5,2,0:0:0:0:
232,236,143422,1,2,0:0:0:0:
300,240,143516,1,0,0:0:0:0:
232,236,143610,1,2,0:3:0:0:
400,296,143797,1,2,0:0:0:0:
252,300,143891,1,0,0:0:0:0:
400,296,143985,2,0,L|408:184,1,112,8|2,0:0|0:0,0:0:0:0:
324,180,144266,1,0,0:0:0:0:
240,176,144360,1,2,0:3:0:0:
72,120,144547,1,8,0:0:0:0:
220,116,144641,1,8,0:0:0:0:
72,120,144735,6,0,P|0:188|72:260,1,224,6|2,0:0|0:3,0:0:0:0:
240,288,145297,1,0,0:0:0:0:
480,344,145485,2,0,L|488:232,1,112,8|0,0:0|0:0,0:0:0:0:
320,176,145860,2,0,L|432:168,1,112,2|0,0:3|0:0,0:0:0:0:
192,112,146235,6,0,P|88:140|44:240,1,224,2|2,0:0|0:3,0:0:0:0:
156,296,146797,1,2,0:0:0:0:
304,300,146891,1,2,0:0:0:0:
156,296,146985,2,0,L|268:288,1,112,8|0,0:0|0:0,0:0:0:0:
100,232,147360,2,0,L|92:120,1,112,2|0,0:0|0:0,0:0:0:0:
332,64,147735,6,0,L|220:56,1,112,6|0,0:0|0:0,0:0:0:0:
388,112,148110,2,0,L|392:168,1,56,2|0,0:0|0:0,0:0:0:0:
196,196,148297,2,0,L|192:252,1,56,2|0,0:0|0:0,0:0:0:0:
388,280,148485,2,0,L|276:288,1,112,8|0,0:0|0:0,0:0:0:0:
192,316,148766,2,0,L|188:372,1,56,2|2,0:0|0:3,0:0:0:0:
356,344,149047,1,0,0:0:0:0:
116,316,149235,6,0,L|108:204,1,112,2|0,0:0|0:0,0:0:0:0:
276,148,149610,1,2,0:3:0:0:
164,92,149797,1,2,0:0:0:0:
16,88,149891,1,2,0:0:0:0:
164,92,149985,2,0,L|276:84,1,112,8|0,0:0|0:0,0:0:0:0:
384,56,150266,2,0,L|388:0,1,56,2|2,0:0|0:0,0:0:0:0:
220,84,150547,1,2,0:0:0:0:
460,168,150735,6,0,P|416:268|312:296,1,224,6|2,0:0|0:3,0:0:0:0:
480,352,151297,1,2,0:0:0:0:
240,240,151485,2,0,L|232:128,1,112,8|0,0:0|0:0,0:0:0:0:
400,184,151860,2,0,L|408:72,1,112,2|0,0:3|0:0,0:0:0:0:
168,16,152235,6,0,L|392:0,1,224,2|2,0:0|0:3,0:0:0:0:
280,60,152797,1,2,0:0:0:0:
132,64,152891,1,2,0:0:0:0:
280,60,152985,2,0,L|288:172,1,112,8|0,0:0|0:0,0:0:0:0:
180,200,153266,1,2,0:0:0:0:
264,204,153360,1,2,0:0:0:0:
432,284,153547,1,2,0:0:0:0:
192,340,153735,6,0,P|120:272|192:200,1,224,6|2,0:0|0:3,0:0:0:0:
304,144,154297,1,2,0:0:0:0:
220,140,154391,1,0,0:0:0:0:
72,84,154485,2,0,L|184:76,1,112,8|0,0:0|0:0,0:0:0:0:
100,48,154766,1,2,0:0:0:0:
184,20,154860,1,2,0:3:0:0:
352,76,155047,1,2,0:0:0:0:
184,136,155235,1,2,0:0:0:0:
424,192,155422,5,8,0:0:0:0:
440,240,155516,1,0,0:0:0:0:
424,288,155610,1,2,0:3:0:0:
384,316,155703,1,0,0:0:0:0:
300,344,155797,1,2,0:0:0:0:
448,372,155891,1,2,0:0:0:0:
300,344,155985,2,0,L|188:336,1,112,8|0,0:0|0:0,0:0:0:0:
192,308,156219,1,2,0:0:0:0:
320,252,156360,1,8,0:0:0:0:
324,224,156406,1,2,0:0:0:0:
196,168,156547,1,8,0:0:0:0:
48,164,156641,1,8,0:0:0:0:
196,168,156735,6,0,L|308:160,1,112,6|0,0:0|0:0,0:0:0:0:
224,132,157016,2,0,L|220:76,1,56,2|2,0:3|0:0,0:0:0:0:
388,20,157297,1,2,0:0:0:0:
136,104,157485,2,0,L|24:112,1,112,2|2,0:0|0:3,0:0:0:0:
192,196,157860,2,0,L|304:204,1,112,2|2,0:0|0:3,0:0:0:0:
136,288,158235,1,2,0:0:0:0:
376,372,158422,6,0,L|380:316,1,56,2|0,0:0|0:0,0:0:0:0:
296,260,158610,2,0,L|184:252,1,112,2|2,0:0|0:3,0:0:0:0:
424,196,158985,2,0,L|432:84,1,112,2|2,0:0|0:3,0:0:0:0:
264,28,159360,2,0,L|376:20,1,112,2|2,0:0|0:3,0:0:0:0:
120,48,159735,6,0,L|112:160,1,112,2|0,0:0|0:0,0:0:0:0:
196,188,160016,2,0,L|200:244,1,56,2|2,0:3|0:0,0:0:0:0:
32,300,160297,1,2,0:0:0:0:
272,356,160485,2,0,L|384:348,1,112,2|2,0:0|0:3,0:0:0:0:
216,264,160860,2,0,L|328:256,1,112,2|2,0:0|0:3,0:0:0:0:
496,172,161235,1,2,0:0:0:0:
256,88,161422,6,0,L|252:144,1,56,2|0,0:0|0:0,0:0:0:0:
336,32,161610,2,0,L|224:24,1,112,2|2,0:0|0:3,0:0:0:0:
56,108,161985,2,0,L|168:116,1,112,2|2,0:0|0:3,0:0:0:0:
336,200,162360,1,2,0:0:0:0:
96,284,162547,1,8,0:0:0:0:
392,368,162735,5,6,0:0:0:0:
280,312,162922,1,2,0:0:0:0:
336,308,163016,1,0,0:0:0:0:
392,304,163110,1,2,0:0:0:0:
152,248,163297,2,0,L|144:136,1,112,10|2,0:0|0:0,0:0:0:0:
256,80,163672,1,2,0:0:0:0:
16,28,163860,6,0,L|8:140,1,112,10|2,0:0|0:0,0:0:0:0:
120,196,164235,1,2,0:0:0:0:
388,252,164422,1,10,0:0:0:0:
304,256,164516,1,0,0:0:0:0:
220,316,164610,2,0,L|332:324,1,112,2|2,0:0|0:0,0:0:0:0:
92,380,164985,2,0,L|84:268,1,112,10|2,0:0|0:0,0:0:0:0:
324,212,165360,2,0,L|332:100,1,112,10|2,0:0|0:0,0:0:0:0:
36,44,165735,5,6,0:0:0:0:
20,92,165829,1,2,0:0:0:0:
36,140,165923,1,2,0:0:0:0:
76,168,166016,1,2,0:0:0:0:
160,172,166110,1,10,0:0:0:0:
76,168,166203,1,2,0:0:0:0:
272,228,166297,6,0,L|276:284,1,56,2|2,0:0|0:0,0:0:0:0:
192,312,166485,1,10,0:0:0:0:
276,340,166578,1,2,0:0:0:0:
192,312,166672,2,0,L|188:256,1,56,2|2,0:0|0:0,0:0:0:0:
384,200,166860,5,10,0:0:0:0:
452,204,166953,1,2,0:0:0:0:
384,200,167047,1,2,0:0:0:0:
316,196,167141,1,2,0:0:0:0:
464,140,167235,1,6,0:0:0:0:
224,224,167422,5,10,0:0:0:0:
220,168,167516,1,2,0:0:0:0:
216,112,167610,1,2,0:0:0:0:
384,56,167797,1,2,0:0:0:0:
144,140,167985,6,0,L|136:252,1,112,14|2,0:0|0:0,0:0:0:0:
304,336,168360,1,14,0:0:0:0:
452,332,168453,1,10,0:0:0:0:
304,336,168547,1,10,0:0:0:0:
156,340,168641,1,10,0:0:0:0:
424,24,168735,6,0,B|424:192|424:192|424:24|424:24|312:148|312:148|480:148|480:148|480:316|480:316|480:148|480:148|368:272|368:272|200:272|200:272|200:104|200:104|312:228|312:228|312:60|312:60|144:60|144:60|144:228|144:228|312:228|312:228|312:60|312:60|144:60|144:60|144:228|144:228|256:104|256:104|256:272|256:272|368:148|368:148|368:320|368:320|200:320|200:320|368:320|368:320|200:320|200:320|128:168|128:168|128:84|128:84|128:168|128:168|200:320|200:320|368:320|368:320|368:152|368:152|200:152|200:152|200:320|200:320|368:320|368:320|480:196|480:196|368:320|368:320|200:320|200:320|200:152|200:152|312:280|312:280|144:280|144:280|144:112|144:112|312:112|312:112|384:264|384:264|384:348|384:348|384:264|384:264|312:112|312:112|144:112|144:112|72:264|72:264|72:348|72:348|72:264|72:264|144:112|144:112|312:112|312:112|312:280|312:280|312:112|312:112|200:236|200:236|368:236|368:236|368:68|368:68|368:236|368:236|256:112|256:112|88:112|88:112|88:280|88:280|200:152|200:152|200:320|200:320|312:196|312:196|312:364|312:364|424:240|424:240|424:72,1,10584.0004037476,4|0,0:0|0:0,0:0:0:0:
184,132,180735,6,0,L|180:104,2,28,2|2|2,0:0|0:0|0:0,0:0:0:0:
256,192,180922,12,0,183735,0:0:0:0:
