osu file format v14

[General]
AudioFilename: audio.mp3
AudioLeadIn: 0
PreviewTime: 72641
Countdown: 0
SampleSet: Soft
StackLeniency: 0.7
Mode: 2
LetterboxInBreaks: 0
WidescreenStoryboard: 1

[Editor]
Bookmarks: 735,12735,36735,48735,60735,72735,96735,108735,120735,132735,156735,168735,180735
DistanceSpacing: 0.9
BeatDivisor: 8
GridSize: 32
TimelineZoom: 2.5

[Metadata]
Title:Fallen Angel
TitleUnicode:Fallen Angel
Artist:HyuN feat. JeeE
ArtistUnicode:HyuN feat. JeeE
Creator:autofanboy
Version:Jemzuu's Overdose
Source:osu!
Tags:hyunesis ft. FA featured artist Mappers' Guild Video Game Korean AFB alienflybot AJamez Jemzuu Spectator Nelly Daletto
BeatmapID:2587187
BeatmapSetID:1141049

[Difficulty]
HPDrainRate:6
CircleSize:4.5
OverallDifficulty:9.3
ApproachRate:9.3
SliderMultiplier:2.14
SliderTickRate:2

[Events]
//Background and Video events
0,0,"Angel.jpg",0,0
//Break Periods
2,36935,42181
//Storyboard Layer 0 (Background)
//Storyboard Layer 1 (Fail)
//Storyboard Layer 2 (Pass)
//Storyboard Layer 3 (Foreground)
//Storyboard Layer 4 (Overlay)
//Storyboard Sound Samples

[TimingPoints]
735,375,4,2,1,40,1,0
9735,-100,4,2,1,40,0,0
9922,-100,4,2,1,30,0,0
10110,-100,4,2,1,22,0,0
10297,-100,4,2,1,16,0,0
10485,-100,4,2,1,12,0,0
10672,-100,4,2,1,18,0,0
10860,-100,4,2,1,26,0,0
11000,-100,4,2,1,36,0,0
11235,-100,4,2,1,48,0,0
11610,-100,4,2,1,46,0,0
11703,-100,4,2,1,44,0,0
11797,-100,4,2,1,42,0,0
11891,-100,4,2,1,40,0,0
11985,-100,4,2,1,38,0,0
12078,-100,4,2,1,36,0,0
12172,-100,4,2,1,5,0,0
12360,-100,4,2,2,40,0,0
12735,-100,4,2,2,60,0,0
13297,-100,4,2,3,60,0,0
13391,-100,4,2,2,60,0,0
14047,-100,4,2,3,60,0,0
14141,-100,4,2,2,60,0,0
14797,-100,4,2,3,60,0,0
14891,-100,4,2,2,60,0,0
16297,-100,4,2,3,60,0,0
16391,-100,4,2,2,60,0,0
19297,-100,4,2,3,60,0,0
19391,-100,4,2,2,60,0,0
20422,-100,4,2,3,60,0,0
20610,-100,4,2,2,60,0,0
20797,-100,4,2,3,60,0,0
20891,-100,4,2,2,60,0,0
22297,-100,4,2,3,60,0,0
22391,-100,4,2,2,60,0,0
25297,-100,4,2,3,60,0,0
25391,-100,4,2,2,60,0,0
26422,-100,4,2,3,60,0,0
26610,-100,4,2,2,60,0,0
28297,-100,4,2,3,60,0,0
28391,-100,4,2,2,60,0,0
29047,-100,4,2,3,60,0,0
29141,-100,4,2,2,60,0,0
31297,-100,4,2,3,60,0,0
31391,-100,4,2,2,60,0,0
32047,-100,4,2,3,60,0,0
32141,-100,4,2,2,60,0,0
32797,-100,4,2,3,60,0,0
32891,-100,4,2,2,60,0,0
36735,-100,4,2,2,60,0,0
42735,-100,4,2,2,60,0,0
48735,-100,4,2,1,40,0,0
59610,-100,4,2,1,5,0,0
59797,-100,4,2,1,40,0,0
60547,-100,4,2,1,5,0,0
60735,-100,4,2,2,50,0,0
72735,-100,4,2,2,60,0,0
73860,-100,4,2,3,60,0,0
74235,-100,4,2,2,60,0,0
76860,-100,4,2,3,60,0,0
77235,-100,4,2,2,60,0,0
79860,-100,4,2,3,60,0,0
80235,-100,4,2,2,60,0,0
83422,-100,4,2,3,60,0,0
83516,-100,4,2,2,60,0,0
83797,-100,4,2,3,60,0,0
83891,-100,4,2,2,60,0,0
84172,-100,4,2,3,60,0,0
84266,-100,4,2,2,60,0,0
88110,-100,4,2,3,60,0,0
88485,-100,4,2,2,60,0,0
88766,-100,4,2,3,60,0,0
88860,-100,4,2,2,60,0,0
89047,-100,4,2,3,60,0,0
89235,-100,4,2,2,60,0,0
90266,-100,4,2,3,60,0,0
90360,-100,4,2,2,60,0,0
90547,-100,4,2,3,60,0,0
90735,-100,4,2,2,60,0,0
93266,-100,4,2,3,60,0,0
93360,-100,4,2,2,60,0,0
93547,-100,4,2,3,60,0,0
93735,-100,4,2,2,60,0,0
94766,-100,4,2,3,60,0,0
94860,-100,4,2,2,60,0,0
95047,-100,4,2,3,60,0,0
95235,-100,4,2,2,40,0,0
97297,-100,4,2,3,40,0,0
97485,-100,4,2,2,40,0,0
98422,-100,4,2,3,40,0,0
98610,-100,4,2,2,40,0,0
100297,-100,4,2,3,40,0,0
100485,-100,4,2,2,40,0,0
101422,-100,4,2,3,40,0,0
101610,-100,4,2,2,40,0,0
102735,-100,4,2,2,60,0,0
105735,-100,4,2,2,70,0,0
107235,-100,4,2,2,72,0,0
107985,-100,4,2,2,75,0,0
108360,-100,4,2,2,78,0,0
108735,-100,4,2,2,80,0,0
110985,-100,4,2,2,60,0,1
111735,-100,4,2,2,80,0,0
114360,-100,4,2,2,60,0,1
114735,-100,4,2,2,80,0,0
116985,-100,4,2,2,60,0,1
117735,-100,4,2,2,80,0,0
119422,-100,4,2,2,80,0,0
119797,-100,4,2,2,80,0,0
119985,-100,4,2,2,80,0,0
120547,-100,4,2,2,80,0,0
121531,-100,4,2,2,50,0,0
121672,-100,4,2,2,35,0,0
121860,-100,4,2,2,25,0,0
122047,-100,4,2,2,20,0,0
122235,-100,4,2,2,80,0,0
122985,-100,4,2,2,60,0,1
123735,-100,4,2,2,80,0,0
124531,-100,4,2,2,50,0,0
124672,-100,4,2,2,35,0,0
124860,-100,4,2,2,25,0,0
125047,-100,4,2,2,20,0,0
125235,-100,4,2,2,80,0,0
126360,-100,4,2,2,60,0,1
126735,-100,4,2,2,80,0,0
127531,-100,4,2,2,50,0,0
127672,-100,4,2,2,35,0,0
127860,-100,4,2,2,25,0,0
128047,-100,4,2,2,20,0,0
128235,-100,4,2,2,80,0,0
128985,-100,4,2,2,60,0,1
129735,-100,4,2,2,80,0,0
130531,-100,4,2,2,50,0,0
130672,-100,4,2,2,35,0,0
130860,-100,4,2,2,50,0,0
131047,-100,4,2,2,70,0,0
131235,-100,4,2,2,80,0,0
131422,-100,4,2,2,80,0,0
131797,-100,4,2,2,80,0,0
131985,-100,4,2,2,80,0,0
132360,-100,4,2,2,80,0,0
132735,-100,4,2,2,60,0,0
133860,-100,4,2,3,60,0,0
134235,-100,4,2,2,60,0,0
136860,-100,4,2,3,60,0,0
137235,-100,4,2,2,60,0,0
139860,-100,4,2,3,60,0,0
140235,-100,4,2,2,60,0,0
143422,-100,4,2,3,60,0,0
143516,-100,4,2,2,60,0,0
143797,-100,4,2,3,60,0,0
143891,-100,4,2,2,60,0,0
144172,-100,4,2,3,60,0,0
144266,-100,4,2,2,60,0,0
148110,-100,4,2,3,60,0,0
148485,-100,4,2,2,60,0,0
148766,-100,4,2,3,60,0,0
148860,-100,4,2,2,60,0,0
149047,-100,4,2,3,60,0,0
149235,-100,4,2,2,60,0,0
150266,-100,4,2,3,60,0,0
150360,-100,4,2,2,60,0,0
150547,-100,4,2,3,60,0,0
150735,-100,4,2,2,60,0,0
153266,-100,4,2,3,60,0,0
153360,-100,4,2,2,60,0,0
153547,-100,4,2,3,60,0,0
153735,-100,4,2,2,60,0,0
154766,-100,4,2,3,60,0,0
154860,-100,4,2,2,60,0,0
155047,-100,4,2,3,60,0,0
155235,-100,4,2,2,60,0,0
156735,-100,4,2,2,40,0,0
157297,-100,4,2,3,40,0,0
157485,-100,4,2,2,40,0,0
158422,-100,4,2,3,40,0,0
158516,-100,4,2,2,40,0,0
160297,-100,4,2,3,40,0,0
160485,-100,4,2,2,40,0,0
161422,-100,4,2,3,40,0,0
161516,-100,4,2,2,40,0,0
162735,-100,4,2,2,60,0,0
165735,-100,4,2,2,70,0,0
167235,-100,4,2,2,72,0,0
167985,-100,4,2,2,75,0,0
168360,-100,4,2,2,78,0,0
168735,-100,4,2,2,80,0,0

[Colours]
Combo1 : 255,227,170
Combo2 : 97,41,22
Combo3 : 203,168,116
Combo4 : 230,93,44

[HitObjects]
256,192,9735,12,0,12547,0:0:0:0:
319,107,12735,6,0,L|432:94,2,107,6|0|0,0:0|0:0|0:0,0:0:0:0:
159,30,13297,2,0,L|240:24,1,53.5,2|0,0:0|0:0,0:0:0:0:
426,93,13485,2,0,L|434:322,1,214,8|0,0:0|0:0,0:0:0:0:
289,354,14047,2,0,L|372:347,1,53.5,2|0,0:0|0:0,0:0:0:0:
144,322,14235,6,0,B|35:309|35:309|22:164,1,214
161,103,14797,2,0,L|78:95,1,53.5,2|0,0:0|0:0,0:0:0:0:
318,43,14985,1,8,0:0:0:0:
48,19,15360,1,0,0:0:0:0:
357,53,15735,6,0,L|366:295,1,214,2|0,0:0|0:0,0:0:0:0:
211,266,16297,2,0,L|206:335,1,53.5,2|0,0:0|0:0,0:0:0:0:
410,363,16485,2,0,L|172:334,1,214,8|2,0:0|0:0,0:0:0:0:
483,206,17235,5,2,0:0:0:0:
340,168,17422,1,8,0:0:0:0:
486,116,17610,2,0,L|491:0,1,107,0|2,0:0|0:0,0:0:0:0:
295,81,17985,2,0,P|282:149|373:206,1,160.5,8|0,0:0|0:0,0:0:0:0:
401,216,18360,1,2,0:0:0:0:
250,289,18547,2,0,L|317:294,1,53.5,8|8,0:0|0:0,0:0:0:0:
84,358,18735,6,0,L|77:137,1,214,6|2,0:0|0:0,0:0:0:0:
228,61,19297,2,0,L|160:54,1,53.5,2|0,0:0|0:0,0:0:0:0:
360,284,19485,2,0,B|466:275|466:275|468:117,1,214,8|0,0:0|0:0,0:0:0:0:
329,78,20047,1,2,0:0:0:0:
481,125,20235,5,2,0:0:0:0:
224,180,20422,2,0,L|224:300,1,107,2|0,0:0|0:0,0:0:0:0:
382,265,20797,2,0,L|383:324,1,53.5,2|2,0:0|0:0,0:0:0:0:
183,366,20985,2,0,P|175:304|295:220,1,214,8|2,0:0|0:0,0:0:0:0:
420,194,21547,1,8,0:0:0:0:
134,262,21735,6,0,L|123:17,1,214,2|0,0:0|0:0,0:0:0:0:
277,20,22297,2,0,L|337:24,1,53.5,2|0,0:0|0:0,0:0:0:0:
118,141,22485,1,8,0:0:0:0:
383,179,22860,1,2,0:0:0:0:
60,308,23235,5,2,0:0:0:0:
203,345,23422,1,8,0:0:0:0:
366,354,23610,2,0,L|370:237,1,107,2|2,0:0|0:0,0:0:0:0:
117,146,23985,2,0,L|250:124,1,107,10|2,0:0|0:0,0:0:0:0:
281,97,24266,1,0,0:0:0:0:
222,128,24360,1,8,0:0:0:0:
51,71,24547,1,8,0:0:0:0:
363,38,24735,6,0,P|379:101|263:188,1,214,6|0,0:0|0:0,0:0:0:0:
429,243,25297,2,0,L|493:246,1,53.5,2|0,0:0|0:0,0:0:0:0:
252,367,25485,2,0,L|242:144,1,214,8|0,0:0|0:0,0:0:0:0:
8,77,26235,5,2,0:0:0:0:
267,36,26422,2,0,L|271:159,1,107,2|0,0:0|0:0,0:0:0:0:
111,170,26797,2,0,L|103:238,1,53.5,2|2,0:0|0:0,0:0:0:0:
306,272,26985,2,0,L|452:258,1,107,8|0,0:0|0:0,0:0:0:0:
248,347,27360,1,2,0:0:0:0:
429,351,27547,1,8,0:0:0:0:
143,200,27735,6,0,L|307:124,2,160.5,0|0|2,0:0|0:0|0:0,0:0:0:0:
76,198,28391,1,0,0:0:0:0:
297,337,28485,2,0,L|305:114,1,214,8|2,0:0|0:0,0:0:0:0:
459,93,29047,2,0,L|465:22,1,53.5,2|0,0:0|0:0,0:0:0:0:
232,40,29235,5,2,0:0:0:0:
393,76,29422,2,0,P|417:136|314:219,1,214,8|2,0:0|0:0,0:0:0:0:
139,209,29985,5,8,0:0:0:0:
90,227,30078,1,0,0:0:0:0:
72,276,30172,1,0,0:0:0:0:
97,321,30266,1,0,0:0:0:0:
148,333,30360,1,2,0:0:0:0:
207,329,30453,1,0,0:0:0:0:
15,85,30547,2,0,L|83:76,1,53.5,8|8,0:0|0:0,0:0:0:0:
306,38,30735,6,0,P|382:57|356:200,1,214,6|0,0:0|0:0,0:0:0:0:
238,217,31297,2,0,L|161:224,1,53.5,2|0,0:0|0:0,0:0:0:0:
413,353,31485,2,0,L|415:129,1,214,8|0,0:0|0:0,0:0:0:0:
253,120,32047,2,0,L|245:57,1,53.5,2|0,0:0|0:0,0:0:0:0:
467,248,32235,6,0,L|254:308,1,214,2|0,0:0|0:0,0:0:0:0:
416,351,32797,2,0,L|348:348,1,53.5,2|2,0:0|0:0,0:0:0:0:
150,367,32985,2,0,P|137:312|240:234,1,160.5,8|0,0:0|0:0,0:0:0:0:
254,228,33360,1,2,0:0:0:0:
100,183,33547,1,8,0:0:0:0:
369,211,33735,6,0,P|384:158|270:69,1,214,2|0,0:0|0:0,0:0:0:0:
419,31,34297,2,0,L|483:22,1,53.5,2|0,0:0|0:0,0:0:0:0:
244,129,34485,2,0,L|242:308,1,160.5,8|0,0:0|0:0,0:0:0:0:
301,305,34860,1,2,0:0:0:0:
450,344,35047,1,0,0:0:0:0:
165,361,35235,5,2,0:0:0:0:
324,191,35422,2,0,L|182:178,1,107,8|2,0:0|0:0,0:0:0:0:
65,80,35797,2,0,L|137:67,1,53.5,2|0,0:0|0:0,0:0:0:0:
345,20,35985,2,0,L|353:145,1,107,10|2,0:0|0:0,0:0:0:0:
101,234,36360,2,0,L|37:238,1,53.5,10|10,0:0|0:0,0:0:0:0:
265,338,36547,2,0,L|169:338,1,53.5,10|10,0:0|0:0,0:0:0:0:
441,276,36735,5,4,0:0:0:0:
291,242,42735,6,0,L|479:179,2,160.5,6|2|2,0:0|0:3|0:0,0:0:0:0:
118,284,43485,1,8,0:0:0:0:
272,358,43672,2,0,L|281:137,1,214,2|2,0:3|0:0,0:0:0:0:
83,55,44235,6,0,L|272:33,1,160.5,2|2,0:0|0:3,0:0:0:0:
48,150,44797,1,2,0:0:0:0:
238,187,44985,1,8,0:0:0:0:
229,307,45172,2,0,L|23:231,1,214,2|2,0:3|0:0,0:0:0:0:
228,100,45735,6,0,L|241:286,1,160.5,2|2,0:0|0:3,0:0:0:0:
429,313,46297,1,2,0:0:0:0:
231,368,46485,1,8,0:0:0:0:
106,285,46672,2,0,L|299:161,1,214,2|2,0:3|0:0,0:0:0:0:
481,73,47235,6,0,L|296:34,2,160.5,2|2|2,0:0|0:3|0:0,0:0:0:0:
323,147,47985,1,8,0:0:0:0:
162,160,48172,1,2,0:3:0:0:
340,258,48360,2,0,L|389:256,2,26.75,10|0|0,0:0|0:0|0:0,0:0:0:0:
109,360,48547,2,0,L|66:360,2,26.75,10|0|10,0:0|0:0|0:0,0:0:0:0:
392,378,48735,6,0,P|423:320|320:241,1,214,4|2,0:0|0:0,0:0:0:0:
131,107,49485,2,0,L|372:84,1,214,0|2,0:0|0:0,0:0:0:0:
38,295,50235,6,0,P|24:229|117:117,1,214,2|0,0:0|0:0,0:0:0:0:
259,89,50797,2,0,L|323:93,1,53.5,2|0,0:0|0:0,0:0:0:0:
244,184,50985,2,0,L|122:203,1,107,2|0,0:0|0:0,0:0:0:0:
292,338,51360,2,0,L|295:231,1,107,0|0,0:0|0:0,0:0:0:0:
452,138,51735,6,0,L|230:117,1,214,2|0,0:0|0:0,0:0:0:0:
398,52,52297,2,0,L|316:46,1,53.5,2|0,0:0|0:0,0:0:0:0:
279,53,52485,2,0,P|251:116|330:230,1,214,2|0,0:0|0:0,0:0:0:0:
451,250,53047,1,0,0:0:0:0:
276,76,53235,5,2,0:0:0:0:
373,110,53422,1,0,0:0:0:0:
412,206,53610,1,2,0:0:0:0:
366,299,53797,1,0,0:0:0:0:
265,326,53985,2,0,L|136:336,1,107,2|0,0:0|0:0,0:0:0:0:
332,217,54360,2,0,L|219:214,1,107,2|0,0:0|0:0,0:0:0:0:
44,264,54735,6,0,L|40:37,1,214,2|2,0:0|0:0,0:0:0:0:
260,51,55485,2,0,L|64:173,1,214,0|2,0:0|0:0,0:0:0:0:
390,88,56235,6,0,P|412:153|308:267,1,214,2|0,0:0|0:0,0:0:0:0:
177,327,56797,2,0,L|117:337,1,53.5,0|0,0:0|0:0,0:0:0:0:
205,355,56985,2,0,L|326:342,1,107,2|0,0:0|0:0,0:0:0:0:
157,266,57360,2,0,L|152:149,1,107,0|0,0:0|0:0,0:0:0:0:
341,82,57735,6,0,L|108:52,1,214,2|0,0:0|0:0,0:0:0:0:
292,31,58297,2,0,L|315:101,1,53.5,0|0,0:0|0:0,0:0:0:0:
292,31,58485,2,0,L|167:55,1,107,2|0,0:0|0:0,0:0:0:0:
350,230,58860,2,0,L|475:244,1,107,0|0,0:0|0:0,0:0:0:0:
269,310,59235,6,0,P|235:236|351:137,1,214,2|0,0:0|0:0,0:0:0:0:
492,34,59797,2,0,L|43:67,1,428,2|0,0:0|0:0,0:0:0:0:
375,58,60735,6,0,P|412:109|305:202,1,214,6|2,0:0|0:3,0:0:0:0:
67,334,61485,2,0,P|51:242|157:171,1,214,8|2,0:0|0:3,0:0:0:0:
455,49,62235,6,0,L|224:30,1,214,2|2,0:0|0:3,0:0:0:0:
391,151,62797,2,0,L|321:164,1,53.5,2|0,0:0|0:0,0:0:0:0:
123,359,62985,2,0,L|117:129,1,214,8|2,0:0|0:3,0:0:0:0:
256,98,63547,1,0,0:0:0:0:
65,33,63735,6,0,P|47:100|165:171,1,214,2|2,0:0|0:3,0:0:0:0:
304,261,64297,2,0,L|227:276,1,53.5,0|0,0:0|0:0,0:0:0:0:
458,351,64485,2,0,P|481:280|394:182,1,214,8|2,0:0|0:3,0:0:0:0:
264,165,65047,1,0,0:0:0:0:
459,67,65235,6,0,L|322:53,1,107,2|0,0:0|0:0,0:0:0:0:
197,75,65610,1,2,0:3:0:0:
352,57,65797,1,2,0:0:0:0:
150,186,65985,2,0,L|278:204,1,107,10|0,0:0|0:0,0:0:0:0:
192,250,66266,1,0,0:0:0:0:
117,266,66360,1,2,0:0:0:0:
304,303,66547,1,0,0:0:0:0:
27,44,66735,6,0,P|18:120|130:192,1,214,2|2,0:0|0:3,0:0:0:0:
395,341,67485,2,0,L|177:329,1,214,8|2,0:0|0:3,0:0:0:0:
493,333,68235,6,0,P|486:240|359:174,1,214,2|2,0:0|0:3,0:0:0:0:
237,61,68797,2,0,L|314:54,1,53.5,2|0,0:0|0:0,0:0:0:0:
94,119,68985,2,0,P|70:183|200:256,1,214,8|2,0:0|0:3,0:0:0:0:
16,318,69547,1,0,0:0:0:0:
210,354,69735,6,0,L|216:129,1,214,2|2,0:0|0:3,0:0:0:0:
373,120,70297,2,0,L|376:58,1,53.5,0|0,0:0|0:0,0:0:0:0:
164,27,70485,2,0,L|283:43,1,107,8|0,0:0|0:0,0:0:0:0:
462,234,70860,2,0,L|348:255,1,107,2|0,0:3|0:0,0:0:0:0:
66,124,71235,6,0,L|308:140,1,214,2|2,0:0|0:3,0:0:0:0:
119,218,71797,1,2,0:0:0:0:
385,340,71985,2,0,L|399:212,1,107,8|0,0:0|0:0,0:0:0:0:
220,194,72360,1,8,0:0:0:0:
489,104,72547,1,8,0:0:0:0:
191,42,72735,5,4,0:0:0:0:
139,57,72828,1,0,0:0:0:0:
117,104,72922,1,0,0:0:0:0:
141,151,73016,1,0,0:0:0:0:
199,163,73110,2,0,L|275:165,3,53.5,2|0|0|0,0:3|0:0|0:0|0:0,0:0:0:0:
325,203,73485,6,0,L|390:208,3,53.5,8|0|0|0,0:0|0:0|0:0|0:0,0:0:0:0:
195,282,73860,2,0,L|115:289,1,53.5,2|0,0:0|0:0,0:0:0:0:
338,352,74047,2,0,L|262:361,1,53.5,2|0,0:0|0:0,0:0:0:0:
47,355,74235,5,2,0:0:0:0:
195,356,74422,2,0,L|201:239,1,107,0|2,0:0|0:3,0:0:0:0:
354,179,74797,2,0,L|420:168,1,53.5,2|2,0:0|0:0,0:0:0:0:
191,119,74985,2,0,L|74:100,1,107,8|0,0:0|0:0,0:0:0:0:
278,27,75360,2,0,L|389:3,1,107,2|0,0:0|0:0,0:0:0:0:
98,35,75735,6,0,P|83:118|217:168,1,214,6|2,0:0|0:3,0:0:0:0:
28,264,76297,2,0,L|83:268,1,53.5,2|0,0:0|0:0,0:0:0:0:
307,311,76485,2,0,P|316:240|205:171,1,214,8|2,0:0|0:0,0:0:0:0:
274,149,76953,1,0,0:0:0:0:
205,144,77047,2,0,L|123:142,1,53.5,2|0,0:0|0:0,0:0:0:0:
382,65,77235,5,2,0:0:0:0:
232,75,77422,2,0,L|237:206,1,107,0|2,0:0|0:3,0:0:0:0:
413,226,77703,2,0,L|480:228,2,53.5,0|0|0,0:0|0:0|0:0,0:0:0:0:
199,355,77985,2,0,P|184:296|287:236,1,160.5,8|0,0:0|0:0,0:0:0:0:
310,220,78360,1,2,0:0:0:0:
249,231,78453,1,0,0:0:0:0:
37,157,78547,1,0,0:0:0:0:
306,51,78735,6,0,L|136:104,1,160.5,6|0,0:0|0:0,0:0:0:0:
99,135,79109,1,2,0:3:0:0:
152,98,79203,1,0,0:0:0:0:
215,129,79297,1,0,0:0:0:0:
491,33,79485,2,0,L|364:16,1,107,8|0,0:0|0:0,0:0:0:0:
225,70,79860,1,2,0:0:0:0:
386,42,80047,2,0,L|463:49,1,53.5,2|0,0:0|0:0,0:0:0:0:
229,196,80235,6,0,L|105:215,1,107,2|0,0:0|0:0,0:0:0:0:
305,288,80610,2,0,L|314:158,1,107,2|2,0:3|0:0,0:0:0:0:
237,162,80891,1,2,0:0:0:0:
28,283,80985,2,0,L|20:136,1,107,8|0,0:0|0:0,0:0:0:0:
187,86,81360,1,2,0:0:0:0:
20,68,81547,2,0,L|94:51,1,53.5,0|0,0:0|0:0,0:0:0:0:
312,49,81735,6,0,P|339:113|266:180,1,160.5,6|0,0:0|0:0,0:0:0:0:
226,183,82110,1,2,0:3:0:0:
377,258,82297,2,0,L|438:257,1,53.5,2|0,0:0|0:0,0:0:0:0:
216,355,82485,5,8,0:0:0:0:
367,353,82672,1,0,0:0:0:0:
415,334,82765,1,0,0:0:0:0:
431,285,82859,1,2,0:3:0:0:
403,241,82953,1,0,0:0:0:0:
352,235,83047,1,2,0:0:0:0:
88,142,83235,5,2,0:0:0:0:
234,88,83422,1,2,0:0:0:0:
27,31,83516,2,0,L|93:35,1,53.5,0|0,0:0|0:0,0:0:0:0:
230,226,83797,2,0,L|142:237,1,53.5,2|2,0:0|0:0,0:0:0:0:
381,311,83985,1,8,0:0:0:0:
226,186,84172,2,0,L|306:182,1,53.5,2|0,0:0|0:0,0:0:0:0:
490,64,84360,1,2,0:0:0:0:
235,71,84547,2,0,L|162:72,1,53.5,8|8,0:0|0:0,0:0:0:0:
415,16,84735,6,0,P|470:51|394:154,1,214,6|2,0:0|0:3,0:0:0:0:
341,154,85203,1,0,0:0:0:0:
411,167,85297,1,0,0:0:0:0:
340,178,85391,1,0,0:0:0:0:
259,218,85485,2,0,L|245:55,1,160.5,8|0,0:0|0:0,0:0:0:0:
299,44,85860,1,2,0:3:0:0:
448,26,86047,1,0,0:0:0:0:
156,274,86235,6,0,L|280:276,1,107,2|0,0:0|0:0,0:0:0:0:
200,317,86516,1,0,0:0:0:0:
123,328,86610,1,2,0:3:0:0:
305,358,86797,2,0,L|246:365,1,53.5,2|2,0:0|0:0,0:0:0:0:
30,309,86985,6,0,L|30:176,1,107,8|0,0:0|0:0,0:0:0:0:
214,126,87360,2,0,L|286:118,1,53.5,2|0,0:0|0:0,0:0:0:0:
200,82,87547,1,0,0:0:0:0:
127,81,87641,1,0,0:0:0:0:
365,39,87735,6,0,L|477:31,1,107,6|0,0:0|0:0,0:0:0:0:
316,188,88110,2,0,L|242:195,1,53.5,2|0,0:0|0:0,0:0:0:0:
323,221,88297,2,0,L|414:222,1,53.5,2|0,0:0|0:0,0:0:0:0:
147,364,88485,6,0,P|132:298|218:241,1,160.5,8|2,0:0|0:0,0:0:0:0:
423,186,89047,1,2,0:0:0:0:
114,40,89235,6,0,L|100:274,1,214,2|2,0:0|0:3,0:0:0:0:
256,301,89797,2,0,L|341:293,1,53.5,2|2,0:0|0:0,0:0:0:0:
102,369,89985,2,0,L|90:226,1,107,8|0,0:0|0:0,0:0:0:0:
307,128,90266,2,0,L|233:120,1,53.5,2|2,0:0|0:2,0:0:0:0:
76,109,90547,1,2,0:0:0:0:
377,18,90735,6,0,P|400:72|285:171,1,214,6|2,0:0|0:3,0:0:0:0:
458,214,91297,1,0,0:0:0:0:
259,344,91485,2,0,L|250:213,1,107,8|0,0:0|0:0,0:0:0:0:
427,231,91860,2,0,L|434:93,1,107,2|0,0:3|0:0,0:0:0:0:
150,41,92235,6,0,L|396:91,1,214,2|2,0:0|0:3,0:0:0:0:
210,155,92797,2,0,L|290:159,1,53.5,2|2,0:0|0:0,0:0:0:0:
59,307,92985,2,0,L|45:177,1,107,8|0,0:0|0:0,0:0:0:0:
274,267,93266,2,0,L|363:266,1,53.5,2|2,0:0|0:0,0:0:0:0:
54,343,93547,1,2,0:0:0:0:
365,360,93735,6,0,P|375:293|252:208,1,214,6|2,0:0|0:3,0:0:0:0:
428,138,94297,2,0,L|503:126,1,53.5,2|0,0:0|0:0,0:0:0:0:
241,318,94485,2,0,L|235:133,1,160.5,8|2,0:0|0:0,0:0:0:0:
471,51,95047,1,2,0:0:0:0:
174,38,95235,5,2,0:0:0:0:
328,49,95422,1,8,0:0:0:0:
350,95,95515,1,0,0:0:0:0:
330,143,95609,1,2,0:3:0:0:
281,161,95703,1,0,0:0:0:0:
73,264,95797,2,0,L|10:269,1,53.5,2|2,0:0|0:0,0:0:0:0:
237,341,95985,6,0,L|360:325,1,107,8|0,0:0|0:0,0:0:0:0:
372,314,96219,1,8,0:0:0:0:
77,173,96360,2,0,L|113:168,1,26.75,8|2,0:0|0:0,0:0:0:0:
354,38,96547,2,0,L|435:35,1,53.5,8|8,0:0|0:0,0:0:0:0:
133,246,96735,6,0,P|58:222|77:93,1,214,6|2,0:0|0:0,0:0:0:0:
236,29,97297,2,0,L|108:37,2,107,2|2|2,0:0|0:0|0:3,0:0:0:0:
413,165,97860,6,0,L|181:229,1,214,2|2,0:0|0:0,0:0:0:0:
380,324,98422,2,0,L|500:301,2,107,2|2|2,0:0|0:0|0:3,0:0:0:0:
201,360,98985,2,0,L|182:229,1,107,2|2,0:0|0:3,0:0:0:0:
368,211,99360,2,0,L|385:98,1,107,2|2,0:0|0:3,0:0:0:0:
107,32,99735,6,0,P|141:97|283:122,1,214,2|2,0:0|0:0,0:0:0:0:
101,236,100297,2,0,L|221:242,2,107,2|2|2,0:0|0:0|0:3,0:0:0:0:
284,326,100860,6,0,L|283:93,1,214,2|2,0:0|0:0,0:0:0:0:
460,22,101422,2,0,L|338:15,2,107,2|2|2,0:0|0:0|0:3,0:0:0:0:
274,94,101985,2,0,L|150:109,1,107,2|2,0:0|0:3,0:0:0:0:
343,181,102360,1,2,0:0:0:0:
69,197,102547,1,8,0:0:0:0:
386,162,102735,6,0,L|355:277,1,107,14|2,0:0|0:0,0:0:0:0:
298,289,103016,1,0,0:0:0:0:
230,297,103110,1,2,0:0:0:0:
414,368,103297,1,10,0:0:0:0:
483,254,103485,1,2,0:0:0:0:
414,368,103672,1,2,0:0:0:0:
145,236,103860,6,0,L|253:168,1,107,10|2,0:0|0:0,0:0:0:0:
391,151,104235,1,2,0:0:0:0:
201,84,104422,2,0,L|137:78,2,53.5,10|0|2,0:0|0:0|0:0,0:0:0:0:
356,71,104797,1,2,0:0:0:0:
88,145,104985,2,0,L|77:289,1,107,10|2,0:0|0:0,0:0:0:0:
252,301,105360,1,10,0:0:0:0:
79,343,105547,1,2,0:0:0:0:
383,331,105735,5,6,0:0:0:0:
394,279,105828,1,2,0:0:0:0:
370,233,105922,1,2,0:0:0:0:
314,214,106016,1,2,0:0:0:0:
241,208,106110,2,0,L|239:142,1,53.5,10|2,0:0|0:0,0:0:0:0:
446,132,106297,6,0,L|451:66,1,53.5,2|2,0:0|0:0,0:0:0:0:
377,50,106485,2,0,L|311:43,1,53.5,10|2,0:0|0:0,0:0:0:0:
397,23,106672,2,0,L|461:16,1,53.5,2|2,0:0|0:0,0:0:0:0:
232,127,106860,2,0,L|156:122,1,53.5,10|2,0:0|0:0,0:0:0:0:
245,91,107047,2,0,L|308:83,1,53.5,2|2,0:0|0:0,0:0:0:0:
78,215,107235,5,6,0:0:0:0:
230,259,107422,2,0,L|255:191,2,53.5,10|2|2,0:0|0:0|0:0,0:0:0:0:
57,325,107797,1,2,0:0:0:0:
339,119,107985,1,14,0:0:0:0:
183,103,108172,1,2,0:0:0:0:
470,31,108360,2,0,L|405:34,1,53.5,14|10,0:0|0:0,0:0:0:0:
191,239,108547,2,0,L|96:237,1,53.5,10|10,0:0|0:0,0:0:0:0:
394,112,108735,6,0,P|434:192|326:268,1,214,4|0,0:0|0:0,0:0:0:0:
200,329,109297,2,0,L|283:334,1,53.5,0|0,0:0|0:0,0:0:0:0:
42,369,109485,2,0,L|14:299,1,53.5,8|0,0:0|0:0,0:0:0:0:
100,285,109672,2,0,L|87:223,1,53.5,0|0,0:0|0:0,0:0:0:0:
167,209,109860,2,0,L|167:144,1,53.5,0|0,0:0|0:0,0:0:0:0:
246,156,110047,2,0,L|266:95,1,53.5,0|0,0:0|0:0,0:0:0:0:
39,58,110235,6,0,P|22:137|146:211,1,214,2|0,0:0|0:0,0:0:0:0:
270,286,110797,2,0,L|199:289,1,53.5,2|0,0:0|0:0,0:0:0:0:
440,324,110985,6,0,L|454:290,2,26.75,8|0|0,0:3|0:0|0:0,0:0:0:0:
241,134,111172,2,0,L|199:132,2,26.75,8|0|0,0:3|0:0|0:0,0:0:0:0:
449,73,111360,2,0,L|427:71,1,13.375,8|0,0:3|0:0,0:0:0:0:
376,38,111453,2,0,L|353:36,1,13.375,8|0,0:3|0:0,0:0:0:0:
173,39,111547,2,0,L|195:37,1,13.375,8|0,0:3|0:0,0:0:0:0:
246,4,111640,2,0,L|269:2,1,13.375,8|0,0:3|0:0,0:0:0:0:
458,78,111735,6,0,P|478:135|361:225,1,214,6|0,0:0|0:0,0:0:0:0:
230,298,112297,2,0,L|160:291,1,53.5,2|0,0:0|0:0,0:0:0:0:
393,360,112485,2,0,L|421:290,1,53.5,8|0,0:0|0:0,0:0:0:0:
335,276,112672,2,0,L|348:214,1,53.5,0|0,0:0|0:0,0:0:0:0:
268,200,112860,2,0,L|268:135,1,53.5,0|0,0:0|0:0,0:0:0:0:
189,147,113047,2,0,L|169:86,1,53.5,2|0,0:0|0:0,0:0:0:0:
395,33,113235,1,2,0:0:0:0:
245,29,113422,6,0,L|235:158,1,107,8|0,0:0|0:0,0:0:0:0:
301,152,113703,1,0,0:0:0:0:
87,242,113797,2,0,L|10:245,1,53.5,2|2,0:0|0:0,0:0:0:0:
238,140,113985,2,0,P|264:202|191:256,1,160.5,10|0,0:0|0:0,0:0:0:0:
410,318,114360,6,0,L|434:319,1,13.375,8|0,0:3|0:0,0:0:0:0:
488,236,114453,2,0,L|465:234,1,13.375,8|0,0:3|0:0,0:0:0:0:
284,177,114547,2,0,L|260:178,1,13.375,8|0,0:3|0:0,0:0:0:0:
206,95,114640,2,0,L|229:93,1,13.375,8|0,0:3|0:0,0:0:0:0:
432,23,114735,6,0,P|450:95|346:169,1,214,6|0,0:0|0:0,0:0:0:0:
199,251,115297,2,0,L|281:257,1,53.5,0|0,0:0|0:0,0:0:0:0:
34,335,115485,6,0,L|83:295,1,53.5,8|0,0:0|0:0,0:0:0:0:
151,296,115672,2,0,L|185:250,1,53.5,0|0,0:0|0:0,0:0:0:0:
260,230,115860,2,0,L|271:174,1,53.5,0|0,0:0|0:0,0:0:0:0:
348,160,116047,2,0,L|347:94,1,53.5,0|0,0:0|0:0,0:0:0:0:
122,171,116235,6,0,P|50:148|75:21,1,214,2|0,0:0|0:0,0:0:0:0:
215,24,116797,2,0,L|297:29,1,53.5,2|0,0:0|0:0,0:0:0:0:
42,269,116985,6,0,L|24:233,2,26.75,8|0|0,0:3|0:0|0:0,0:0:0:0:
269,313,117172,2,0,L|316:315,2,26.75,8|0|0,0:3|0:0|0:0,0:0:0:0:
43,359,117360,2,0,L|40:342,1,13.375,8|0,0:3|0:0,0:0:0:0:
106,323,117453,2,0,L|110:298,1,13.375,8|0,0:3|0:0,0:0:0:0:
300,189,117547,2,0,L|303:172,1,13.375,8|0,0:3|0:0,0:0:0:0:
237,152,117640,2,0,L|233:127,1,13.375,8|0,0:3|0:0,0:0:0:0:
449,58,117735,6,0,P|473:126|368:211,1,214,6|0,0:0|0:0,0:0:0:0:
228,56,118297,2,0,L|159:66,1,53.5,2|0,0:0|0:0,0:0:0:0:
396,344,118485,2,0,L|347:304,1,53.5,8|0,0:0|0:0,0:0:0:0:
279,305,118672,2,0,L|245:259,1,53.5,0|0,0:0|0:0,0:0:0:0:
170,239,118860,2,0,L|159:183,1,53.5,0|0,0:0|0:0,0:0:0:0:
82,169,119047,2,0,L|83:103,1,53.5,2|0,0:0|0:0,0:0:0:0:
323,47,119235,1,2,0:0:0:0:
14,32,119422,6,0,L|145:39,1,107,4|0,0:0|0:0,0:0:0:0:
272,186,119797,2,0,L|194:198,1,53.5,2|2,0:0|0:0,0:0:0:0:
445,320,119985,1,4,0:0:0:0:
308,353,120172,1,4,0:0:0:0:
21,297,120360,1,4,0:0:0:0:
312,222,120547,2,0,L|404:213,1,53.5,8|8,0:0|0:0,0:0:0:0:
112,266,120735,6,0,P|77:218|168:115,1,214,6|8,0:0|0:0,0:0:0:0:
311,35,121297,2,0,L|223:30,1,53.5,0|0,0:0|0:0,0:0:0:0:
458,95,121485,5,2,0:0:0:0:
485,120,121531,1,0,0:0:0:0:
452,148,121578,1,0,0:0:0:0:
478,172,121624,1,0,0:0:0:0:
434,198,121672,1,0,0:0:0:0:
457,221,121718,1,0,0:0:0:0:
404,242,121766,1,0,0:0:0:0:
423,263,121812,1,0,0:0:0:0:
363,277,121860,1,8,0:0:0:0:
380,294,121906,1,0,0:0:0:0:
316,301,121953,1,0,0:0:0:0:
330,312,121999,1,0,0:0:0:0:
264,313,122047,1,0,0:0:0:0:
276,315,122093,1,0,0:0:0:0:
210,311,122141,1,0,0:0:0:0:
224,306,122188,1,0,0:0:0:0:
420,356,122235,6,0,P|434:291|322:181,1,214,2|8,0:0|0:0,0:0:0:0:
195,98,122797,2,0,L|253:98,1,53.5,0|0,0:0|0:0,0:0:0:0:
39,203,122985,6,0,L|23:165,2,26.75,8|0|0,0:3|0:0|0:0,0:0:0:0:
260,259,123172,2,0,L|311:260,2,26.75,8|0|0,0:3|0:0|0:0,0:0:0:0:
48,346,123360,2,0,L|29:346,1,13.375,8|0,0:3|0:0,0:0:0:0:
99,290,123453,2,0,L|115:290,1,13.375,8|0,0:3|0:0,0:0:0:0:
301,161,123547,2,0,L|320:161,1,13.375,8|0,0:3|0:0,0:0:0:0:
250,105,123640,2,0,L|234:105,1,13.375,8|0,0:3|0:0,0:0:0:0:
435,62,123735,6,0,P|457:124|343:195,1,214,6|8,0:0|0:0,0:0:0:0:
492,287,124297,2,0,L|432:298,1,53.5,0|0,0:0|0:0,0:0:0:0:
193,365,124485,5,2,0:0:0:0:
166,340,124531,1,0,0:0:0:0:
199,312,124578,1,0,0:0:0:0:
173,288,124624,1,0,0:0:0:0:
217,262,124672,1,0,0:0:0:0:
194,239,124718,1,0,0:0:0:0:
247,218,124766,1,0,0:0:0:0:
228,197,124812,1,0,0:0:0:0:
288,183,124860,1,8,0:0:0:0:
271,166,124906,1,0,0:0:0:0:
335,159,124953,1,0,0:0:0:0:
321,148,124999,1,0,0:0:0:0:
387,147,125047,1,0,0:0:0:0:
375,145,125093,1,0,0:0:0:0:
441,149,125141,1,0,0:0:0:0:
427,154,125188,1,0,0:0:0:0:
234,45,125235,6,0,L|32:171,1,214,2|8,0:0|0:0,0:0:0:0:
92,202,125703,1,0,0:0:0:0:
159,229,125797,1,0,0:0:0:0:
236,232,125891,1,0,0:0:0:0:
36,354,125985,2,0,P|25:294|102:221,1,160.5,2|0,0:0|0:0,0:0:0:0:
328,294,126360,6,0,L|352:295,1,13.375,8|0,0:3|0:0,0:0:0:0:
406,212,126453,2,0,L|383:210,1,13.375,8|0,0:3|0:0,0:0:0:0:
202,153,126547,2,0,L|178:154,1,13.375,8|0,0:3|0:0,0:0:0:0:
124,71,126640,2,0,L|147:69,1,13.375,8|0,0:3|0:0,0:0:0:0:
347,51,126735,6,0,P|363:115|251:213,1,214,6|8,0:0|0:0,0:0:0:0:
114,298,127297,2,0,L|202:306,1,53.5,0|0,0:0|0:0,0:0:0:0:
408,326,127485,5,2,0:0:0:0:
440,291,127531,1,0,0:0:0:0:
392,274,127578,1,0,0:0:0:0:
418,241,127624,1,0,0:0:0:0:
368,227,127672,1,0,0:0:0:0:
389,197,127718,1,0,0:0:0:0:
335,184,127766,1,0,0:0:0:0:
353,157,127812,1,0,0:0:0:0:
296,149,127860,1,8,0:0:0:0:
310,125,127906,1,0,0:0:0:0:
250,120,127953,1,0,0:0:0:0:
263,100,127999,1,0,0:0:0:0:
200,101,128047,1,0,0:0:0:0:
212,84,128093,1,0,0:0:0:0:
148,91,128141,1,0,0:0:0:0:
159,77,128187,1,0,0:0:0:0:
360,29,128235,6,0,P|377:87|254:187,1,214,2|8,0:0|0:0,0:0:0:0:
434,254,128797,2,0,L|495:246,1,53.5,0|0,0:0|0:0,0:0:0:0:
257,357,128985,2,0,L|224:354,2,26.75,8|0|0,0:3|0:0|0:0,0:0:0:0:
472,160,129172,2,0,L|490:111,2,26.75,8|0|0,0:3|0:0|0:0,0:0:0:0:
221,79,129360,2,0,L|243:77,1,13.375,8|0,0:3|0:0,0:0:0:0:
294,44,129453,2,0,L|317:42,1,13.375,8|0,0:3|0:0,0:0:0:0:
492,47,129547,2,0,L|470:45,1,13.375,8|0,0:3|0:0,0:0:0:0:
419,12,129640,2,0,L|396:10,1,13.375,8|0,0:3|0:0,0:0:0:0:
196,114,129735,6,0,L|190:232,1,107,6|2,0:0|0:0,0:0:0:0:
367,209,130110,2,0,L|381:329,1,107,2|2,0:0|0:0,0:0:0:0:
72,359,130485,5,10,0:0:0:0:
40,324,130531,1,0,0:0:0:0:
88,307,130578,1,0,0:0:0:0:
62,274,130624,1,0,0:0:0:0:
112,260,130672,1,2,0:0:0:0:
91,230,130718,1,0,0:0:0:0:
145,217,130766,1,0,0:0:0:0:
127,190,130812,1,0,0:0:0:0:
184,182,130860,1,2,0:0:0:0:
170,158,130906,1,0,0:0:0:0:
230,153,130953,1,0,0:0:0:0:
448,61,131047,2,0,L|385:57,1,53.5,2|2,0:0|0:0,0:0:0:0:
155,60,131235,5,6,0:0:0:0:
458,366,131422,6,0,P|456:304|352:263,1,160.5,4|0,0:0|0:0,0:0:0:0:
159,320,131797,2,0,L|86:316,1,53.5,6|2,0:0|0:0,0:0:0:0:
331,148,131985,2,0,L|473:132,1,107,4|4,0:0|0:0,0:0:0:0:
57,181,132360,2,0,L|52:160,1,13.375,8|0,0:0|0:0,0:0:0:0:
192,118,132453,2,0,L|192:98,1,13.375,8|0,0:0|0:0,0:0:0:0:
330,73,132547,2,0,L|332:55,1,13.375,8|0,0:0|0:0,0:0:0:0:
476,55,132641,2,0,L|479:38,1,13.375,8|0,0:0|0:0,0:0:0:0:
206,202,132735,5,4,0:0:0:0:
156,215,132828,1,0,0:0:0:0:
135,262,132922,1,0,0:0:0:0:
160,307,133016,1,0,0:0:0:0:
211,315,133110,1,2,0:3:0:0:
275,317,133203,1,0,0:0:0:0:
211,315,133297,1,0,0:0:0:0:
275,317,133391,1,0,0:0:0:0:
346,319,133485,5,8,0:0:0:0:
275,317,133578,1,0,0:0:0:0:
346,319,133672,1,0,0:0:0:0:
418,318,133766,1,0,0:0:0:0:
225,190,133860,2,0,L|162:184,1,53.5,2|0,0:0|0:0,0:0:0:0:
390,97,134047,2,0,L|455:88,1,53.5,2|0,0:0|0:0,0:0:0:0:
186,37,134235,5,2,0:0:0:0:
336,53,134422,2,0,L|347:168,1,107,0|2,0:0|0:3,0:0:0:0:
187,222,134797,2,0,L|268:222,1,53.5,2|2,0:0|0:0,0:0:0:0:
34,329,134985,2,0,L|30:174,1,107,8|0,0:0|0:0,0:0:0:0:
207,115,135360,2,0,L|89:114,1,107,2|0,0:0|0:0,0:0:0:0:
375,305,135735,6,0,L|149:262,1,214,6|2,0:0|0:3,0:0:0:0:
322,214,136297,2,0,L|326:153,1,53.5,2|0,0:0|0:0,0:0:0:0:
105,47,136485,2,0,L|241:26,1,107,8|0,0:0|0:0,0:0:0:0:
39,137,136860,1,2,0:0:0:0:
23,186,136953,1,0,0:0:0:0:
45,233,137047,1,2,0:0:0:0:
94,252,137141,1,0,0:0:0:0:
325,328,137235,5,2,0:0:0:0:
179,367,137422,2,0,L|172:252,1,107,0|2,0:0|0:3,0:0:0:0:
358,203,137703,1,0,0:0:0:0:
287,191,137797,2,0,L|280:113,1,53.5,2|2,0:0|0:0,0:0:0:0:
479,25,137985,6,0,P|483:89|381:138,1,160.5,8|0,0:0|0:0,0:0:0:0:
346,147,138360,1,2,0:0:0:0:
411,142,138453,1,0,0:0:0:0:
191,297,138547,1,0,0:0:0:0:
352,330,138735,6,0,P|368:270|252:173,1,214,6|2,0:0|0:3,0:0:0:0:
423,89,139297,2,0,L|343:90,1,53.5,2|0,0:0|0:0,0:0:0:0:
164,108,139485,2,0,L|99:100,1,53.5,8|0,0:0|0:0,0:0:0:0:
182,148,139672,2,0,L|246:150,1,53.5,0|0,0:0|0:0,0:0:0:0:
154,208,139860,2,0,L|14:231,1,107,2|2,0:0|0:0,0:0:0:0:
110,259,140141,1,0,0:0:0:0:
306,322,140235,6,0,L|364:324,3,53.5,2|0|0|0,0:0|0:0|0:0|0:0,0:0:0:0:
430,322,140610,1,2,0:3:0:0:
280,205,140797,2,0,L|199:196,1,53.5,2|2,0:0|0:0,0:0:0:0:
444,172,140985,2,0,L|448:58,1,107,8|0,0:0|0:0,0:0:0:0:
276,19,141360,2,0,L|197:26,1,53.5,2|0,0:0|0:0,0:0:0:0:
300,77,141547,1,0,0:0:0:0:
379,84,141641,1,0,0:0:0:0:
150,120,141735,6,0,P|118:197|177:237,1,160.5,6|0,0:0|0:0,0:0:0:0:
225,253,142110,1,2,0:3:0:0:
70,335,142297,2,0,L|13:340,1,53.5,2|0,0:0|0:0,0:0:0:0:
243,350,142485,6,0,L|390:334,1,107,8|0,0:0|0:0,0:0:0:0:
295,312,142766,1,0,0:0:0:0:
224,308,142860,2,0,L|215:234,1,53.5,2|0,0:3|0:0,0:0:0:0:
421,194,143047,2,0,L|428:125,1,53.5,2|0,0:0|0:0,0:0:0:0:
206,97,143235,5,2,0:0:0:0:
348,48,143422,1,2,0:0:0:0:
144,24,143516,2,0,L|77:27,1,53.5,0|2,0:0|0:3,0:0:0:0:
257,132,143797,2,0,L|330:128,1,53.5,2|0,0:0|0:0,0:0:0:0:
90,255,143985,1,8,0:0:0:0:
241,337,144172,2,0,L|153:348,1,53.5,2|0,0:0|0:0,0:0:0:0:
395,341,144360,1,2,0:3:0:0:
128,166,144547,2,0,L|205:165,1,53.5,8|8,0:0|0:0,0:0:0:0:
429,33,144735,6,0,P|462:93|362:173,1,214,6|2,0:0|0:3,0:0:0:0:
310,186,145203,1,0,0:0:0:0:
368,174,145297,1,0,0:0:0:0:
427,175,145391,1,0,0:0:0:0:
206,340,145485,6,0,L|198:162,1,160.5,8|0,0:0|0:0,0:0:0:0:
257,154,145860,1,2,0:3:0:0:
419,98,146047,1,0,0:0:0:0:
147,46,146235,6,0,P|130:111|230:160,1,160.5,2|0,0:0|0:0,0:0:0:0:
252,173,146610,1,2,0:3:0:0:
418,298,146797,2,0,L|352:306,1,53.5,2|2,0:0|0:0,0:0:0:0:
131,371,146985,2,0,L|122:245,1,107,8|0,0:0|0:0,0:0:0:0:
414,207,147360,2,0,L|419:76,1,107,2|0,0:0|0:0,0:0:0:0:
93,40,147735,6,0,L|224:37,1,107,6|0,0:0|0:0,0:0:0:0:
336,47,148110,1,2,0:0:0:0:
357,94,148203,1,0,0:0:0:0:
336,142,148297,1,2,0:0:0:0:
287,159,148391,1,0,0:0:0:0:
59,186,148485,6,0,L|92:306,1,107,8|0,0:0|0:0,0:0:0:0:
184,323,148766,2,0,L|304:329,1,107,2|0,0:0|0:0,0:0:0:0:
391,292,149047,1,0,0:0:0:0:
90,364,149235,6,0,P|58:292|152:213,1,214,2|2,0:0|0:3,0:0:0:0:
304,113,149797,2,0,L|208:103,1,53.5,2|2,0:0|0:0,0:0:0:0:
470,54,149985,2,0,L|486:191,1,107,8|0,0:0|0:0,0:0:0:0:
258,227,150266,2,0,L|171:227,1,53.5,2|2,0:0|0:0,0:0:0:0:
456,313,150547,1,2,0:0:0:0:
143,351,150735,6,0,P|119:278|235:198,1,214,6|2,0:0|0:3,0:0:0:0:
61,155,151297,1,2,0:0:0:0:
234,161,151485,2,0,L|239:37,1,107,8|0,0:0|0:0,0:0:0:0:
48,22,151860,2,0,L|157:12,1,107,2|0,0:3|0:0,0:0:0:0:
424,113,152235,6,0,L|436:233,1,107,2|0,0:0|0:0,0:0:0:0:
256,230,152610,2,0,L|243:357,1,107,2|2,0:3|0:0,0:0:0:0:
320,349,152891,1,2,0:0:0:0:
101,354,152985,2,0,L|116:217,1,107,8|0,0:0|0:0,0:0:0:0:
345,123,153266,2,0,L|250:110,1,53.5,2|2,0:0|0:0,0:0:0:0:
22,94,153547,1,2,0:0:0:0:
338,21,153735,6,0,P|300:96|152:131,1,214,6|2,0:0|0:3,0:0:0:0:
451,181,154297,2,0,L|459:265,1,53.5,2|0,0:0|0:0,0:0:0:0:
210,353,154485,2,0,P|184:296|269:218,1,160.5,8|2,0:0|0:0,0:0:0:0:
301,202,154860,1,2,0:3:0:0:
473,183,155047,1,2,0:0:0:0:
166,64,155235,5,2,0:0:0:0:
318,52,155422,1,8,0:0:0:0:
340,98,155515,1,0,0:0:0:0:
321,147,155609,1,2,0:3:0:0:
273,165,155703,1,0,0:0:0:0:
47,279,155797,2,0,L|113:278,1,53.5,2|2,0:0|0:0,0:0:0:0:
351,324,155985,5,8,0:0:0:0:
195,353,156172,1,0,0:0:0:0:
167,353,156219,1,2,0:0:0:0:
445,190,156360,1,8,0:0:0:0:
472,201,156406,2,0,L|476:115,1,80.25,2|8,0:0|0:0,0:0:0:0:
266,120,156641,1,8,0:0:0:0:
40,132,156735,6,0,L|32:252,1,107,6|0,0:0|0:0,0:0:0:0:
95,259,157016,1,2,0:3:0:0:
164,277,157110,2,0,L|43:296,1,107,2|2,0:0|0:0,0:0:0:0:
317,338,157485,2,0,L|448:325,1,107,2|2,0:0|0:3,0:0:0:0:
127,347,157860,6,0,L|127:213,1,107,2|2,0:0|0:3,0:0:0:0:
300,150,158235,2,0,L|141:142,1,107,2|2,0:0|0:0,0:0:0:0:
265,115,158516,1,0,0:0:0:0:
350,102,158610,2,0,L|488:92,1,107,2|2,0:0|0:3,0:0:0:0:
188,262,158985,2,0,L|168:135,1,107,2|2,0:0|0:3,0:0:0:0:
366,167,159360,2,0,L|390:35,1,107,2|2,0:0|0:3,0:0:0:0:
89,38,159735,6,0,L|205:66,1,107,2|0,0:0|0:0,0:0:0:0:
263,86,160016,1,2,0:3:0:0:
189,143,160110,2,0,L|48:160,1,107,2|2,0:0|0:0,0:0:0:0:
365,162,160485,2,0,L|375:297,1,107,2|2,0:0|0:3,0:0:0:0:
110,350,160860,2,0,L|207:268,1,107,2|2,0:0|0:3,0:0:0:0:
349,261,161235,1,2,0:0:0:0:
89,184,161422,6,0,L|21:177,1,53.5,2|0,0:0|0:0,0:0:0:0:
94,141,161610,2,0,L|237:117,1,107,2|2,0:0|0:3,0:0:0:0:
382,41,161985,2,0,L|246:36,1,107,2|2,0:0|0:3,0:0:0:0:
123,49,162360,1,2,0:0:0:0:
383,149,162547,1,8,0:0:0:0:
91,173,162735,6,0,L|185:232,1,107,6|2,0:0|0:0,0:0:0:0:
243,247,163016,1,0,0:0:0:0:
306,248,163110,1,2,0:0:0:0:
37,198,163297,1,10,0:0:0:0:
186,256,163485,1,2,0:0:0:0:
30,322,163672,1,2,0:0:0:0:
323,155,163860,5,10,0:0:0:0:
187,99,164047,1,2,0:0:0:0:
39,88,164235,1,2,0:0:0:0:
326,41,164422,2,0,L|394:38,2,53.5,10|0|2,0:0|0:0|0:0,0:0:0:0:
175,159,164797,1,2,0:0:0:0:
451,147,164985,2,0,L|459:279,1,107,10|2,0:0|0:0,0:0:0:0:
190,312,165360,1,10,0:0:0:0:
459,335,165547,1,2,0:0:0:0:
172,355,165735,5,6,0:0:0:0:
145,310,165828,1,2,0:0:0:0:
161,261,165922,1,2,0:0:0:0:
209,241,166016,1,2,0:0:0:0:
303,193,166110,2,0,L|212:181,1,53.5,10|2,0:0|0:0,0:0:0:0:
37,193,166297,6,0,L|29:125,1,53.5,2|2,0:0|0:0,0:0:0:0:
105,108,166485,2,0,L|166:97,1,53.5,10|2,0:0|0:0,0:0:0:0:
77,42,166672,2,0,L|142:38,1,53.5,2|2,0:0|0:0,0:0:0:0:
346,83,166860,2,0,L|352:138,1,53.5,10|2,0:0|0:0,0:0:0:0:
276,164,167047,2,0,L|199:173,1,53.5,2|2,0:0|0:0,0:0:0:0:
459,255,167235,5,6,0:0:0:0:
196,326,167422,2,0,L|166:273,2,53.5,10|2|2,0:0|0:0|0:0,0:0:0:0:
348,343,167797,1,2,0:0:0:0:
33,161,167985,2,0,L|178:137,1,107,14|2,0:0|0:0,0:0:0:0:
440,48,168360,1,14,0:0:0:0:
278,31,168453,1,10,0:0:0:0:
111,42,168547,1,10,0:0:0:0:
282,140,168641,1,10,0:0:0:0:
109,164,168735,5,4,0:0:0:0:
