osu file format v14

[General]
AudioFilename: audio.mp3
AudioLeadIn: 0
PreviewTime: 83368
Countdown: 0
SampleSet: Normal
StackLeniency: 0.6
Mode: 0
LetterboxInBreaks: 0
WidescreenStoryboard: 1

[Editor]
Bookmarks: 126503
DistanceSpacing: 1.3
BeatDivisor: 4
GridSize: 32
TimelineZoom: 1.8

[Metadata]
Title:Asu wa Ame ga Yamukara
TitleUnicode:アスは雨が止むから
Artist:HyuN feat. Ato
ArtistUnicode:HyuN feat. Ato
Creator:Kalibe
Version:Hard
Source:osu!
Tags:As the rain stops chaoslitz trynna mappers' guild featured artist
BeatmapID:1863236
BeatmapSetID:891339

[Difficulty]
HPDrainRate:5
CircleSize:4
OverallDifficulty:6
ApproachRate:7.5
SliderMultiplier:1.47
SliderTickRate:1

[Events]
//Background and Video events
0,0,"atoo.jpg",0,0
//Break Periods
//Storyboard Layer 0 (Background)
//Storyboard Layer 1 (Fail)
//Storyboard Layer 2 (Pass)
//Storyboard Layer 3 (Foreground)
//Storyboard Sound Samples

[TimingPoints]
666,324.324324324324,4,1,1,30,1,0
666,-125,4,1,1,30,0,0
19152,-111.111111111111,4,1,1,40,0,0
19476,-111.111111111111,4,1,1,50,0,0
19801,-111.111111111111,4,1,1,60,0,0
20125,-111.111111111111,4,1,1,65,0,0
21422,-90.9090909090909,4,1,1,70,0,0
21665,-111.111111111111,4,1,1,70,0,0
31801,-90.9090909090909,4,1,1,70,0,0
32125,-100,4,1,1,70,0,0
40882,-90.9090909090909,4,1,1,75,0,0
42179,-142.857142857143,4,2,1,60,0,0
43476,-142.857142857143,4,2,1,40,0,0
47368,-133.333333333333,4,2,1,45,0,0
51584,-133.333333333333,4,2,1,55,0,0
51909,-117.647058823529,4,2,1,65,0,0
52557,-100,4,1,1,60,0,0
62936,-133.333333333333,4,2,1,45,0,0
77206,-133.333333333333,4,2,1,60,0,0
82395,-100,4,2,1,65,0,0
83693,-90.9090909090909,4,1,1,70,0,1
93260,-90.9090909090909,4,2,1,70,0,0
94071,-90.9090909090909,4,1,1,70,0,1
104449,-83.3333333333333,4,1,1,75,0,0
105747,-86.9565217391304,4,1,1,80,0,1
114828,-83.3333333333333,4,1,1,80,0,0
115152,-90.9090909090909,4,1,1,80,0,0
115801,-83.3333333333333,4,1,1,80,0,0
116125,-90.9090909090909,4,1,1,75,0,1
126179,-76.9230769230769,4,1,1,75,0,1
126503,-76.9230769230769,4,1,1,75,0,0
126584,-76.9230769230769,4,1,1,30,0,0

[Colours]
Combo1 : 210,242,136
Combo2 : 138,247,184
Combo3 : 132,188,251
Combo4 : 249,221,155

[HitObjects]
447,128,666,6,0,P|439:91|436:59,2,58.8,2|0|0,2:0|2:0|2:0,0:0:0:0:
468,214,1152,2,0,P|439:176|354:167,1,117.6,2|0,2:0|2:0,0:0:0:0:
260,245,1801,2,0,L|192:262,1,58.8,0|2,2:0|2:0,0:0:0:0:
170,328,2125,2,0,L|108:344,1,58.8,0|0,2:0|2:0,0:0:0:0:
242,285,2449,2,0,B|334:296|318:353|402:354,1,176.4,2|0,2:0|2:0,0:0:0:0:
491,124,3260,6,0,P|483:73|479:43,2,58.8,2|0|0,2:0|2:0|2:0,0:0:0:0:
423,208,3747,2,0,P|387:172|408:105,1,117.6,2|0,2:0|2:0,0:0:0:0:
270,31,4395,2,0,L|193:16,1,58.8,0|2,2:0|2:0,0:0:0:0:
154,70,4720,2,0,L|89:90,1,58.8,0|0,2:0|2:0,0:0:0:0:
35,51,5044,1,2,2:0:0:0:
17,130,5206,1,0,2:0:0:0:
17,130,5368,1,2,2:0:0:0:
0,205,5530,1,0,2:0:0:0:
0,205,5693,1,0,2:0:0:0:
74,247,5855,6,0,P|81:214|90:187,2,58.8,2|0|0,2:0|2:0|2:0,0:0:0:0:
46,333,6341,2,0,P|73:298|155:284,1,117.6,2|0,2:0|2:0,0:0:0:0:
275,355,6990,2,0,P|310:364|343:374,1,58.8,0|2,2:0|2:0,0:0:0:0:
453,315,7314,2,0,P|425:323|397:331,1,58.8,0|0,2:0|2:0,0:0:0:0:
332,281,7638,2,0,L|364:85,1,176.4,2|0,2:0|2:0,0:0:0:0:
360,106,8449,6,0,L|429:132,2,58.8,2|0|0,2:0|2:0|2:0,0:0:0:0:
302,55,8936,2,0,P|262:70|221:137,1,117.6,2|0,2:0|2:0,0:0:0:0:
101,224,9584,2,0,P|131:233|157:243,1,58.8,0|2,2:0|2:0,0:0:0:0:
178,316,9909,2,0,P|206:324|233:334,1,58.8,0|0,2:0|2:0,0:0:0:0:
302,297,10233,1,2,2:0:0:0:
369,338,10395,1,0,2:0:0:0:
369,338,10557,1,2,2:0:0:0:
432,291,10720,1,0,2:0:0:0:
432,291,10882,1,0,2:0:0:0:
457,372,11044,6,0,P|465:303|480:234,1,117.6,2|0,2:0|2:0,0:0:0:0:
422,200,11530,2,0,L|346:223,1,58.8,2|0,2:0|2:0,0:0:0:0:
280,254,11855,2,0,P|327:255|362:330,2,117.6,2|0|0,2:0|2:0|2:0,0:0:0:0:
157,346,12828,2,0,P|174:229|183:166,1,176.4,2|0,2:0|2:0,0:0:0:0:
91,48,13638,6,0,P|99:66|106:112,2,58.8,2|0|0,2:0|2:0|2:0,0:0:0:0:
164,25,14125,2,0,P|200:38|290:52,1,117.6,2|0,2:0|2:0,0:0:0:0:
422,101,14774,2,0,P|389:110|346:186,2,117.6,2|0|2,2:0|2:0|2:0,0:0:0:0:
482,147,15584,2,0,L|497:211,1,58.8,2|2,2:0|2:0,0:0:0:0:
438,255,15909,1,0,2:0:0:0:
438,255,16071,1,0,2:0:0:0:
477,320,16233,6,0,P|410:297|354:285,1,117.6,2|0,2:0|2:0,0:0:0:0:
299,354,16720,2,0,P|270:324|301:243,2,117.6,2|0|2,2:0|2:0|2:0,0:0:0:0:
256,192,17449,12,2,18828,2:0:0:0:
492,363,19152,6,0,P|460:351|428:346,1,66.1499979812623,0|0,3:0|0:0,0:0:0:0:
379,269,19476,2,0,P|347:280|315:285,1,66.1499979812623,0|0,3:0|0:0,0:0:0:0:
251,354,19801,2,0,P|219:342|187:337,1,66.1499979812623,0|0,3:0|0:0,0:0:0:0:
138,259,20125,1,8,3:0:0:0:
256,192,20206,12,0,21098,0:0:0:0:
43,330,21422,6,0,L|33:201,1,121.275003701019,4|0,0:1|2:0,0:0:0:0:
33,209,21747,2,0,L|45:136,1,66.1499979812623,10|0,0:0|0:0,0:0:0:0:
120,78,22071,2,0,P|81:67|46:54,1,66.1499979812623,2|0,0:0|0:0,0:0:0:0:
132,166,22395,5,10,0:0:0:0:
132,166,22557,2,0,P|187:152|273:138,1,132.299995962525,2|2,0:0|0:2,0:0:0:0:
339,88,23044,2,0,P|360:52|354:20,1,66.1499979812623,10|0,0:0|0:0,0:0:0:0:
406,144,23368,2,0,L|470:164,1,66.1499979812623,2|0,0:0|0:0,0:0:0:0:
360,223,23693,1,10,0:0:0:0:
360,223,23855,6,0,P|347:277|320:366,1,132.299995962525,2|2,0:0|0:2,0:0:0:0:
262,268,24341,2,0,P|218:285|146:300,1,99.2249969718934,10|0,0:0|2:0,0:0:0:0:
167,297,24665,2,0,L|184:364,1,66.1499979812623,2|0,0:0|0:0,0:0:0:0:
93,336,24990,1,10,0:0:0:0:
18,376,25152,1,2,0:0:0:0:
4,279,25314,6,0,L|33:126,1,132.299995962525,0|10,0:0|0:0,0:0:0:0:
110,194,25801,2,0,P|143:199|192:213,1,66.1499979812623,2|2,3:0|0:0,0:0:0:0:
237,164,26125,1,2,0:0:0:0:
324,195,26287,2,0,P|316:162|310:130,1,66.1499979812623,10|2,0:0|0:0,0:0:0:0:
255,239,26611,6,0,P|244:292|226:375,1,132.299995962525,4|10,0:2|0:0,0:0:0:0:
314,334,27098,1,0,0:0:0:0:
383,367,27260,2,0,L|460:387,1,66.1499979812623,2|0,0:0|0:0,0:0:0:0:
512,277,27584,5,10,0:0:0:0:
437,304,27747,2,0,P|412:261|426:181,1,132.299995962525,2|2,0:0|0:2,0:0:0:0:
373,87,28233,2,0,L|497:116,1,99.2249969718934,10|0,0:0|2:0,0:0:0:0:
469,109,28557,2,0,L|456:17,1,66.1499979812623,2|0,0:0|0:0,0:0:0:0:
406,169,28882,2,0,P|369:176|328:192,1,66.1499979812623,10|2,0:0|0:0,0:0:0:0:
274,114,29206,6,0,P|232:143|223:230,1,132.299995962525,0|10,0:0|0:0,0:0:0:0:
284,285,29693,1,0,0:2:0:0:
211,342,29855,2,0,P|141:359|74:383,1,132.299995962525,2|10,0:0|0:0,0:0:0:0:
41,295,30341,1,2,3:1:0:0:
41,295,30503,6,0,P|52:263|62:232,1,66.1499979812623,10|0,3:0|0:0,0:0:0:0:
137,164,30828,2,0,P|105:152|74:142,1,66.1499979812623,10|2,0:0|3:0,0:0:0:0:
55,143,31071,1,2,3:0:0:0:
39,152,31152,1,10,0:0:0:0:
4,66,31314,1,8,0:0:0:0:
81,15,31476,2,0,L|133:37,3,33.0749989906311,8|8|8|8,0:0|0:0|0:0|0:0,0:0:0:0:
127,56,31801,6,0,P|195:44|266:38,1,121.275003701019,4|0,0:0|2:0,0:0:0:0:
246,38,32125,2,0,P|279:47|337:73,1,73.5,10|0,0:0|0:0,0:0:0:0:
385,136,32449,2,0,P|350:149|315:159,1,73.5,2|2,0:0|0:2,0:0:0:0:
428,58,32774,5,10,0:0:0:0:
428,58,32936,2,0,P|464:84|463:192,1,147,2|2,0:3|0:0,0:0:0:0:
394,248,33422,2,0,P|387:297|375:367,1,110.25,10|0,0:0|0:0,0:0:0:0:
376,356,33747,2,0,L|293:338,1,73.5,2|2,0:0|0:2,0:0:0:0:
233,266,34071,1,10,0:0:0:0:
205,342,34233,1,2,0:0:0:0:
129,284,34395,6,0,P|117:210|125:165,1,110.25,0|0,3:0|2:0,0:0:0:0:
122,175,34720,2,0,P|163:162|212:145,1,73.5,10|0,0:0|0:0,0:0:0:0:
267,82,35044,2,0,P|279:123|297:172,1,73.5,2|0,0:0|0:0,0:0:0:0:
370,215,35368,2,0,P|328:227|280:245,1,73.5,10|2,0:0|0:0,0:0:0:0:
202,271,35693,6,0,P|268:262|324:338,1,147,2|10,3:0|0:0,0:0:0:0:
406,372,36179,2,0,L|498:358,1,73.5,2|2,3:0|0:0,0:0:0:0:
408,285,36503,1,2,0:0:0:0:
498,236,36665,1,10,0:0:0:0:
498,236,36828,1,2,0:2:0:0:
427,161,36990,6,0,B|360:150|379:118|289:100,1,147,4|10,0:2|0:0,0:0:0:0:
222,134,37476,1,2,0:2:0:0:
211,40,37638,2,0,P|210:73|202:123,1,73.5,2|0,0:0|0:0,0:0:0:0:
111,67,37963,5,10,0:0:0:0:
60,9,38125,2,0,P|72:70|79:163,1,147,2|2,0:0|0:2,0:0:0:0:
168,205,38611,2,0,P|153:249|138:326,1,110.25,10|2,0:0|0:2,0:0:0:0:
139,311,38936,2,0,L|42:339,1,73.5,2|0,0:0|0:0,0:0:0:0:
227,264,39260,2,0,L|314:294,1,73.5,10|2,0:0|0:0,0:0:0:0:
328,370,39584,6,0,P|335:316|415:265,1,147,0|10,3:0|0:0,0:0:0:0:
472,309,40071,1,0,0:0:0:0:
490,206,40233,2,0,P|480:144|471:53,1,147,2|10,0:0|0:0,0:0:0:0:
378,17,40720,1,0,0:0:0:0:
491,68,40882,6,0,B|404:69|430:126|330:129,1,161.700004934693,10|2,0:0|0:0,0:0:0:0:
250,65,41368,2,0,L|235:4,2,40.4250012336731,8|2|2,0:0|3:0|0:0,0:0:0:0:
166,142,41693,2,0,L|146:202,2,40.4250012336731,0|0|8,3:0|3:0|0:0,0:0:0:0:
87,60,42017,1,8,0:0:0:0:
87,60,42098,1,8,0:0:0:0:
87,60,42179,6,0,P|41:97|31:237,1,205.799993719483,4|2,0:1|0:0,0:0:0:0:
118,348,43152,2,0,P|169:337|227:329,1,102.899996859741,0|2,3:0|0:0,0:0:0:0:
347,264,43801,1,0,3:0:0:0:
366,333,43963,2,0,P|379:259|402:175,1,154.349995289612,2|0,0:0|3:0,0:0:0:0:
457,50,44774,6,0,P|424:82|346:94,1,102.899996859741,0|0,3:0|0:0,0:0:0:0:
313,52,45260,2,0,P|275:29|201:20,1,102.899996859741,2|2,0:0|3:0,0:0:0:0:
156,56,45747,1,0,3:0:0:0:
212,100,45909,1,0,0:0:0:0:
152,140,46071,2,0,L|50:167,1,102.899996859741,2|0,0:0|3:0,0:0:0:0:
28,234,46557,2,0,L|10:290,1,51.4499984298707,2|0,0:0|3:0,0:0:0:0:
68,328,46882,1,0,0:0:0:0:
141,285,47044,2,0,L|131:214,1,51.4499984298707,0|0,3:0|0:0,0:0:0:0:
234,259,47368,6,0,P|276:268|344:288,1,110.250004205704,2|2,3:2|3:0,0:0:0:0:
484,344,48017,2,0,P|442:353|370:378,1,110.250004205704,2|2,0:3|3:3,0:0:0:0:
423,227,48665,1,2,3:0:0:0:
423,227,48828,2,0,P|414:174|410:101,1,110.250004205704,2|2,0:0|0:0,0:0:0:0:
363,56,49314,2,0,P|314:65|281:126,1,110.250004205704,2|0,0:3|3:0,0:0:0:0:
282,112,49963,5,2,0:0:0:0:
211,144,50125,2,0,P|178:132|140:116,1,55.1250021028519,2|0,0:0|3:0,0:0:0:0:
159,214,50449,2,0,P|96:226|-3:276,1,165.375006308556,0|0,0:0|3:0,0:0:0:0:
140,344,51260,6,0,L|265:361,1,110.250004205704,0|8,3:0|3:0,0:0:0:0:
306,306,51747,1,0,1:0:0:0:
245,243,51909,2,0,L|225:282,2,31.237500595808,0|8|8,1:3|1:3|1:3,0:0:0:0:
332,204,52233,2,0,L|376:221,2,31.237500595808,8|8|8,1:1|1:1|1:1,0:0:0:0:
243,151,52557,6,0,B|170:165|198:201|96:211,1,147,4|8,0:0|0:0,0:0:0:0:
28,158,53044,1,0,0:0:0:0:
28,158,53206,2,0,L|47:73,1,73.5,0|0,3:0|0:0,0:0:0:0:
152,9,53530,5,8,0:0:0:0:
217,48,53693,2,0,P|277:56|381:75,1,147,0|0,0:0|0:0,0:0:0:0:
438,128,54179,2,0,P|446:91|458:54,1,73.5,8|2,0:0|0:0,0:0:0:0:
350,147,54503,2,0,P|314:158|279:165,1,73.5,0|2,0:0|0:0,0:0:0:0:
415,208,54828,2,0,P|442:231|451:279,1,73.5,8|0,0:0|0:0,0:0:0:0:
389,369,55152,6,0,P|337:362|295:280,1,147,4|8,3:0|0:0,0:0:0:0:
213,335,55638,1,0,0:0:0:0:
213,335,55801,2,0,P|181:344|140:359,1,73.5,4|0,3:0|0:0,0:0:0:0:
66,280,56125,5,8,0:0:0:0:
113,219,56287,2,0,L|197:244,1,73.5,2|0,0:2|0:0,0:0:0:0:
99,131,56611,2,0,L|6:157,1,73.5,2|8,0:2|0:0,0:0:0:0:
141,32,56936,2,0,P|192:82|173:161,1,147,2|2,0:2|0:0,0:0:0:0:
113,219,57422,1,8,0:0:0:0:
113,219,57584,1,8,3:0:0:0:
203,249,57747,6,0,P|266:232|364:218,1,147,4|8,0:2|0:0,0:0:0:0:
457,64,58395,2,0,P|394:81|296:95,1,147,4|8,3:0|0:0,0:0:0:0:
320,19,58882,1,0,0:0:0:0:
234,39,59044,5,4,3:0:0:0:
234,39,59206,2,0,B|234:76|214:129|214:129,1,73.5,2|0,0:2|0:0,0:0:0:0:
151,177,59530,2,0,B|168:238|168:338|168:338,1,147,2|0,0:2|0:0,0:0:0:0:
259,350,60017,2,0,P|293:356|346:369,1,73.5,8|0,0:0|0:0,0:0:0:0:
432,306,60341,5,4,3:0:0:0:
432,306,60503,2,0,B|445:269|445:269|437:228,1,73.5,2|8,0:2|0:0,0:0:0:0:
395,116,60828,5,2,0:2:0:0:
332,161,60990,2,0,B|315:196|315:196|319:239,1,73.5,4|0,3:0|0:0,0:0:0:0:
251,325,61314,1,8,0:0:0:0:
251,325,61476,1,0,0:0:0:0:
159,291,61638,6,0,P|104:301|56:377,1,147,8|8,0:0|0:0,0:0:0:0:
19,185,62287,2,0,L|36:131,3,36.75,8|8|8|8,0:0|0:0|0:0|0:0,0:0:0:0:
71,126,62611,2,0,L|63:75,3,36.75,8|8|8|8,3:0|3:0|3:0|3:0,0:0:0:0:
36,67,62936,6,0,B|131:78|109:116|195:120,2,165.375006308556,4|2|0,0:1|0:0|3:0,0:0:0:0:
103,206,64233,2,0,P|103:253|111:321,1,110.250004205704,2|0,0:0|3:0,0:0:0:0:
70,382,64720,2,0,P|112:336|220:336,1,165.375006308556,2|0,0:0|3:0,0:0:0:0:
328,232,65530,6,0,L|398:253,2,55.1250021028519,2|2|2,0:0|0:0|3:2,0:0:0:0:
250,235,66017,2,0,B|340:225|314:189|406:169,1,165.375006308556,2|2,0:0|0:0,0:0:0:0:
474,34,66828,2,0,P|429:65|367:64,1,110.250004205704,2|0,3:0|3:0,0:0:0:0:
309,25,67314,2,0,L|197:19,1,110.250004205704,2|0,0:0|0:0,0:0:0:0:
151,80,67801,1,0,3:0:0:0:
105,17,67963,1,0,0:0:0:0:
41,61,68125,6,0,P|34:111|8:240,1,165.375006308556,4|0,0:0|0:0,0:0:0:0:
106,173,68774,2,0,P|163:178|223:275,1,165.375006308556,0|2,3:0|0:0,0:0:0:0:
165,338,69422,2,0,P|136:347|102:364,1,55.1250021028519,0|0,3:0|0:0,0:0:0:0:
250,293,69747,2,0,P|295:301|369:327,2,110.250004205704,0|2|0,3:0|3:2|3:0,0:0:0:0:
127,198,70720,6,0,L|119:129,2,55.1250021028519,2|2|2,0:0|0:0|3:2,0:0:0:0:
216,163,71206,2,0,B|93:147|128:230|12:242,1,220.500008411408,2|0,0:0|0:0,0:0:0:0:
23,163,72017,1,2,3:0:0:0:
221,309,72503,1,2,0:0:0:0:
417,157,72990,2,0,L|405:88,1,55.1250021028519,2|2,3:0|0:0,0:0:0:0:
402,79,73233,1,2,0:0:0:0:
397,61,73314,6,0,P|341:52|271:37,1,110.250004205704,4|0,0:0|0:0,0:0:0:0:
285,137,73801,2,0,P|239:146|185:195,1,110.250004205704,2|0,0:0|0:0,0:0:0:0:
149,108,74287,2,0,L|78:90,1,55.1250021028519,2|2,0:0|0:0,0:0:0:0:
78,13,74611,6,0,P|69:63|51:132,1,110.250004205704,0|2,3:0|0:0,0:0:0:0:
91,195,75098,2,0,P|91:220|96:269,1,55.1250021028519,2|0,0:0|3:0,0:0:0:0:
30,304,75422,1,2,0:0:0:0:
30,304,75584,2,0,P|22:331|8:369,1,55.1250021028519,0|2,0:0|0:0,0:0:0:0:
146,329,75909,6,0,L|215:349,2,55.1250021028519,2|0|0,0:3|0:0|3:0,0:0:0:0:
227,262,76395,2,0,P|273:258|354:351,1,165.375006308556,2|0,0:0|3:0,0:0:0:0:
336,343,77206,6,0,P|350:277|374:229,1,110.250004205704,2|0,0:0|3:0,0:0:0:0:
438,167,77693,2,0,P|424:101|400:53,1,110.250004205704,2|2,0:0|0:0,0:0:0:0:
329,7,78179,1,0,3:0:0:0:
329,7,78503,6,0,B|216:13|245:77|113:80,1,220.500008411408,2|0,1:2|0:0,0:0:0:0:
112,59,79476,2,0,P|109:86|93:132,1,55.1250021028519,0|0,3:0|0:0,0:0:0:0:
4,142,79801,6,0,B|138:129|93:214|211:234,1,220.500008411408,2|0,1:2|0:0,0:0:0:0:
222,212,80774,2,0,P|259:203|300:196,1,55.1250021028519,2|2,0:0|0:0,0:0:0:0:
372,136,81098,6,0,P|442:167|419:298,1,220.500008411408,2|0,1:2|0:0,0:0:0:0:
406,319,82071,2,0,P|374:311|335:309,1,55.1250021028519,0|2,3:0|3:0,0:0:0:0:
255,373,82395,6,0,P|187:368|154:284,1,147,2|8,1:0|1:3,0:0:0:0:
77,237,82882,1,8,1:3:0:0:
77,237,83044,2,0,L|-19:269,1,73.5,8|8,1:3|1:3,0:0:0:0:
148,178,83368,1,8,1:0:0:0:
142,154,83449,1,8,1:0:0:0:
152,128,83530,1,8,1:0:0:0:
143,103,83611,1,8,1:0:0:0:
143,103,83693,6,0,B|239:106|205:157|304:167,1,161.700004934693,4|8,0:0|0:0,0:0:0:0:
398,217,84179,2,0,P|458:181|445:90,1,161.700004934693,2|0,0:0|0:0,0:0:0:0:
392,48,84665,2,0,P|350:63|306:71,1,80.8500024673463,8|2,0:0|0:0,0:0:0:0:
287,201,84990,6,0,P|282:240|266:310,1,80.8500024673463,2|2,3:0|0:0,0:0:0:0:
388,363,85314,1,8,0:0:0:0:
354,293,85476,2,0,P|301:299|221:376,1,161.700004934693,2|2,0:0|0:0,0:0:0:0:
168,291,85963,2,0,P|128:282|84:268,1,80.8500024673463,8|0,0:0|3:0,0:0:0:0:
9,327,86287,6,0,P|54:276|47:171,1,161.700004934693,2|8,0:0|0:0,0:0:0:0:
126,120,86774,2,0,P|88:107|46:80,1,80.8500024673463,2|0,0:0|3:0,0:0:0:0:
150,200,87098,2,0,P|216:186|316:173,1,161.700004934693,2|0,0:0|3:0,0:0:0:0:
399,110,87584,6,0,B|417:72|417:72|403:29,1,80.8500024673463,2|2,3:0|0:0,0:0:0:0:
278,76,87909,1,8,0:0:0:0:
242,8,88071,2,0,P|203:47|220:165,1,161.700004934693,2|0,3:0|0:0,0:0:0:0:
275,215,88557,1,8,0:0:0:0:
275,215,88720,1,8,0:0:0:0:
194,288,88882,6,0,P|141:302|43:338,1,121.275003701019,4|0,0:0|0:0,0:0:0:0:
42,309,89206,2,0,P|101:306|171:388,1,161.700004934693,8|2,0:0|0:0,0:0:0:0:
275,328,89693,1,0,3:0:0:0:
275,328,89855,2,0,L|382:308,1,80.8500024673463,10|4,0:0|0:2,0:0:0:0:
460,235,90179,6,0,P|405:225|335:301,1,161.700004934693,0|8,0:0|0:0,0:0:0:0:
262,231,90665,1,0,3:0:0:0:
327,158,90828,2,0,L|313:30,1,121.275003701019,2|0,0:0|2:0,0:0:0:0:
313,37,91152,2,0,L|401:54,1,80.8500024673463,8|0,0:0|3:0,0:0:0:0:
233,102,91476,6,0,B|150:119|177:151|81:170,1,161.700004934693,2|8,0:0|0:0,0:0:0:0:
13,238,91963,2,0,B|104:273|104:273|115:308|86:335,1,161.700004934693,0|0,3:0|3:0,0:0:0:0:
189,245,92449,2,0,L|174:160,1,80.8500024673463,10|8,0:0|3:0,0:0:0:0:
284,288,92774,6,0,P|321:328|430:338,1,161.700004934693,10|0,0:0|0:0,0:0:0:0:
482,263,93260,1,2,0:0:0:0:
482,263,93341,1,2,0:0:0:0:
482,263,93422,2,0,L|468:205,3,40.4250012336731,8|8|8|4,1:1|1:3|1:3|1:3,0:0:0:0:
443,184,93747,2,0,L|454:132,3,40.4250012336731,8|8|8|8,1:0|1:0|1:0|1:0,0:0:0:0:
484,117,94071,6,0,P|418:117|362:36,1,161.700004934693,4|8,0:0|0:0,0:0:0:0:
306,131,94557,2,0,P|243:146|149:191,1,161.700004934693,2|0,0:0|0:0,0:0:0:0:
79,126,95044,1,8,0:0:0:0:
79,126,95368,6,0,P|89:84|99:29,1,80.8500024673463,2|2,3:0|0:0,0:0:0:0:
172,151,95693,1,8,0:0:0:0:
240,61,95855,2,0,P|248:142|266:224,1,161.700004934693,2|2,0:0|0:0,0:0:0:0:
192,284,96341,2,0,P|153:298|95:323,1,80.8500024673463,8|0,0:0|3:0,0:0:0:0:
282,296,96665,6,0,B|366:302|346:345|435:348,1,161.700004934693,4|8,0:2|0:0,0:0:0:0:
499,277,97152,2,0,B|486:239|486:239|492:192,1,80.8500024673463,2|0,0:0|0:0,0:0:0:0:
416,136,97476,2,0,L|336:155,1,80.8500024673463,0|8,0:0|0:0,0:0:0:0:
393,234,97801,1,2,2:0:0:0:
297,333,97963,6,0,P|234:322|166:317,1,121.275003701019,2|0,3:0|2:0,0:0:0:0:
176,317,98287,1,8,0:0:0:0:
93,367,98449,2,0,P|40:339|69:237,1,161.700004934693,2|2,3:0|0:0,0:0:0:0:
131,168,98936,2,0,P|136:226|151:276,1,80.8500024673463,8|2,0:0|2:3,0:0:0:0:
31,167,99260,6,0,P|54:59|53:25,1,121.275003701019,4|0,0:0|2:0,0:0:0:0:
54,48,99584,2,0,L|154:64,1,80.8500024673463,8|0,0:0|3:0,0:0:0:0:
213,117,99909,2,0,L|298:105,1,80.8500024673463,2|4,0:0|3:0,0:0:0:0:
425,69,100233,5,10,0:0:0:0:
350,27,100395,2,0,B|313:100|313:100|340:184,1,161.700004934693,2|0,0:2|0:0,0:0:0:0:
418,229,100882,2,0,P|453:243|511:256,1,80.8500024673463,8|2,0:0|0:0,0:0:0:0:
366,305,101206,2,0,P|305:315|224:383,1,161.700004934693,4|8,3:0|0:0,0:0:0:0:
151,315,101693,1,2,0:0:0:0:
151,315,101855,6,0,P|118:321|69:303,1,80.8500024673463,4|0,0:2|3:0,0:0:0:0:
142,221,102179,2,0,P|132:145|128:42,2,161.700004934693,8|2|10,0:0|0:0|0:0,0:0:0:0:
215,156,102990,1,0,3:0:0:0:
294,211,103152,6,0,P|327:216|386:231,1,80.8500024673463,10|0,0:0|3:0,0:0:0:0:
436,178,103476,1,2,3:0:0:0:
369,107,103638,2,0,L|311:123,2,40.4250012336731,2|0|10,3:0|3:0|3:0,0:0:0:0:
441,42,103963,1,0,3:0:0:0:
349,10,104125,2,0,L|295:-6,3,40.4250012336731,8|8|8|8,0:0|0:0|0:0|0:0,0:0:0:0:
274,25,104449,6,0,B|178:27|212:80|99:83,1,176.399994616699,12|12,3:0|3:0,0:0:0:0:
37,131,104936,2,0,L|12:186,2,44.0999986541748,8|2|10,3:0|0:2|0:0,0:0:0:0:
110,180,105260,1,8,0:0:0:0:
55,249,105422,1,8,0:0:0:0:
44,275,105503,1,8,0:0:0:0:
52,306,105584,1,8,0:0:0:0:
45,333,105665,1,8,0:0:0:0:
45,333,105747,6,0,B|132:341|115:292|218:297,1,169.050003224373,4|8,0:0|0:0,0:0:0:0:
302,365,106233,2,0,P|362:356|399:264,1,169.050003224373,2|0,0:0|0:0,0:0:0:0:
349,174,106720,1,8,0:0:0:0:
272,222,106882,1,2,0:0:0:0:
195,156,107044,6,0,P|237:148|282:136,1,84.5250016121865,2|2,3:0|0:0,0:0:0:0:
392,54,107368,1,8,0:0:0:0:
392,54,107530,2,0,P|441:82|457:195,1,169.050003224373,2|2,0:0|0:0,0:0:0:0:
390,273,108017,2,0,P|429:282|485:303,1,84.5250016121865,8|0,0:0|3:0,0:0:0:0:
323,194,108341,6,0,B|250:202|265:265|165:271,1,169.050003224373,4|8,0:2|0:0,0:0:0:0:
87,320,108828,2,0,L|70:380,2,42.2625008060932,2|0|2,0:0|0:0|3:0,0:0:0:0:
46,227,109152,2,0,P|17:257|7:316,1,84.5250016121865,2|8,0:0|0:0,0:0:0:0:
129,198,109476,5,2,0:2:0:0:
129,198,109557,1,2,0:2:0:0:
129,198,109638,2,0,L|113:96,1,84.5250016121865,2|2,3:0|0:0,0:0:0:0:
220,242,109963,2,0,P|194:309|191:333,1,84.5250016121865,8|2,0:0|3:0,0:0:0:0:
315,199,110287,2,0,L|456:226,1,126.78750241828,2|0,3:0|2:0,0:0:0:0:
439,222,110611,1,8,0:0:0:0:
427,137,110774,1,0,3:0:0:0:
406,45,110936,6,0,B|310:58|342:93|237:104,2,169.050003224373,4|8|2,0:0|0:0|3:0,0:0:0:0:
273,199,111909,1,10,0:0:0:0:
273,199,112071,2,0,L|247:373,1,169.050003224373,2|2,0:0|0:2,0:0:0:0:
341,327,112557,2,0,B|357:287|357:287|351:240,1,84.5250016121865,8|0,0:0|0:0,0:0:0:0:
166,309,112882,2,0,B|160:267|160:267|176:227,1,84.5250016121865,2|0,0:0|0:0,0:0:0:0:
269,98,113206,5,10,0:0:0:0:
341,148,113368,2,0,P|399:143|447:52,1,169.050003224373,2|0,2:0|3:0,0:0:0:0:
288,10,113855,5,8,0:0:0:0:
248,80,114017,2,0,B|188:70|188:70|167:42|167:42|90:29,1,169.050003224373,2|0,2:0|0:0,0:0:0:0:
7,89,114503,1,10,0:0:0:0:
85,160,114665,1,8,3:0:0:0:
39,243,114828,6,0,P|93:208|194:203,1,132.299995962525,2|0,1:0|2:0,0:0:0:0:
159,198,115152,2,0,P|146:240|136:288,1,80.8500024673463,8|2,0:0|3:0,0:0:0:0:
230,366,115476,2,0,L|224:314,3,40.4250012336731,8|8|8|8,0:0|0:0|0:0|0:0,0:0:0:0:
262,299,115801,2,0,L|274:252,3,44.0999986541748,2|2|8|8,0:0|0:0|1:0|1:0,0:0:0:0:
254,228,116125,6,0,P|349:245|382:320,1,161.700004934693,4|8,0:0|0:0,0:0:0:0:
451,221,116611,2,0,B|440:162|440:162|451:129|451:129|433:49,1,161.700004934693,2|0,0:0|3:0,0:0:0:0:
436,63,117017,1,8,3:0:0:0:
436,63,117098,2,0,L|331:50,1,80.8500024673463,10|2,0:0|0:0,0:0:0:0:
252,113,117422,6,0,B|232:148|232:148|245:195,1,80.8500024673463,4|0,3:2|0:0,0:0:0:0:
333,130,117747,1,8,0:0:0:0:
267,34,117909,2,0,P|207:44|139:122,1,161.700004934693,2|2,0:0|0:0,0:0:0:0:
79,190,118395,2,0,P|39:202|-19:222,1,80.8500024673463,8|0,0:0|3:0,0:0:0:0:
60,292,118720,6,0,P|115:295|191:372,1,161.700004934693,4|8,0:2|0:0,0:0:0:0:
251,291,119206,2,0,P|305:275|346:255,1,80.8500024673463,2|0,0:0|0:0,0:0:0:0:
398,330,119530,2,0,P|344:346|303:366,1,80.8500024673463,2|8,0:0|0:0,0:0:0:0:
398,218,119855,5,2,3:2:0:0:
398,218,119936,1,2,3:2:0:0:
398,218,120017,2,0,P|445:216|508:321,1,161.700004934693,2|8,3:0|0:0,0:0:0:0:
382,355,120503,2,0,P|298:341|208:330,1,161.700004934693,2|2,0:3|0:0,0:0:0:0:
151,263,120990,2,0,B|167:225|167:225|160:184,1,80.8500024673463,8|2,0:0|0:0,0:0:0:0:
190,57,121314,6,0,P|243:87|242:194,2,161.700004934693,4|8|8,0:0|0:0|3:0,0:0:0:0:
40,181,122287,1,8,0:0:0:0:
90,265,122449,5,2,3:0:0:0:
90,265,122611,2,0,P|129:275|176:292,1,80.8500024673463,4|0,0:2|0:0,0:0:0:0:
271,202,122936,2,0,P|338:188|418:163,1,121.275003701019,10|0,0:0|2:0,0:0:0:0:
388,173,123260,2,0,P|377:229|401:265,1,80.8500024673463,2|0,0:0|0:0,0:0:0:0:
491,173,123584,2,0,P|502:117|478:81,1,80.8500024673463,8|0,0:0|3:0,0:0:0:0:
400,20,123909,6,0,B|287:4|306:103|146:77,1,242.550007402039,6|4,0:2|3:0,0:0:0:0:
94,30,124557,2,0,B|90:69|90:69|74:118,1,80.8500024673463,2|0,0:0|3:0,0:0:0:0:
137,234,124882,2,0,B|140:194|140:194|157:146,1,80.8500024673463,8|8,0:0|3:0,0:0:0:0:
50,216,125206,6,0,P|39:268|13:380,1,161.700004934693,10|0,0:0|3:0,0:0:0:0:
123,314,125693,1,10,3:1:0:0:
123,314,125774,1,2,3:0:0:0:
123,314,125855,2,0,L|211:336,1,80.8500024673463,10|8,3:0|3:0,0:0:0:0:
340,378,126179,6,0,L|407:365,4,47.7749978130342,8|8|8|8|6,0:0|0:0|0:0|0:0|0:2,0:0:0:0:
256,192,126584,12,0,127801,2:0:0:0:
