osu file format v14

[General]
AudioFilename: audio.mp3
AudioLeadIn: 0
PreviewTime: 5175
Countdown: 0
SampleSet: Soft
StackLeniency: 0.7
Mode: 0
LetterboxInBreaks: 0
WidescreenStoryboard: 0

[Editor]
Bookmarks: 25932,38905,70040,90797
DistanceSpacing: 0.8
BeatDivisor: 4
GridSize: 4
TimelineZoom: 1.8

[Metadata]
Title:Wild Card
TitleUnicode:Wild Card
Artist:HyuN
ArtistUnicode:HyuN
Creator:cococolaco
Version:Extra
Source:osu!
Tags:loli catgirl mirash pandahero mappers' guild featured artist
BeatmapID:1863205
BeatmapSetID:891334

[Difficulty]
HPDrainRate:6
CircleSize:4.2
OverallDifficulty:8
ApproachRate:9.2
SliderMultiplier:1.9
SliderTickRate:1

[Events]
//Background and Video events
0,0,"1055135.jpg",0,0
//Break Periods
//Storyboard Layer 0 (Background)
//Storyboard Layer 1 (Fail)
//Storyboard Layer 2 (Pass)
//Storyboard Layer 3 (Foreground)
//Storyboard Sound Samples

[TimingPoints]
5176,324.324324324324,4,1,1,30,1,0
15554,-100,4,1,1,40,0,0
28527,-166.666666666667,4,2,1,40,0,0
33716,-166.666666666667,4,1,1,30,0,0
35013,-166.666666666667,4,1,1,40,0,0
36311,-166.666666666667,4,1,1,50,0,0
37608,-166.666666666667,4,1,1,60,0,0
38905,-111.111111111111,4,1,1,75,0,0
44094,-90.9090909090908,4,1,1,75,0,0
44419,-111.111111111111,4,1,1,75,0,0
45392,-90.9090909090908,4,1,1,75,0,0
47338,-111.111111111111,4,1,1,75,0,0
47986,-90.9090909090908,4,1,1,75,0,0
48838,-90.9090909090908,4,1,1,60,0,0
48959,-90.9090909090908,4,1,1,75,0,0
49284,-100,4,1,1,60,0,0
59013,-83.3333333333333,4,1,1,60,0,0
59662,-83.3333333333333,4,1,1,75,0,0
60148,-100,4,1,1,75,0,0
70040,-100,4,1,1,40,0,0
71338,-100,4,1,1,50,0,0
72635,-100,4,1,1,60,0,0
73932,-100,4,1,1,75,0,0
75230,-100,4,1,1,40,0,0
76528,-100,4,1,1,50,0,0
77825,-100,4,1,1,60,0,0
79122,-100,4,1,1,75,0,0
80419,-100,4,1,1,40,0,0
81717,-100,4,1,1,50,0,0
83014,-100,4,1,1,60,0,0
84311,-100,4,1,1,75,0,0
89500,-83.3333333333333,4,3,1,75,0,0
90473,-66.6666666666667,4,3,1,75,0,0
90797,-100,4,1,1,75,0,0
105716,-66.6666666666667,4,1,1,75,0,0
106203,-100,4,1,1,75,0,0
107662,-66.6666666666667,4,1,1,75,0,0
107905,-100,4,1,1,75,0,0
110257,-83.3333333333333,4,1,1,75,0,0
111554,-100,4,1,1,75,0,0
112851,-66.6666666666667,4,1,1,75,0,0
113824,-100,4,1,1,75,0,0
131013,-83.3333333333333,4,1,1,75,0,0
132959,-100,4,1,1,60,0,0
133608,-100,4,1,1,45,0,0
134257,-100,4,1,1,30,0,0
134905,-83.3333333333333,4,1,1,5,0,0

[Colours]
Combo1 : 116,149,106
Combo2 : 116,79,123
Combo3 : 112,122,160
Combo4 : 160,105,109

[HitObjects]
256,192,23338,12,6,25932,2:0:0:0:
104,191,28527,6,0,B|173:211|246:150|246:150|227:193|226:252|266:337|356:296|340:196|184:264,1,455.999986083985,4|0,1:0|0:0,0:0:0:0:
192,260,31121,6,0,B|245:265|278:232|278:232|320:220|373:241|385:299,3,227.999993041992,0|0|0|0,0:0|0:0|0:0|0:0,0:0:0:0:
204,170,33716,6,0,P|210:125|217:40,1,113.999996520996,4|0,0:1|0:0,0:0:0:0:
124,84,34203,1,2,0:2:0:0:
45,45,34365,2,0,P|21:77|27:156,1,113.999996520996,2|0,0:2|0:0,0:0:0:0:
204,170,35013,6,0,B|250:157|279:191|331:173,1,113.999996520996,4|0,0:1|0:0,0:0:0:0:
386,230,35500,1,2,0:2:0:0:
334,376,35662,2,0,B|298:329|306:257|306:257,1,113.999996520996,2|0,0:2|0:0,0:0:0:0:
436,111,36311,6,0,B|482:166|490:266|490:266|448:318,1,227.999993041992,4|2,0:1|0:2,0:0:0:0:
233,186,37608,2,0,B|191:172|155:175|155:175|92:215|92:215|58:205|1:205,1,227.999993041992,4|2,0:1|0:2,0:0:0:0:
18,205,38743,1,0,0:0:0:0:
65,28,38905,6,0,B|81:71|81:71|63:133,1,85.4999973907472,4|0,3:1|0:0,0:0:0:0:
69,109,39148,1,0,0:0:0:0:
69,109,39230,1,10,0:2:0:0:
187,287,39392,1,2,0:2:0:0:
235,143,39554,5,2,3:2:0:0:
30,246,39716,1,2,0:2:0:0:
198,300,39878,1,10,0:2:0:0:
64,99,40040,1,0,0:0:0:0:
132,194,40203,6,0,P|182:190|220:188,1,85.4999973907472,4|2,3:1|0:2,0:0:0:0:
287,235,40446,2,0,P|310:245|334:250,1,42.7499986953736,2|8,0:2|0:2,0:0:0:0:
409,219,40689,1,2,0:2:0:0:
342,53,40851,5,2,3:2:0:0:
327,249,41013,1,2,0:2:0:0:
489,166,41175,1,10,0:2:0:0:
379,142,41338,1,0,0:0:0:0:
200,136,41500,6,0,P|245:128|295:116,1,85.4999973907472,4|2,3:1|0:2,0:0:0:0:
283,118,41743,1,2,0:2:0:0:
283,118,41824,1,8,0:2:0:0:
201,267,41986,1,2,0:2:0:0:
23,200,42148,1,2,3:2:0:0:
125,91,42311,5,2,2:2:0:0:
108,118,42392,1,0,2:0:0:0:
105,149,42473,1,10,2:2:0:0:
117,178,42554,1,2,2:2:0:0:
139,201,42635,1,2,2:2:0:0:
210,358,42797,5,4,3:1:0:0:
210,358,42878,1,0,0:0:0:0:
210,358,42959,2,0,P|259:351|282:346,2,42.7499986953736,2|0|10,0:2|0:2|0:2,0:0:0:0:
370,222,43284,2,0,L|317:215,1,42.7499986953736,2|0,0:2|0:0,0:0:0:0:
227,193,43446,2,0,B|245:236|245:236|226:280,1,85.4999973907472,2|2,3:2|0:2,0:0:0:0:
333,303,43689,2,0,L|343:357,1,42.7499986953736,0|10,0:0|0:2,0:0:0:0:
501,225,43932,5,0,3:0:0:0:
501,225,44013,1,0,3:0:0:0:
501,225,44094,2,0,P|436:218|332:204,1,156.750004783631,4|2,3:1|0:2,0:0:0:0:
326,180,44419,2,0,P|339:130|329:88,1,85.4999973907472,0|2,3:0|0:2,0:0:0:0:
192,232,44743,5,0,3:2:0:0:
139,78,44905,1,2,0:2:0:0:
139,78,44986,2,0,P|91:82|44:85,1,85.4999973907472,2|2,0:2|0:2,0:0:0:0:
36,97,45230,1,2,0:2:0:0:
69,310,45392,6,0,B|128:301|128:301|166:324|166:324|224:317,1,156.750004783631,4|2,3:1|0:2,0:0:0:0:
234,323,45716,1,0,3:0:0:0:
85,213,45878,1,2,0:2:0:0:
181,85,46040,2,0,B|210:133|210:133|213:181|187:243,1,156.750004783631,4|2,3:1|0:2,0:0:0:0:
191,231,46365,1,0,3:0:0:0:
296,174,46527,1,2,0:2:0:0:
512,280,46689,6,0,P|481:222|376:226,1,156.750004783631,4|2,3:1|0:2,0:0:0:0:
371,222,47013,2,0,P|377:186|379:160,2,52.2500015945435,0|2|2,3:0|0:2|0:2,0:0:0:0:
235,331,47338,2,0,P|226:279|223:241,1,85.4999973907472,4|2,3:1|0:2,0:0:0:0:
223,246,47581,2,0,P|159:237|127:230,1,85.4999973907472,2|2,0:2|0:2,0:0:0:0:
62,281,47824,1,2,0:2:0:0:
145,32,47986,6,0,B|129:83|129:83|159:141,1,104.500003189087,4|2,3:1|0:2,0:0:0:0:
169,145,48230,2,0,L|224:135,1,52.2500015945435,2|0,0:2|3:0,0:0:0:0:
371,222,48473,1,2,0:2:0:0:
391,26,48635,5,4,3:1:0:0:
296,174,48797,2,0,L|279:203,4,26.1250007972718,2|0|2|0|4,0:2|0:0|0:2|0:0|3:1,0:0:0:0:
423,137,49121,2,0,L|440:166,2,26.1250007972718,2|0|2,0:2|0:0|0:2,0:0:0:0:
408,125,49284,6,0,B|311:108|319:152|207:133,1,190,6|8,2:0|0:2,0:0:0:0:
68,343,49770,1,2,0:2:0:0:
68,343,49851,1,2,0:2:0:0:
68,343,49932,2,0,P|129:308|143:179,1,190,2|8,3:2|0:2,0:0:0:0:
0,70,50419,1,2,0:2:0:0:
0,70,50500,1,2,0:2:0:0:
0,70,50581,2,0,B|43:110|43:110|112:117|168:74,1,190,2|8,3:2|0:2,0:0:0:0:
313,222,51067,6,0,P|315:187|319:161,1,47.5,2|0,0:2|0:0,0:0:0:0:
297,90,51230,1,2,3:2:0:0:
386,293,51392,1,2,0:2:0:0:
212,252,51554,1,10,0:2:0:0:
403,200,51716,1,2,0:2:0:0:
215,161,51878,6,0,P|155:169|99:175,1,95,4|0,3:1|0:0,0:0:0:0:
397,112,52203,2,0,P|457:120|513:126,1,95,10|0,0:2|0:0,0:0:0:0:
297,90,52527,5,2,3:2:0:0:
285,234,52689,1,2,0:2:0:0:
276,68,52851,5,10,0:2:0:0:
269,252,53013,1,2,0:2:0:0:
116,158,53175,6,0,P|56:175|30:296,1,190,2|8,0:2|0:2,0:0:0:0:
174,329,53662,1,2,0:2:0:0:
174,329,53743,1,2,0:2:0:0:
174,329,53824,2,0,P|168:277|165:232,1,95,2|0,3:2|0:0,0:0:0:0:
165,234,54067,1,0,0:0:0:0:
165,234,54148,1,10,0:2:0:0:
348,366,54311,1,2,0:2:0:0:
291,150,54473,6,0,B|259:187|258:242|258:242|275:284,1,142.5,4|0,0:1|0:0,0:0:0:0:
277,285,54797,2,0,P|334:276|373:265,1,95,10|0,0:2|0:0,0:0:0:0:
454,313,55040,1,0,0:0:0:0:
454,313,55121,6,0,L|467:211,1,95,2|0,3:2|0:0,0:0:0:0:
343,183,55365,2,0,L|330:81,1,95,2|0,0:2|0:0,0:0:0:0:
389,33,55608,1,2,0:2:0:0:
235,142,55770,6,0,B|126:130|163:191|49:172,1,190,4|10,0:1|0:2,0:0:0:0:
52,172,56257,1,0,0:0:0:0:
277,254,56419,5,2,0:2:0:0:
164,57,56581,1,2,0:2:0:0:
121,217,56743,1,10,0:2:0:0:
316,102,56905,1,2,0:2:0:0:
154,302,57067,6,0,B|99:312|53:301|53:301|29:260,1,142.5,4|0,0:1|0:0,0:0:0:0:
32,265,57392,2,0,P|39:210|40:170,1,95,2|0,0:2|0:0,0:0:0:0:
211,61,57716,2,0,P|212:108|219:155,1,95,2|0,0:2|0:0,0:0:0:0:
219,155,57959,1,0,0:0:0:0:
219,155,58040,1,2,0:2:0:0:
363,263,58203,1,2,0:2:0:0:
239,341,58365,5,4,0:1:0:0:
272,254,58527,1,0,0:0:0:0:
193,69,58689,5,8,0:2:0:0:
170,185,58851,1,2,0:2:0:0:
170,185,58932,1,2,0:2:0:0:
170,185,59013,2,0,B|274:153|274:153|337:185,1,170.999994781494,4|0,3:1|0:0,0:0:0:0:
410,95,59338,2,0,P|380:102|349:101,1,56.9999982604981,4|0,0:1|0:0,0:0:0:0:
332,321,59500,5,0,3:0:0:0:
332,321,59581,1,0,3:0:0:0:
332,321,59662,2,0,B|267:300|194:299|194:299|241:288|270:255,1,227.999993041992,6|8,2:0|0:2,0:0:0:0:
102,53,60148,1,2,0:2:0:0:
102,53,60230,1,2,0:2:0:0:
102,53,60311,2,0,B|172:77|172:77|193:119|184:207,1,190,2|8,3:2|0:2,0:0:0:0:
97,344,60797,1,2,0:2:0:0:
97,344,60878,1,2,0:2:0:0:
97,344,60959,2,0,B|111:258|63:232|95:147,1,190,2|8,3:2|0:2,0:0:0:0:
284,181,61446,5,2,0:2:0:0:
387,40,61608,1,2,3:2:0:0:
213,4,61770,1,2,0:2:0:0:
284,88,61932,6,0,P|336:82|381:62,1,95,10|2,0:2|0:2,0:0:0:0:
185,190,62257,2,0,P|203:238|306:288,1,142.5,4|0,3:1|0:0,0:0:0:0:
293,272,62581,2,0,P|348:260|402:257,1,95,10|0,0:2|0:0,0:0:0:0:
275,182,62905,5,6,3:2:0:0:
217,363,63067,1,0,0:0:0:0:
50,316,63230,2,0,P|101:310|148:301,1,95,8|2,0:2|0:2,0:0:0:0:
189,53,63554,5,4,3:1:0:0:
95,217,63716,1,0,0:0:0:0:
95,217,63797,1,0,0:0:0:0:
95,217,63878,1,4,0:1:0:0:
374,208,64040,1,0,0:0:0:0:
374,208,64121,1,0,0:0:0:0:
374,208,64203,2,0,B|383:263|383:263|390:311|349:355,1,142.5,4|0,3:1|0:0,0:0:0:0:
337,342,64527,5,4,0:1:0:0:
369,117,64689,1,2,0:2:0:0:
285,263,64851,2,0,B|177:242|211:303|91:282,1,190,4|8,3:1|0:2,0:0:0:0:
35,160,65338,1,0,0:0:0:0:
35,160,65419,1,0,0:0:0:0:
35,160,65500,2,0,P|26:107|33:62,1,95,0|2,3:0|0:2,0:0:0:0:
309,47,65824,2,0,P|314:93|305:140,1,95,8|2,0:2|0:2,0:0:0:0:
129,112,66148,6,0,P|195:97|236:83,1,95,4|0,0:1|0:0,0:0:0:0:
352,243,66473,1,8,0:2:0:0:
496,131,66635,1,0,0:0:0:0:
496,131,66716,1,0,0:0:0:0:
496,131,66797,2,0,B|458:148|434:165|434:165|431:213|468:294,1,190,4|10,2:1|0:2,0:0:0:0:
303,142,67284,1,2,0:2:0:0:
222,350,67446,5,8,0:2:0:0:
361,268,67608,1,0,3:0:0:0:
154,203,67770,1,8,0:2:0:0:
372,275,67932,1,0,3:0:0:0:
145,188,68094,5,4,3:2:0:0:
110,178,68175,1,0,3:0:0:0:
75,187,68257,1,0,3:0:0:0:
42,201,68338,1,0,3:0:0:0:
7,192,68419,2,0,L|18:248,1,47.5,8|0,3:2|3:0,0:0:0:0:
245,268,68581,5,0,3:0:0:0:
245,268,68662,1,0,3:0:0:0:
245,268,68743,2,0,L|254:187,1,47.5,4|0,3:1|0:0,0:0:0:0:
187,18,68905,1,0,0:0:0:0:
187,18,68986,1,0,0:0:0:0:
187,18,69067,2,0,P|192:75|203:121,1,95,4|0,0:1|0:0,0:0:0:0:
231,129,69311,1,0,0:0:0:0:
266,129,69392,1,4,0:1:0:0:
334,325,69554,1,0,0:0:0:0:
109,223,69716,5,4,0:1:0:0:
109,223,69797,1,0,0:0:0:0:
109,223,69878,1,0,0:0:0:0:
109,223,69959,1,0,0:0:0:0:
109,223,70040,2,0,B|207:200|196:252|304:233,1,190,4|8,3:1|0:2,0:0:0:0:
416,297,70527,5,0,0:0:0:0:
416,297,70608,1,2,0:2:0:0:
416,297,70689,2,0,B|383:253|387:204|387:204,1,95,0|0,3:0|0:0,0:0:0:0:
398,198,70932,1,0,0:0:0:0:
411,191,71013,1,10,0:2:0:0:
414,95,71175,2,0,P|384:95|357:89,1,47.5,2|0,0:2|0:0,0:0:0:0:
208,209,71338,6,0,L|151:215,2,47.5,4|0|0,3:1|1:0|1:0,0:0:0:0:
53,266,71662,1,0,0:0:0:0:
53,266,71743,2,0,P|63:210|64:164,1,95,2|2,0:2|0:2,0:0:0:0:
140,132,71986,1,0,3:0:0:0:
217,298,72148,5,0,0:0:0:0:
217,298,72230,1,0,0:0:0:0:
217,298,72311,1,10,0:2:0:0:
328,152,72473,1,2,0:2:0:0:
331,355,72635,5,4,3:1:0:0:
392,265,72797,2,0,P|342:261|291:260,1,95,0|8,1:0|0:2,0:0:0:0:
249,195,73040,2,0,B|234:152|234:152|251:97,1,95,2|2,0:2|0:2,0:0:0:0:
248,104,73284,6,0,P|188:97|142:88,1,95,0|0,3:0|0:0,0:0:0:0:
328,152,73527,2,0,L|381:143,1,47.5,0|10,0:0|0:2,0:0:0:0:
204,293,73770,1,2,0:2:0:0:
78,131,73932,5,4,3:1:0:0:
222,203,74094,2,0,B|183:197|183:197|159:208|159:208|129:209,1,95,0|8,1:0|0:2,0:0:0:0:
20,217,74338,2,0,B|59:211|59:211|83:222|83:222|112:223,1,95,2|2,0:2|0:2,0:0:0:0:
165,116,74581,6,0,B|174:68|174:68|154:21,1,95,0|0,3:0|0:0,0:0:0:0:
155,25,74824,1,0,0:0:0:0:
155,25,74905,1,10,0:2:0:0:
93,237,75067,1,2,0:2:0:0:
252,116,75230,6,0,L|305:109,2,47.5,4|0|0,3:1|1:0|1:0,0:0:0:0:
220,292,75554,1,8,0:2:0:0:
220,292,75635,2,0,B|205:243|205:243|229:182,1,95,2|2,0:2|0:2,0:0:0:0:
307,245,75878,2,0,L|409:234,1,95,0|0,3:0|0:0,0:0:0:0:
407,228,76121,1,0,0:0:0:0:
415,220,76203,1,10,0:2:0:0:
463,322,76365,1,2,0:2:0:0:
353,149,76527,6,0,L|359:98,2,47.5,4|0|0,3:1|1:0|1:0,0:0:0:0:
323,338,76851,1,8,0:2:0:0:
323,338,76932,2,0,P|315:286|306:242,1,95,2|2,0:2|0:2,0:0:0:0:
221,202,77175,2,0,P|169:194|125:185,1,95,0|0,3:0|0:0,0:0:0:0:
127,185,77419,1,0,0:0:0:0:
127,185,77500,1,10,0:2:0:0:
314,234,77662,1,2,0:2:0:0:
58,242,77824,6,0,L|28:287,2,47.5,4|0|0,3:1|1:0|1:0,0:0:0:0:
197,109,78148,1,8,0:2:0:0:
197,109,78230,2,0,P|185:47|182:5,1,95,2|2,0:2|0:2,0:0:0:0:
291,89,78473,2,0,P|286:136|276:182,1,95,0|0,3:0|0:0,0:0:0:0:
245,200,78716,1,0,0:0:0:0:
209,203,78797,1,10,0:2:0:0:
389,144,78959,1,2,0:2:0:0:
451,314,79121,6,0,L|459:377,2,47.5,4|0|0,3:1|1:0|1:0,0:0:0:0:
350,225,79446,1,8,0:2:0:0:
350,225,79527,2,0,B|396:236|396:236|446:219,1,95,2|2,0:2|0:2,0:0:0:0:
426,59,79770,2,0,B|380:48|380:48|330:65,1,95,0|0,3:0|0:0,0:0:0:0:
334,63,80013,1,0,0:0:0:0:
334,63,80094,1,10,0:2:0:0:
389,144,80257,1,2,0:2:0:0:
202,142,80419,6,0,B|271:108|329:166|398:140,1,190,4|8,3:1|0:2,0:0:0:0:
249,242,80905,1,0,0:0:0:0:
249,242,80986,1,2,0:2:0:0:
249,242,81067,2,0,P|255:291|248:339,1,95,0|0,3:0|0:0,0:0:0:0:
217,353,81311,1,0,0:0:0:0:
181,346,81392,1,10,0:2:0:0:
112,150,81554,1,2,0:2:0:0:
30,326,81716,6,0,L|11:376,2,47.5,4|0|0,3:1|1:0|1:0,0:0:0:0:
169,229,82040,1,8,0:2:0:0:
169,229,82121,2,0,P|115:241|64:247,1,95,0|2,0:0|0:2,0:0:0:0:
57,241,82365,1,0,3:0:0:0:
116,57,82527,1,0,0:0:0:0:
116,57,82608,1,0,0:0:0:0:
116,57,82689,1,10,0:2:0:0:
251,189,82851,1,2,0:2:0:0:
364,121,83013,5,4,3:1:0:0:
190,125,83175,2,0,P|195:72|197:25,1,95,0|8,0:0|0:2,0:0:0:0:
264,178,83419,2,0,P|266:225|270:272,1,95,2|2,0:2|0:2,0:0:0:0:
285,287,83662,1,0,3:0:0:0:
131,238,83824,6,0,L|183:229,1,47.5,0|0,0:0|0:0,0:0:0:0:
348,108,83986,2,0,L|452:90,1,95,10|2,0:2|0:2,0:0:0:0:
449,97,84230,1,0,0:0:0:0:
458,103,84311,2,0,B|446:146|446:146|464:196,1,95,4|0,3:1|1:0,0:0:0:0:
375,346,84635,1,8,0:2:0:0:
375,346,84716,2,0,B|392:298|392:298|380:255,1,95,2|2,0:2|0:2,0:0:0:0:
318,193,84959,2,0,P|259:193|203:186,1,95,0|0,3:0|0:0,0:0:0:0:
191,171,85203,1,0,0:0:0:0:
169,142,85284,1,10,0:2:0:0:
177,325,85446,2,0,P|188:293|189:270,1,47.5,2|0,0:2|0:0,0:0:0:0:
74,98,85608,5,4,3:1:0:0:
74,98,85689,1,0,3:0:0:0:
74,97,85770,2,0,P|74:120|76:144,1,47.5,0|0,3:0|0:0,0:0:0:0:
27,250,85932,1,8,0:2:0:0:
27,250,86013,2,0,L|127:224,1,95,2|2,0:2|0:2,0:0:0:0:
189,279,86257,1,4,3:1:0:0:
0,141,86419,6,0,L|46:150,1,47.5,0|0,3:0|3:0,0:0:0:0:
169,142,86581,1,14,3:2:0:0:
90,326,86743,1,2,0:2:0:0:
255,212,86905,5,4,3:1:0:0:
255,212,86986,1,0,3:0:0:0:
255,212,87067,2,0,P|282:220|306:223,1,47.5,0|0,0:0|0:0,0:0:0:0:
456,189,87230,1,8,0:2:0:0:
456,189,87311,2,0,P|409:214|386:267,1,95,2|2,0:2|0:2,0:0:0:0:
405,338,87554,1,4,3:1:0:0:
338,138,87716,6,0,L|322:92,1,47.5,0|0,3:0|3:0,0:0:0:0:
293,309,87878,1,14,3:2:0:0:
477,273,88040,1,2,0:2:0:0:
293,309,88203,5,4,3:1:0:0:
257,304,88284,1,0,3:0:0:0:
224,318,88365,1,0,3:0:0:0:
191,332,88446,1,0,3:0:0:0:
156,325,88527,2,0,L|145:272,1,47.5,8|2,3:2|3:2,0:0:0:0:
243,146,88689,1,0,3:0:0:0:
243,146,88770,1,2,3:2:0:0:
243,146,88851,2,0,L|238:211,1,47.5,4|0,3:1|3:0,0:0:0:0:
50,280,89013,6,0,L|53:232,1,47.5,0|0,3:0|3:0,0:0:0:0:
257,209,89175,2,0,L|253:161,1,47.5,14|0,3:2|3:0,0:0:0:0:
136,161,89338,2,0,L|139:113,1,47.5,2|0,3:2|3:0,0:0:0:0:
213,41,89500,6,0,B|158:65|158:65|147:196,1,170.999994781494,4|0,3:1|0:0,0:0:0:0:
331,99,89824,2,0,B|428:83|416:139|498:124,1,170.999994781494,12|0,3:2|0:0,0:0:0:0:
466,356,90148,2,0,P|433:287|494:222,1,170.999994781494,4|2,3:1|0:2,0:0:0:0:
374,195,90473,2,0,B|302:193|226:177|226:177|261:196|284:221,1,213.750008153916,12|0,0:2|0:0,0:0:0:0:
180,303,90797,5,4,3:1:0:0:
214,292,90878,1,2,0:2:0:0:
250,297,90959,1,2,0:2:0:0:
286,302,91040,1,2,0:2:0:0:
320,290,91121,2,0,L|370:299,1,47.5,10|2,0:2|0:2,0:0:0:0:
115,195,91284,1,2,0:2:0:0:
115,195,91365,1,2,0:2:0:0:
115,195,91446,2,0,P|107:132|98:91,1,95,2|2,3:2|0:2,0:0:0:0:
43,278,91770,1,8,0:2:0:0:
209,92,91932,2,0,P|205:117|203:145,1,47.5,2|2,0:2|0:2,0:0:0:0:
320,290,92094,5,4,3:1:0:0:
361,298,92175,1,2,0:2:0:0:
403,288,92257,1,2,0:2:0:0:
431,256,92338,1,2,0:2:0:0:
443,215,92419,1,10,0:2:0:0:
456,218,92500,1,2,0:2:0:0:
469,220,92581,1,2,0:2:0:0:
482,223,92662,1,2,0:2:0:0:
495,226,92743,6,0,L|394:236,1,95,2|2,3:2|0:2,0:0:0:0:
326,186,92986,1,0,0:0:0:0:
326,186,93067,2,0,B|310:138|310:138|318:87,1,95,8|0,0:2|0:0,0:0:0:0:
201,223,93392,5,4,3:1:0:0:
218,254,93473,1,2,0:2:0:0:
225,288,93554,1,2,0:2:0:0:
218,322,93635,1,2,0:2:0:0:
199,351,93716,2,0,P|173:350|149:345,1,47.5,10|0,0:2|0:0,0:0:0:0:
66,185,93878,2,0,P|92:184|116:179,1,47.5,2|0,0:2|0:0,0:0:0:0:
218,12,94040,6,0,P|204:63|205:107,1,95,4|0,3:1|0:2,0:0:0:0:
204,104,94284,1,0,0:2:0:0:
204,104,94365,1,8,0:2:0:0:
393,55,94527,1,0,0:2:0:0:
418,279,94689,6,0,L|409:213,1,47.5,4|0,0:1|0:0,0:0:0:0:
410,141,94851,1,2,0:2:0:0:
400,146,94932,1,2,0:2:0:0:
391,152,95013,1,12,0:2:0:0:
269,202,95175,1,2,0:2:0:0:
430,242,95338,5,4,3:1:0:0:
233,119,95500,1,2,0:2:0:0:
424,135,95662,6,0,L|371:142,1,47.5,14|0,0:2|0:0,0:0:0:0:
276,294,95824,2,0,L|228:287,1,47.5,0|0,3:0|3:0,0:0:0:0:
37,177,95986,5,4,3:1:0:0:
70,163,96067,1,2,0:2:0:0:
103,175,96148,1,2,0:2:0:0:
136,187,96230,1,2,0:2:0:0:
170,178,96311,1,10,0:2:0:0:
174,164,96392,1,2,0:2:0:0:
178,150,96473,1,0,0:0:0:0:
182,136,96554,1,2,0:2:0:0:
186,122,96635,6,0,P|182:68|168:24,1,95,2|2,3:2|0:2,0:0:0:0:
21,85,96878,1,2,0:2:0:0:
21,85,96959,2,0,P|25:139|39:183,1,95,8|2,0:2|0:2,0:0:0:0:
47,187,97203,1,2,0:2:0:0:
59,193,97284,6,0,P|92:184|131:176,1,47.5,4|0,3:1|0:0,0:0:0:0:
212,289,97446,2,0,P|235:294|258:300,1,47.5,2|0,0:2|0:0,0:0:0:0:
327,358,97608,1,10,0:2:0:0:
236,195,97770,1,2,0:2:0:0:
135,354,97932,6,0,B|117:304|117:304|125:258,1,95,4|2,3:1|0:2,0:0:0:0:
195,202,98175,1,0,0:0:0:0:
195,202,98257,2,0,L|179:95,1,95,8|2,0:2|0:2,0:0:0:0:
355,276,98581,5,4,3:1:0:0:
361,240,98662,1,2,0:2:0:0:
346,207,98743,1,2,0:2:0:0:
332,174,98824,1,2,0:2:0:0:
338,138,98905,6,0,L|336:77,1,47.5,10|2,0:2|0:2,0:0:0:0:
269,253,99067,2,0,L|219:279,1,47.5,2|2,0:2|0:2,0:0:0:0:
420,172,99230,2,0,P|465:186|512:197,1,95,4|2,3:1|0:2,0:0:0:0:
338,138,99473,6,0,P|307:144|277:151,1,47.5,2|0,0:2|3:0,0:0:0:0:
442,319,99716,2,0,P|446:295|451:272,1,47.5,2|2,0:2|0:2,0:0:0:0:
345,252,99878,5,4,3:1:0:0:
310,248,99959,1,2,0:2:0:0:
278,264,100040,1,2,0:2:0:0:
259,294,100121,1,2,0:2:0:0:
251,329,100203,2,0,P|196:335|140:334,1,95,10|0,0:2|0:0,0:0:0:0:
58,266,100446,1,0,0:0:0:0:
58,266,100527,2,0,P|91:266|116:260,1,47.5,4|0,3:1|0:0,0:0:0:0:
208,140,100689,2,0,L|218:114,2,23.75,0|0|0,3:0|0:0|3:0,0:0:0:0:
193,156,100851,2,0,B|204:205|204:205|185:267,1,95,10|2,3:2|3:2,0:0:0:0:
92,180,101094,1,2,3:2:0:0:
92,180,101175,5,4,3:1:0:0:
102,145,101257,1,2,0:2:0:0:
91,110,101338,1,2,0:2:0:0:
81,75,101419,1,2,0:2:0:0:
89,40,101500,2,0,P|115:42|146:47,1,47.5,10|2,0:2|0:2,0:0:0:0:
401,50,101662,2,0,L|381:111,1,47.5,0|2,0:0|0:2,0:0:0:0:
311,161,101824,2,0,P|300:109|289:57,1,95,2|2,3:2|0:2,0:0:0:0:
479,147,102148,2,0,P|470:187|459:239,1,95,8|2,0:2|0:2,0:0:0:0:
488,328,102392,1,2,0:2:0:0:
488,328,102473,5,4,3:1:0:0:
447,336,102554,1,2,0:2:0:0:
405,326,102636,1,0,0:0:0:0:
377,294,102717,1,0,0:0:0:0:
365,253,102798,1,0,0:0:0:0:
352,256,102879,1,2,0:2:0:0:
339,258,102960,1,2,0:2:0:0:
326,261,103041,1,2,0:2:0:0:
312,265,103121,5,2,3:2:0:0:
464,153,103284,1,2,0:2:0:0:
219,237,103446,1,8,0:2:0:0:
319,357,103608,1,0,0:0:0:0:
381,154,103770,5,4,3:1:0:0:
381,154,103851,2,0,P|307:149|280:146,1,95,2|2,0:2|0:2,0:0:0:0:
274,134,104094,2,0,P|263:100|259:77,1,47.5,10|0,0:2|0:0,0:0:0:0:
153,245,104257,1,2,0:2:0:0:
165,256,104338,1,0,0:0:0:0:
179,263,104419,2,0,P|192:214|186:159,1,95,4|0,3:1|0:2,0:0:0:0:
65,52,104662,1,0,0:2:0:0:
65,52,104743,2,0,P|52:101|58:156,1,95,8|0,0:2|0:2,0:0:0:0:
55,144,104986,1,0,0:0:0:0:
55,144,105067,5,4,0:1:0:0:
142,92,105230,2,0,L|199:82,1,47.5,2|0,0:2|0:0,0:0:0:0:
289,219,105392,2,0,L|336:224,1,47.5,12|0,0:2|0:0,0:0:0:0:
345,32,105554,2,0,L|398:23,1,47.5,2|0,0:2|0:0,0:0:0:0:
489,125,105716,6,0,B|453:124|419:111|419:111|359:132|359:132|327:124|278:122,1,213.750008153916,4|0,3:1|0:0,0:0:0:0:
268,137,106040,1,14,0:2:0:0:
432,209,106203,2,0,P|422:238|421:259,1,47.5,0|0,3:0|0:0,0:0:0:0:
249,315,106365,6,0,B|256:323|200:253|120:266,1,142.5,4|2,3:1|0:2,0:0:0:0:
104,275,106689,2,0,L|110:163,1,95,8|2,0:2|0:2,0:0:0:0:
46,347,107013,5,0,3:2:0:0:
19,195,107175,1,2,0:2:0:0:
11,184,107257,1,2,0:2:0:0:
215,238,107419,1,2,0:2:0:0:
209,256,107500,1,2,0:2:0:0:
120,163,107662,6,0,P|200:154|278:136,1,142.500005435944,4|2,3:1|0:2,0:0:0:0:
312,78,107905,2,0,P|321:39|323:15,1,47.5,2|8,0:2|0:2,0:0:0:0:
472,275,108148,1,2,0:2:0:0:
415,143,108311,6,0,B|379:188|392:241|392:241,1,95,4|2,3:1|0:2,0:0:0:0:
447,295,108554,2,0,P|456:321|468:354,1,47.5,2|8,0:2|0:2,0:0:0:0:
301,224,108797,1,2,0:2:0:0:
162,330,108959,6,0,P|95:330|24:286,1,142.5,4|2,3:1|0:2,0:0:0:0:
39,279,109284,2,0,P|46:220|48:169,1,95,8|2,0:2|0:2,0:0:0:0:
260,28,109608,2,0,P|262:75|268:122,1,95,4|2,3:1|0:2,0:0:0:0:
341,174,109851,2,0,P|367:176|393:179,1,47.5,2|8,0:2|0:2,0:0:0:0:
175,103,110094,1,2,0:2:0:0:
330,159,110257,6,0,B|246:143|252:199|159:182,1,170.999994781494,4|2,3:1|0:2,0:0:0:0:
90,369,110581,2,0,P|164:365|208:284,1,170.999994781494,12|0,3:2|0:0,0:0:0:0:
108,100,110905,2,0,B|59:130|59:130|40:185|76:240,1,170.999994781494,4|2,3:2|0:2,0:0:0:0:
90,244,111230,5,12,0:2:0:0:
249,141,111392,2,0,L|263:200,1,56.9999982604981,2|0,0:2|0:0,0:0:0:0:
379,310,111554,5,4,3:1:0:0:
421,311,111635,1,2,0:2:0:0:
457,288,111716,1,2,0:2:0:0:
468,246,111797,1,2,0:2:0:0:
455,205,111878,1,10,0:2:0:0:
451,191,111959,1,2,0:2:0:0:
448,176,112040,1,0,0:0:0:0:
445,161,112121,1,2,0:2:0:0:
442,146,112203,5,2,3:2:0:0:
262,196,112365,1,2,0:2:0:0:
262,196,112446,1,2,0:2:0:0:
262,196,112527,2,0,L|155:184,1,95,8|2,0:2|0:2,0:0:0:0:
82,179,112770,1,2,0:2:0:0:
82,179,112851,6,0,B|260:139|173:295|351:267,2,285.000010871888,4|10|2,3:1|0:2|3:2,0:0:0:0:
0,297,113662,1,2,0:2:0:0:
188,348,113824,2,0,P|190:295|196:251,1,95,8|0,0:2|0:0,0:0:0:0:
8,45,114148,5,4,3:1:0:0:
8,45,114230,2,0,B|-12:90|-12:90|1:141,1,95,2|2,0:2|0:2,0:0:0:0:
82,177,114473,2,0,L|71:236,2,47.5,10|0|2,0:2|0:0|0:2,0:0:0:0:
190,32,114797,1,4,3:1:0:0:
107,84,114959,1,0,0:2:0:0:
107,84,115040,1,0,0:2:0:0:
107,84,115121,1,8,0:2:0:0:
276,196,115284,1,0,0:2:0:0:
228,305,115446,5,4,0:1:0:0:
174,228,115608,1,2,0:2:0:0:
174,228,115689,1,2,0:2:0:0:
174,228,115770,2,0,P|186:160|189:130,1,95,12|2,0:2|0:2,0:0:0:0:
276,86,116013,1,0,0:0:0:0:
276,86,116094,2,0,P|281:133|290:179,1,95,4|2,3:1|0:2,0:0:0:0:
290,179,116338,1,0,0:0:0:0:
290,179,116419,1,14,0:2:0:0:
89,173,116581,2,0,P|62:170|26:164,1,47.5,0|0,3:0|3:0,0:0:0:0:
256,277,116743,6,0,B|313:267|353:292|409:283,1,142.5,4|2,3:1|0:2,0:0:0:0:
416,292,117067,2,0,P|421:262|422:240,2,47.5,10|2|0,0:2|0:2|0:0,0:0:0:0:
294,363,117392,1,2,3:2:0:0:
385,175,117554,1,2,0:2:0:0:
385,175,117635,1,2,0:2:0:0:
385,175,117716,2,0,P|395:124|398:76,1,95,8|2,0:2|0:2,0:0:0:0:
305,133,117959,1,2,0:2:0:0:
305,133,118040,5,4,3:1:0:0:
269,147,118121,1,2,0:2:0:0:
251,181,118203,1,2,0:2:0:0:
263,216,118284,1,2,0:2:0:0:
293,238,118365,1,10,0:2:0:0:
323,260,118446,1,2,0:2:0:0:
334,296,118527,1,2,0:2:0:0:
325,332,118608,1,2,0:2:0:0:
289,345,118689,1,4,3:1:0:0:
218,287,118851,5,2,0:2:0:0:
218,287,118932,1,0,0:0:0:0:
218,287,119013,2,0,P|165:283|116:275,1,95,8|2,0:2|0:2,0:0:0:0:
120,262,119257,1,2,0:2:0:0:
120,262,119338,2,0,L|114:206,1,47.5,4|2,3:1|0:2,0:0:0:0:
18,114,119500,1,2,0:2:0:0:
18,114,119581,1,2,0:2:0:0:
18,114,119662,2,0,L|84:121,1,47.5,10|2,0:2|0:2,0:0:0:0:
194,45,119824,2,0,L|131:56,1,47.5,2|2,0:2|0:2,0:0:0:0:
0,126,119986,6,0,L|163:140,1,142.5,4|2,3:1|0:2,0:0:0:0:
161,128,120311,2,0,P|170:182|176:228,1,95,0|2,3:0|0:2,0:0:0:0:
234,293,120554,1,2,0:2:0:0:
234,293,120635,5,4,3:1:0:0:
271,298,120716,1,2,0:2:0:0:
307,288,120797,1,2,0:2:0:0:
336,264,120878,1,2,0:2:0:0:
343,226,120959,1,10,0:2:0:0:
173,112,121121,1,0,0:0:0:0:
272,54,121284,6,0,L|262:165,1,95,4|0,3:1|3:0,0:0:0:0:
419,122,121527,1,0,3:0:0:0:
419,122,121608,2,0,L|429:233,1,95,10|2,3:2|3:2,0:0:0:0:
339,384,121851,1,2,3:2:0:0:
339,384,121932,6,0,B|341:335|324:311|324:311|343:269|343:269|332:237|333:190,1,190,4|10,3:1|0:2,0:0:0:0:
140,316,122419,1,0,0:0:0:0:
140,316,122500,1,2,0:2:0:0:
140,316,122581,2,0,P|84:312|30:305,1,95,2|2,3:2|0:2,0:0:0:0:
228,245,122905,1,8,0:2:0:0:
60,114,123067,2,0,P|56:84|50:58,1,47.5,2|2,0:2|0:2,0:0:0:0:
153,45,123230,6,0,P|148:118|146:202,1,142.5,4|0,3:1|0:0,0:0:0:0:
146,187,123554,2,0,P|193:183|253:177,1,95,10|2,0:2|0:2,0:0:0:0:
82,361,123878,6,0,P|40:313|64:205,1,142.5,2|0,3:2|0:0,0:0:0:0:
56,223,124203,1,8,0:2:0:0:
220,289,124365,1,0,0:0:0:0:
309,258,124527,5,4,3:1:0:0:
309,258,124608,2,0,B|340:212|340:212|345:107,1,142.5,2|10,0:2|0:2,0:0:0:0:
392,303,125013,1,2,0:2:0:0:
512,225,125175,2,0,P|461:216|403:213,1,95,4|0,3:1|0:2,0:0:0:0:
251,181,125419,1,0,0:2:0:0:
251,181,125500,2,0,P|260:130|263:72,1,95,8|0,0:2|0:2,0:0:0:0:
350,78,125743,5,0,0:0:0:0:
350,78,125824,2,0,P|346:101|344:142,1,47.5,4|0,0:1|0:0,0:0:0:0:
277,285,125986,1,2,0:2:0:0:
154,127,126148,1,12,0:2:0:0:
354,257,126311,5,2,0:2:0:0:
354,257,126392,1,0,0:0:0:0:
354,257,126473,2,0,L|203:247,1,142.5,4|0,3:1|0:0,0:0:0:0:
199,239,126797,1,14,0:2:0:0:
60,344,126959,1,0,3:0:0:0:
45,355,127040,1,0,3:0:0:0:
32,365,127121,5,4,3:1:0:0:
122,295,127284,1,2,0:2:0:0:
66,103,127446,1,8,0:2:0:0:
32,176,127608,1,2,0:2:0:0:
248,193,127770,6,0,P|245:125|246:91,1,95,0|2,3:2|0:2,0:0:0:0:
180,59,128013,2,0,P|122:95|92:111,1,95,2|2,0:2|0:2,0:0:0:0:
124,194,128257,2,0,P|145:201|167:216,1,47.5,2|0,0:2|0:0,0:0:0:0:
344,150,128419,5,4,3:1:0:0:
409,197,128581,1,2,0:2:0:0:
302,334,128743,1,8,0:2:0:0:
241,281,128905,1,2,0:2:0:0:
327,247,129067,6,0,P|330:186|324:75,1,142.5,4|2,3:1|0:2,0:0:0:0:
331,92,129392,2,0,P|295:90|276:87,1,47.5,8|2,0:2|0:2,0:0:0:0:
202,68,129554,1,2,0:2:0:0:
433,67,129716,5,4,3:1:0:0:
433,67,129797,1,0,3:0:0:0:
433,67,129878,1,0,3:0:0:0:
433,67,129959,1,0,3:0:0:0:
433,67,130040,2,0,L|431:121,1,47.5,8|0,3:2|3:0,0:0:0:0:
238,218,130203,2,0,L|240:171,1,47.5,0|0,3:0|0:0,0:0:0:0:
126,21,130365,5,4,3:1:0:0:
90,8,130446,1,0,3:0:0:0:
55,23,130527,1,0,3:0:0:0:
40,58,130608,1,0,3:0:0:0:
55,92,130689,2,0,P|62:135|68:170,1,47.5,12|0,3:2|3:0,0:0:0:0:
228,235,130851,2,0,L|175:227,1,47.5,0|0,3:0|3:0,0:0:0:0:
0,226,131013,6,0,B|52:238|52:238|173:204,1,170.999994781494,4|0,3:1|0:0,0:0:0:0:
306,26,131338,2,0,B|258:10|258:10|196:27,1,113.999996520996,4|0,0:1|0:0,0:0:0:0:
316,286,131662,5,0,3:0:0:0:
329,295,131743,1,0,3:0:0:0:
341,303,131824,2,0,B|352:269|352:269|350:243,1,56.9999982604981,0|0,0:0|3:0,0:0:0:0:
248,111,131986,2,0,L|262:226,1,113.999996520996,8|2,3:2|2:2,0:0:0:0:
164,292,132230,1,2,2:2:0:0:
161,308,132311,5,6,2:2:0:0:
256,192,132392,12,0,134905,0:0:0:0:
