osu file format v14

[General]
AudioFilename: audio.mp3
AudioLeadIn: 0
PreviewTime: 5175
Countdown: 0
SampleSet: Soft
StackLeniency: 0.7
Mode: 0
LetterboxInBreaks: 0
WidescreenStoryboard: 1

[Editor]
Bookmarks: 25932,38905,70040,90797,111554
DistanceSpacing: 0.8
BeatDivisor: 2
GridSize: 8
TimelineZoom: 0.8999997

[Metadata]
Title:Wild Card
TitleUnicode:Wild Card
Artist:HyuN
ArtistUnicode:HyuN
Creator:cococolaco
Version:Easy
Source:osu!
Tags:loli catgirl mirash pandahero mappers' guild featured artist
BeatmapID:1863204
BeatmapSetID:891334

[Difficulty]
HPDrainRate:3
CircleSize:3
OverallDifficulty:3
ApproachRate:4
SliderMultiplier:0.999999999999999
SliderTickRate:1

[Events]
//Background and Video events
0,0,"1055135.jpg",0,0
//Break Periods
2,70240,79099
//Storyboard Layer 0 (Background)
//Storyboard Layer 1 (Fail)
//Storyboard Layer 2 (Pass)
//Storyboard Layer 3 (Foreground)
//Storyboard Sound Samples

[TimingPoints]
5176,324.324324324324,4,1,1,30,1,0
15554,-100,4,1,1,40,0,0
28527,-100,4,2,1,40,0,0
33716,-100,4,1,1,30,0,0
35013,-100,4,1,1,40,0,0
36311,-100,4,1,1,50,0,0
37608,-100,4,1,1,60,0,0
38905,-100,4,1,1,75,0,0
49284,-100,4,1,1,60,0,0
59662,-100,4,1,1,75,0,0
70040,-100,4,1,1,40,0,0
71338,-100,4,1,1,50,0,0
72635,-100,4,1,1,60,0,0
73932,-100,4,1,1,75,0,0
75230,-100,4,1,1,40,0,0
76528,-100,4,1,1,50,0,0
77825,-100,4,1,1,60,0,0
79122,-100,4,1,1,75,0,0
80419,-100,4,1,1,50,0,0
83014,-100,4,1,1,60,0,0
84311,-100,4,1,1,75,0,0
89500,-100,4,3,1,75,0,0
90797,-100,4,1,1,75,0,0
132959,-100,4,1,1,60,0,0
133608,-100,4,1,1,45,0,0
134257,-100,4,1,1,30,0,0
134905,-100,4,1,1,5,0,0

[Colours]
Combo1 : 116,149,106
Combo2 : 116,79,123
Combo3 : 112,122,160
Combo4 : 160,105,109

[HitObjects]
256,192,23338,12,6,25932,2:0:0:0:
33,337,28527,6,0,P|99:320|446:274,1,400,4|0,1:0|0:0,2:0:0:0:
427,274,31121,2,0,P|350:272|226:208,1,200,0|0,0:0|0:0,2:0:0:0:
293,69,32419,2,0,P|370:71|494:135,1,200,0|0,0:0|0:0,2:0:0:0:
427,274,33716,6,0,B|262:250|319:352|125:337,1,300,4|0,0:1|0:0,2:0:0:0:
74,294,35013,2,0,P|52:236|46:93,2,200,4|2|4,0:1|0:2|0:1,2:0:0:0:
154,155,36959,2,0,P|223:126|363:117,1,200,2|4,0:2|0:1,2:0:0:0:
458,229,38257,1,2,0:2:0:0:
335,331,38905,6,0,P|323:284|307:125,1,200,4|2,3:1|3:2,0:0:0:0:
152,177,40203,2,0,P|94:184|41:187,2,99.9999999999999,4|8|2,3:1|0:2|3:2,0:0:0:0:
215,128,41175,1,10,0:2:0:0:
287,161,41500,6,0,P|293:224|292:367,1,200,4|2,3:1|3:2,0:0:0:0:
413,256,42797,2,0,P|420:189|419:143,1,99.9999999999999,4|10,3:1|0:2,0:0:0:0:
362,99,43446,2,0,P|293:94|245:80,1,99.9999999999999,2|10,3:2|0:2,0:0:0:0:
216,21,44094,6,0,P|155:112|160:211,1,200,4|0,3:1|3:2,0:0:0:0:
148,359,45392,2,0,L|249:345,1,99.9999999999999,4|0,3:1|3:0,0:0:0:0:
277,271,46040,2,0,L|378:285,1,99.9999999999999,4|0,3:1|3:0,0:0:0:0:
437,336,46689,6,0,P|431:271|428:132,1,200,4|4,3:1|3:1,0:0:0:0:
287,59,47986,2,0,P|235:20|183:4,1,99.9999999999999,4|0,3:1|3:0,0:0:0:0:
137,59,48635,1,4,3:1:0:0:
162,134,48959,1,4,3:1:0:0:
124,204,49284,6,0,L|17:223,2,99.9999999999999,6|8|2,2:0|0:2|3:2,0:0:0:0:
187,252,50257,1,8,0:2:0:0:
231,185,50581,2,0,P|324:171|433:235,1,200,2|2,3:2|3:2,0:0:0:0:
380,349,51878,6,0,P|325:341|284:321,1,99.9999999999999,4|10,3:1|0:2,0:0:0:0:
288,241,52527,1,2,3:2:0:0:
256,167,52851,1,10,0:2:0:0:
298,99,53175,2,0,L|305:-10,2,99.9999999999999,2|8|2,0:2|0:2|3:2,0:0:0:0:
144,52,54473,6,0,B|140:159|186:136|172:255,1,200,4|2,0:1|3:2,0:0:0:0:
186,326,55446,1,8,0:2:0:0:
113,360,55770,2,0,P|60:370|9:376,2,99.9999999999999,4|10|2,0:1|0:2|0:2,0:0:0:0:
260,298,57067,6,0,P|331:299|404:177,1,200,4|2,0:1|0:2,0:0:0:0:
363,135,58040,1,2,0:2:0:0:
287,161,58365,2,0,P|237:160|171:156,1,99.9999999999999,4|8,0:1|0:2,0:0:0:0:
176,236,59013,1,4,3:1:0:0:
202,311,59338,1,4,0:1:0:0:
273,347,59662,6,0,P|336:349|438:234,1,200,6|2,2:0|3:2,0:0:0:0:
357,120,60959,2,0,P|284:129|149:133,1,200,2|2,3:2|3:2,0:0:0:0:
38,241,62257,6,0,L|20:373,2,99.9999999999999,4|10|6,3:1|0:2|3:2,0:0:0:0:
20,158,63230,1,8,0:2:0:0:
24,75,63554,2,0,B|70:53|70:53|129:49,1,99.9999999999999,4|4,3:1|0:1,0:0:0:0:
175,106,64203,2,0,B|221:128|221:128|280:132,1,99.9999999999999,4|4,3:1|0:1,0:0:0:0:
338,172,64851,6,0,P|344:234|353:394,1,200,4|0,3:1|3:0,0:0:0:0:
451,247,66148,2,0,P|456:184|455:142,1,99.9999999999999,4|8,0:1|0:2,0:0:0:0:
402,86,66797,2,0,P|339:91|297:90,1,99.9999999999999,4|10,2:1|0:2,0:0:0:0:
316,169,67446,6,0,B|206:159|253:237|90:226,1,200,8|4,0:2|3:2,0:0:0:0:
67,176,68419,1,8,3:2:0:0:
119,115,68743,2,0,P|126:56|126:12,2,99.9999999999999,4|4|4,3:1|0:1|0:1,0:0:0:0:
67,176,69716,2,0,P|67:225|74:275,1,99.9999999999999,4|4,0:1|3:1,0:0:0:0:
79,142,80419,6,0,P|138:132|197:115,1,99.9999999999999,4|8,3:1|0:2,0:0:0:0:
240,73,81067,2,0,P|288:85|337:93,1,99.9999999999999,0|10,3:0|0:2,0:0:0:0:
416,78,81716,2,0,P|432:134|371:295,1,200,4|0,3:1|3:0,0:0:0:0:
241,306,83013,6,0,B|126:315|186:348|46:365,2,200,4|0|4,3:1|3:0|3:1,0:0:0:0:
168,163,84959,2,0,P|154:94|151:59,1,99.9999999999999,0|10,3:0|0:2,0:0:0:0:
219,21,85608,6,0,P|241:71|230:234,1,200,4|4,3:1|3:1,0:0:0:0:
318,212,86581,1,14,3:2:0:0:
388,174,86905,2,0,P|407:254|377:381,1,200,4|4,3:1|3:1,0:0:0:0:
303,371,87878,1,14,3:2:0:0:
245,315,88203,6,0,B|196:304|196:304|134:327,1,99.9999999999999,4|8,3:1|3:2,0:0:0:0:
113,249,88851,2,0,B|64:260|64:260|2:237,1,99.9999999999999,4|14,3:1|3:2,0:0:0:0:
3,163,89500,1,4,3:1:0:0:
31,88,89824,2,0,P|72:70|140:55,1,99.9999999999999,12|4,3:2|3:1,0:0:0:0:
202,80,90473,1,12,0:2:0:0:
277,53,90797,6,0,P|286:103|291:166,1,99.9999999999999,4|10,3:1|0:2,0:0:0:0:
335,218,91446,2,0,P|326:268|321:331,1,99.9999999999999,2|8,3:2|0:2,0:0:0:0:
247,354,92094,2,0,P|143:350|35:351,1,200,4|2,3:1|3:2,0:0:0:0:
39,190,93392,6,0,P|78:136|218:131,1,200,4|4,3:1|3:1,0:0:0:0:
271,164,94365,1,8,0:2:0:0:
346,136,94689,2,0,P|347:185|353:251,1,99.9999999999999,4|12,0:1|0:2,0:0:0:0:
424,268,95338,2,0,P|423:317|417:383,1,99.9999999999999,4|14,3:1|0:2,0:0:0:0:
341,348,95986,6,0,P|235:339|195:242,1,200,4|2,3:1|3:2,0:0:0:0:
105,130,97284,2,0,B|224:100|189:179|314:152,1,200,4|4,3:1|3:1,0:0:0:0:
361,106,98257,1,8,0:2:0:0:
437,132,98581,6,0,P|432:207|428:253,1,99.9999999999999,4|10,3:1|0:2,0:0:0:0:
372,287,99230,2,0,B|339:297|339:297|256:290,1,99.9999999999999,4|0,3:1|3:0,0:0:0:0:
224,228,99878,2,0,B|191:218|191:218|108:225,1,99.9999999999999,4|10,3:1|0:2,0:0:0:0:
59,178,100527,1,4,3:1:0:0:
56,98,100851,1,10,3:2:0:0:
121,51,101175,6,0,B|228:36|208:82|327:69,1,200,4|2,3:1|3:2,0:0:0:0:
441,171,102473,2,0,P|465:229|370:332,1,200,4|2,3:1|3:2,0:0:0:0:
330,275,103446,1,8,0:2:0:0:
266,226,103770,6,0,P|208:231|52:245,1,200,4|4,3:1|3:1,0:0:0:0:
39,168,104743,1,8,0:2:0:0:
102,119,105067,2,0,P|165:102|196:70,1,99.9999999999999,4|12,0:1|0:2,0:0:0:0:
255,33,105716,2,0,P|314:52|353:74,1,99.9999999999999,4|14,3:1|0:2,0:0:0:0:
425,87,106365,6,0,P|421:182|422:321,1,200,4|0,3:1|3:2,0:0:0:0:
340,283,107338,1,8,0:2:0:0:
263,306,107662,2,0,B|154:293|174:355|41:333,1,200,4|4,3:1|3:1,0:0:0:0:
36,263,108635,1,8,0:2:0:0:
36,183,108959,6,0,P|34:127|46:76,1,99.9999999999999,4|8,3:1|0:2,0:0:0:0:
111,42,109608,2,0,P|167:40|218:52,1,99.9999999999999,4|8,3:1|0:2,0:0:0:0:
277,97,110257,1,4,3:1:0:0:
354,75,110581,1,12,3:2:0:0:
375,151,110905,1,4,3:2:0:0:
299,177,111230,1,12,0:2:0:0:
305,256,111554,6,0,P|269:345|149:332,1,200,4|2,3:1|3:2,0:0:0:0:
110,305,112527,1,8,0:2:0:0:
54,247,112851,2,0,P|48:183|57:28,1,200,4|2,3:1|3:2,0:0:0:0:
193,125,114148,6,0,B|304:95|276:160|406:128,2,200,4|4|4,3:1|3:1|0:1,0:0:0:0:
139,184,115770,1,12,0:2:0:0:
180,252,116094,2,0,P|187:307|187:358,1,99.9999999999999,4|14,3:1|0:2,0:0:0:0:
261,381,116743,6,0,P|307:349|307:214,1,200,4|2,3:1|3:2,0:0:0:0:
368,68,118040,2,0,P|292:114|175:133,2,200,4|4|4,3:1|3:1|3:1,0:0:0:0:
425,217,119986,5,4,3:1:0:0:
312,330,120635,2,0,P|205:334|84:345,1,200,4|4,3:1|3:1,0:0:0:0:
62,279,121608,1,10,3:2:0:0:
74,200,121932,6,0,P|148:190|215:76,1,200,4|2,3:1|3:2,0:0:0:0:
291,116,122905,1,8,0:2:0:0:
361,77,123230,2,0,P|361:139|366:294,1,200,4|2,3:1|3:2,0:0:0:0:
207,250,124527,6,0,P|130:264|75:396,2,200,4|4|4,3:1|3:1|0:1,0:0:0:0:
282,275,126148,1,12,0:2:0:0:
346,227,126473,2,0,P|354:170|350:112,1,99.9999999999999,4|14,3:1|0:2,0:0:0:0:
286,81,127121,6,0,P|211:85|156:87,1,99.9999999999999,4|8,3:1|0:2,0:0:0:0:
120,131,127770,1,0,3:2:0:0:
41,115,128094,1,8,0:2:0:0:
14,190,128419,2,0,P|19:249|24:296,1,99.9999999999999,4|8,3:1|0:2,0:0:0:0:
93,327,129067,2,0,L|195:311,1,99.9999999999999,4|8,3:1|0:2,0:0:0:0:
249,255,129716,6,0,P|356:262|461:272,2,200,4|4|4,3:1|3:1|3:1,0:0:0:0:
200,190,131338,1,4,0:1:0:0:
243,122,131662,2,0,P|250:63|253:16,1,99.9999999999999,0|8,3:0|3:2,0:0:0:0:
256,192,132311,12,0,134905,2:0:0:0:
